osu file format v9

[General]
AudioFilename: Na Na Na.mp3
AudioLeadIn: 0
PreviewTime: 46468
Countdown: 1
SampleSet: Normal
StackLeniency: 0.7
Mode: 0
LetterboxInBreaks: 0
EpilepsyWarning: 1

[Editor]
DistanceSpacing: 0.6
BeatDivisor: 4
GridSize: 4

[Metadata]
Title:Na Na Na (Na Na Na Na Na Na Na Na Na)
Artist:My Chemical Romance
Creator:DiamondCrash
Version:Nard
Source:
Tags:Danger Days The True Lives of the Fabulous Killjoys

[Difficulty]
HPDrainRate:7
CircleSize:4
OverallDifficulty:7
ApproachRate:8
SliderMultiplier:2.4
SliderTickRate:2

[Events]
//Background and Video events
0,0,"mcrback.jpg"
//Break Periods
2,75274,79041
2,110172,120092
2,147582,158379
//Storyboard Layer 0 (Background)
//Storyboard Layer 1 (Fail)
//Storyboard Layer 2 (Pass)
//Storyboard Layer 3 (Foreground)
//Storyboard Sound Samples
//Background Colour Transformations
3,100,0,0,0

[TimingPoints]
93,361.44578313253,4,1,0,100,1,0
23678,-100,4,2,0,100,0,0
23858,-100,4,1,0,100,0,0
25123,-100,4,2,0,100,0,0
25485,-100,4,1,0,100,0,0
26569,-100,4,2,0,100,0,0
26750,-100,4,1,0,100,0,0
28015,-100,4,2,0,100,0,0
28376,-100,4,1,0,100,0,0
29461,-100,4,2,0,100,0,0
29642,-100,4,1,0,100,0,0
30907,-100,4,2,0,100,0,0
31087,-100,4,1,0,100,0,0
33979,-100,4,2,0,100,0,0
34340,-100,4,1,0,100,0,0
35244,-100,4,2,0,100,0,0
35425,-100,4,1,0,100,0,0
36690,-100,4,2,0,100,0,0
37051,-100,4,1,0,100,0,0
38135,-100,4,2,0,100,0,0
38316,-100,4,1,0,100,0,0
39581,-100,4,2,0,100,0,0
39943,-100,4,1,0,100,0,0
41027,-100,4,2,0,100,0,0
41208,-100,4,1,0,100,0,0
42473,-100,4,2,0,100,0,0
42654,-100,4,1,0,100,0,0
45545,-100,4,2,0,100,0,0
45907,-100,4,1,0,100,0,0
46810,-100,4,2,0,100,0,0
46991,-100,4,1,0,100,0,0
48256,-100,4,2,0,100,0,0
48617,-100,4,1,0,100,0,0
49702,-100,4,2,0,100,0,0
49882,-100,4,1,0,100,0,0
51148,-100,4,2,0,100,0,0
51509,-100,4,1,0,100,0,0
52593,-100,4,2,0,100,0,0
52774,-100,4,1,0,100,0,0
54039,-100,4,2,0,100,0,0
54401,-100,4,1,0,100,0,0
58376,-100,4,2,0,100,0,0
58557,-100,4,1,0,100,0,0
59822,-100,4,2,0,100,0,0
60184,-100,4,1,0,100,0,0
61268,-100,4,2,0,100,0,0
61449,-100,4,1,0,100,0,0
62714,-100,4,2,0,100,0,0
63075,-100,4,1,0,100,0,0
64160,-100,4,2,0,100,0,0
64340,-100,4,1,0,100,0,0
65605,-100,4,2,0,100,0,0
65967,-100,4,1,0,100,0,0
72834,-100,4,2,0,100,0,0
73015,-100,4,1,0,100,0,0
80063,-100,4,2,0,100,0,0
80244,-100,4,1,0,100,0,0
80425,-100,4,2,0,100,0,0
80605,-100,4,1,0,100,0,0
81328,-100,4,2,0,100,0,0
81690,-100,4,1,0,100,0,0
82051,-100,4,2,0,100,0,0
82232,-100,4,1,0,100,0,0
82774,-100,4,2,0,100,0,0
83135,-100,4,1,0,100,0,0
83497,-100,4,2,0,100,0,0
83678,-100,4,1,0,100,0,0
86027,-100,4,2,0,100,0,0
86388,-100,4,1,0,100,0,0
87292,-100,4,2,0,100,0,0
87473,-100,4,1,0,100,0,0
88738,-100,4,2,0,100,0,0
89099,-100,4,1,0,100,0,0
90184,-100,4,2,0,100,0,0
90364,-100,4,1,0,100,0,0
91629,-100,4,2,0,100,0,0
91991,-100,4,1,0,100,0,0
93075,-100,4,2,0,100,0,0
93256,-100,4,1,0,100,0,0
94521,-100,4,2,0,100,0,0
94882,-100,4,1,0,100,0,0
98858,-100,4,2,0,100,0,0
99039,-100,4,1,0,100,0,0
100304,-100,4,2,0,100,0,0
100666,-100,4,1,0,100,0,0
101750,-100,4,2,0,100,0,0
101931,-100,4,1,0,100,0,0
103196,-100,4,2,0,100,0,0
103557,-100,4,1,0,100,0,0
104642,-100,4,2,0,100,0,0
104822,-100,4,1,0,100,0,0
106087,-100,4,2,0,100,0,0
106449,-100,4,1,0,100,0,0
122442,-100,4,2,0,100,0,0
122562,-100,4,1,0,100,0,0
122683,-100,4,2,0,100,0,0
122803,-100,4,1,0,100,0,0
123888,-100,4,2,0,100,0,0
124008,-100,4,1,0,100,0,0
133557,-100,4,2,0,100,0,0
134099,-100,4,1,0,100,0,0
134280,-100,4,2,0,100,0,0
134461,-100,4,1,0,100,0,0
134732,-100,4,2,0,100,0,0
135545,-100,4,1,0,100,0,0
136449,-100,4,2,0,100,0,0
136991,-100,4,1,0,100,0,0
137172,-100,4,2,0,100,0,0
137352,-100,4,1,0,100,0,0
137623,-100,4,2,0,100,0,0
138437,-100,4,1,0,100,0,0
159310,-100,4,2,0,100,0,0
161208,-100,4,1,0,100,0,0
162021,-100,4,1,0,100,0,1
162473,-100,4,2,0,100,0,1
162654,-100,4,1,0,100,0,1
163919,-100,4,2,0,100,0,1
164280,-100,4,1,0,100,0,1
165364,-100,4,2,0,100,0,1
165545,-100,4,1,0,100,0,1
166810,-100,4,2,0,100,0,1
167172,-100,4,1,0,100,0,1
168256,-100,4,2,0,100,0,1
168437,-100,4,1,0,100,0,1
169702,-100,4,2,0,100,0,1
170063,-100,4,1,0,100,0,1
173497,-100,4,1,0,100,0,0
173587,-100,4,1,0,100,0,1
182262,-100,4,1,0,100,0,0

[HitObjects]
40,152,23225,2,0,B|32:56|96:-8|208:8,1,240,4|8
256,24,23767,1,8
324,4,23948,2,0,B|414:-1|478:54|470:150,1,240,0|8
404,180,24490,1,0
368,112,24671,2,0,B|332:152|280:144|232:104|180:96|144:136,1,240,4|8
76,164,25213,1,8
132,212,25394,1,2
200,188,25574,1,0
188,260,25755,1,8
120,284,25936,1,0
40,272,26117,6,0,B|40:280|40:280|40:340|76:364|116:364|116:364|236:364,1,240,4|8
256,300,26659,1,8
292,364,26839,2,0,B|396:364|396:364|436:364|472:340|472:280|472:280|472:272,1,240,0|8
476,192,27382,1,0
400,212,27562,2,0,B|364:172|312:180|264:220|212:228|176:188,1,240,4|8
232,136,28105,1,8
164,112,28285,1,2
220,64,28466,1,0
152,40,28647,1,8
16,84,29008,6,0,B|-44:148|-44:236|16:300,1,240,4|8
80,260,29550,1,8
80,332,29731,1,0
368,144,30092,5,8
432,112,30273,1,0
500,84,30454,2,0,B|560:148|560:236|500:300,1,240,4|8
432,260,30996,1,8
432,332,31177,1,0
292,372,31538,5,8
256,308,31719,1,0
220,372,31900,1,4
304,248,32261,5,8
256,192,32442,1,0
208,136,32623,1,4
292,12,32984,5,8
256,76,33165,1,0
220,12,33346,1,4
152,68,33526,6,0,B|116:120|148:200,1,120,8|4
172,248,33888,2,0,B|206:301|268:316,1,120,0|8
340,324,34249,2,0,B|412:332|460:284,1,120,2|8
472,224,34611,1,8
472,152,34791,6,0,B|480:56|416:-8|304:8,1,240,4|8
256,24,35333,1,8
188,4,35514,2,0,B|98:-1|34:54|42:150,1,240,0|8
108,180,36056,1,0
144,112,36237,2,0,B|180:152|232:144|280:104|332:96|368:136,1,240,4|8
436,164,36779,1,8
380,212,36960,1,2
312,188,37141,1,0
324,260,37321,1,8
392,284,37502,1,0
472,272,37683,6,0,B|472:280|472:280|472:340|436:364|396:364|396:364|276:364,1,240,4|8
256,300,38225,1,8
220,364,38406,2,0,B|116:364|116:364|76:364|40:340|40:280|40:280|40:272,1,240,0|8
36,192,38948,1,0
112,212,39129,2,0,B|148:172|200:180|248:220|300:228|336:188,1,240,4|8
280,136,39671,1,8
348,112,39852,1,2
292,64,40032,1,0
360,40,40213,1,8
416,88,40394,1,0
496,84,40574,6,0,B|556:148|556:236|496:300,1,240,4|8
432,264,41117,1,8
432,336,41297,1,0
144,148,41659,5,8
80,116,41839,1,0
16,84,42020,2,0,B|-44:148|-44:236|16:300,1,240,4|8
80,264,42562,1,8
80,336,42743,1,0
220,372,43105,5,8
256,308,43285,1,0
292,372,43466,1,4
208,248,43827,5,8
256,192,44008,1,0
304,136,44189,1,4
220,12,44550,5,8
256,76,44731,1,0
292,12,44912,1,4
364,28,45093,5,8
424,68,45273,1,4
468,124,45454,1,0
492,192,45635,1,8
468,260,45815,1,2
424,316,45996,1,8
364,356,46177,1,8
292,356,46358,6,0,B|252:308|264:248|312:240|324:180|284:132,1,240,4|8
232,185,46900,1,8
180,240,47080,2,0,B|140:192|152:132|200:124|212:64|172:16,1,240,4|8
120,72,47623,1,0
56,36,47803,1,4
8,120,47984,5,0
8,192,48165,1,8
8,264,48346,1,8
8,336,48526,1,0
76,308,48707,1,8
76,308,48888,1,8
220,356,49249,6,0,B|260:308|248:248|200:240|188:180|228:132,1,240,4|8
280,185,49791,1,8
332,240,49972,2,0,B|372:192|360:132|312:124|300:64|340:16,1,240,4|8
392,72,50514,1,0
456,36,50695,1,4
504,120,50876,5,0
504,192,51056,1,8
504,264,51237,1,8
504,336,51418,1,0
440,304,51599,1,8
440,304,51779,1,8
292,356,52141,6,0,B|252:308|264:248|312:240|324:180|284:132,1,240,4|8
232,185,52683,1,8
180,240,52864,2,0,B|140:192|152:132|200:124|212:64|172:16,1,240,4|8
120,72,53406,1,0
56,36,53586,1,4
8,120,53767,5,0
8,192,53948,1,8
8,264,54129,1,8
8,336,54309,1,0
76,308,54490,1,8
76,308,54671,1,8
224,328,55032,6,0,B|308:356|400:308|412:192,1,240,4|8
160,296,55755,2,0,B|88:246|93:143|159:84,1,240,4|8
400,152,56478,2,0,B|382:65|294:9|188:57,1,240,4|8
256,192,57201,1,4
256,192,57562,1,8
512,8,57924,6,0,B|464:48|404:36|396:-12|336:-24|288:16,1,240,4|8
256,80,58466,1,8
224,144,58647,2,0,B|176:184|116:172|108:124|48:112|0:152,1,240,4|8
56,204,59189,1,0
0,248,59370,1,4
0,320,59550,5,0
64,284,59731,1,8
128,320,59912,1,8
192,284,60093,1,0
260,324,60273,1,8
260,324,60454,1,8
0,8,60815,6,0,B|48:48|108:36|116:-12|176:-24|224:16,1,240,4|8
256,80,61358,1,8
288,144,61538,2,0,B|336:184|396:172|404:124|464:112|512:152,1,240,4|8
456,204,62080,1,0
512,248,62261,1,4
512,320,62442,5,0
448,284,62623,1,8
384,320,62803,1,8
320,284,62984,1,0
256,320,63165,1,8
256,320,63346,1,8
512,8,63707,6,0,B|464:48|404:36|396:-12|336:-24|288:16,1,240,4|8
256,80,64249,1,8
224,144,64430,2,0,B|176:184|116:172|108:124|48:112|0:152,1,240,4|8
56,204,64972,1,0
0,248,65153,1,4
0,320,65333,5,0
64,284,65514,1,8
128,320,65695,1,8
192,284,65876,1,0
260,324,66056,1,8
260,324,66237,1,8
224,56,66599,6,0,B|308:28|400:76|412:192,1,240,4|8
160,88,67321,2,0,B|88:138|93:241|159:300,1,240,4|8
400,232,68044,2,0,B|382:319|294:375|188:327,1,240,4|8
256,192,68767,1,4
256,192,69129,1,8
512,8,69490,6,0,B|464:48|404:36|396:-12|336:-24|288:16,1,240,4|8
256,80,70032,1,8
224,144,70213,2,0,B|176:184|116:172|108:124|48:112|0:152,1,240,4|8
56,204,70755,1,0
112,256,70936,1,4
184,368,71297,5,0
256,368,71478,1,0
328,368,71659,1,4
292,308,71839,1,0
220,308,72020,1,0
256,248,72201,1,0
312,196,72382,6,0,B|264:156|204:168|196:216|136:228|88:188,1,240,4|8
116,124,72924,1,8
144,56,73105,2,0,B|192:16|252:28|260:76|320:88|368:48,1,240,4|8
432,12,73647,1,0
432,84,73827,1,4
432,248,79791,5,0
384,304,79972,1,8
324,344,80153,1,8
256,364,80333,1,4
188,344,80514,1,8
128,304,80695,1,8
80,248,80876,1,0
16,216,81056,6,0,B|84:112,1,120,4|0
152,141,81418,2,8,B|218:40,1,120
295,40,81779,2,0,B|360:140,1,120,4|0
431,116,82141,2,0,B|496:216,1,120,8|0
512,288,82502,2,0,B|412:360,1,120,4|0
392,288,82864,2,8,B|292:360,1,120
218,359,83225,2,8,B|120:288,1,120,4|0
98,359,83586,2,0,B|0:288,1,120,8|0
0,192,83948,5,4
60,156,84129,1,0
60,228,84309,1,8
132,228,84490,1,0
132,156,84671,1,4
380,192,85032,1,8
256,372,85574,5,8
256,300,85755,1,4
256,228,85936,1,0
256,156,86117,1,8
256,84,86297,1,2
256,12,86478,1,8
420,288,86839,6,0,B|484:252|500:192|484:132|420:96,1,240,4|8
376,156,87382,1,8
336,96,87562,2,0,B|272:132|256:192|272:252|336:288,1,240,4|8
376,228,88105,1,0
376,228,88285,1,4
364,368,88466,5,0
292,368,88647,1,0
220,368,88827,1,8
148,368,89008,1,0
184,304,89189,1,8
184,304,89370,1,8
44,248,89731,6,0,B|-20:212|-36:152|-20:92|44:56,1,240,4|8
88,116,90273,1,8
128,56,90454,2,0,B|192:92|208:152|192:212|128:248,1,240,4|8
88,188,90996,1,0
88,188,91177,1,4
148,316,91358,5,0
220,316,91538,1,0
292,316,91719,1,8
364,316,91900,1,0
328,252,92080,1,8
328,252,92261,1,8
480,192,92623,6,0,B|544:156|560:96|544:36|480:0,1,240,4|8
436,60,93165,1,8
396,0,93346,2,0,B|332:36|316:96|332:156|396:192,1,240,4|8
436,132,93888,1,0
436,132,94068,1,4
436,272,94249,5,0
364,272,94430,1,0
292,272,94611,1,8
220,272,94791,1,0
256,208,94972,1,8
256,208,95153,1,8
360,292,95514,6,0,B|312:360|200:360|152:292,1,240,4|8
216,48,96237,2,0,B|134:66|78:152|116:232,1,240,4|8
400,232,96960,2,0,B|428:148|380:56|264:44,1,240,4|8
256,192,97683,1,4
256,192,98044,1,8
92,96,98406,6,0,B|28:132|12:192|28:252|92:288,1,240,4|8
136,228,98948,1,8
176,288,99129,2,0,B|240:252|256:192|240:132|176:96,1,240,4|8
136,156,99671,1,0
136,156,99852,1,4
148,16,100032,5,0
220,16,100213,1,0
292,16,100394,1,8
364,16,100574,1,0
328,80,100755,1,8
328,80,100936,1,8
468,136,101297,6,0,B|532:172|548:232|532:292|468:328,1,240,4|8
424,268,101839,1,8
384,328,102020,2,0,B|320:292|304:232|320:172|384:136,1,240,4|8
424,196,102562,1,0
424,196,102743,1,4
256,144,102924,5,0
292,80,103105,1,0
220,80,103285,1,8
148,80,103466,1,0
76,80,103647,1,8
76,80,103827,1,8
32,192,104189,6,0,B|-32:228|-48:288|-32:348|32:384,1,240,4|8
76,324,104731,1,8
116,384,104912,2,0,B|180:348|196:288|180:228|116:192,1,240,4|8
76,252,105454,1,0
76,252,105635,1,4
76,112,105815,5,0
148,112,105996,1,0
220,112,106177,1,8
292,112,106358,1,0
256,176,106538,1,8
256,176,106719,1,8
152,292,107080,6,0,B|200:360|312:360|360:292,1,240,4|8
296,48,107803,2,0,B|378:66|434:152|396:232,1,240,4|8
112,232,108526,2,0,B|84:148|132:56|248:44,1,240,4|8
220,208,109249,2,0,B|176:276,2,80,8|0|0
292,208,109611,2,0,B|336:276,2,80,8|0|0
256,148,109972,1,4
56,108,121538,6,4,B|112:20|196:-28|316:-28|400:20|456:108,1,480
400,152,122382,1,0
328,172,122502,1,8
256,192,122623,1,8
184,212,122743,1,0
112,232,122863,1,8
56,276,122984,6,0,B|112:364|196:412|316:412|400:364|456:276,1,480
400,232,123827,1,0
328,212,123947,1,0
256,192,124068,1,8
492,48,124430,6,4,B|300:-27|212:114|20:40,1,480
20,140,125394,1,0
20,244,125635,1,0
20,336,125876,6,4,B|212:411|300:270|492:344,1,480
492,240,126839,1,0
492,136,127080,1,0
372,88,127321,6,0,B|256:136|256:40|140:88,2,240,4|0|4
296,192,128406,1,8
371,296,128767,6,0,B|256:344|256:248|140:296,2,240,4|0|4
296,192,129852,1,8
256,52,130213,5,4
256,192,130574,8,4,133105
348,0,133466,5,0
392,56,133647,1,0
436,112,133827,1,8
364,124,134008,1,0
408,180,134189,1,0
452,236,134370,1,0
504,288,134550,2,0,B|467:373|387:401|306:381,1,240,0|8
244,348,135092,2,0,B|181:292|160:209|210:131,1,240
256,76,135635,1,8
256,76,135996,1,12
164,0,136358,5,0
120,56,136538,1,0
76,112,136719,1,8
148,124,136900,1,0
104,180,137080,1,0
60,236,137261,1,0
8,288,137442,2,0,B|44:373|124:401|205:381,1,240,0|8
268,348,137984,2,0,B|330:292|351:209|301:131,1,240
256,76,138526,5,8
80,172,138888,1,4
16,140,139068,2,0,B|52:4|256:-64|460:4|496:140,1,600,0|8
424,268,140333,5,4
360,308,140514,2,0,B|304:376|208:376|152:308,1,240
152,228,141056,2,0,B|208:160|304:160|360:228,1,240,0|8
296,268,141599,1,4
512,0,142141,5,0
416,0,142321,1,0
320,0,142502,1,4
0,96,142864,5,0
96,96,143044,1,0
192,96,143225,1,4
512,192,143586,5,0
416,192,143767,1,0
320,192,143948,1,4
0,288,144309,5,0
96,288,144490,1,0
192,288,144671,1,4
512,384,145032,5,0
416,384,145213,1,0
320,384,145394,1,4
256,192,145755,1,4
20,140,146297,5,0
76,64,146478,1,8
160,20,146659,1,8
256,8,146839,1,4
352,20,147020,1,8
436,64,147201,1,8
492,140,147382,1,4
256,384,159129,5,4
336,264,159490,1,0
336,264,159671,1,0
336,264,159852,1,2
176,264,160213,1,0
176,264,160394,1,0
176,264,160574,1,2
176,120,160936,1,0
176,120,161117,1,0
176,120,161297,1,4
336,120,161659,1,0
276,364,162020,6,0,B|236:316|248:256|296:248|308:188|268:140,1,240,4|8
216,193,162562,1,8
164,248,162743,2,0,B|124:200|136:140|184:132|196:72|156:24,1,240,4|8
104,80,163285,1,0
40,44,163466,1,4
8,120,163647,5,0
8,192,163827,1,8
8,264,164008,1,8
8,336,164189,1,0
76,308,164370,1,8
76,308,164550,1,8
236,364,164912,6,0,B|276:316|264:256|216:248|204:188|244:140,1,240,4|8
296,193,165454,1,8
348,248,165635,2,0,B|388:200|376:140|328:132|316:72|356:24,1,240,4|8
408,80,166177,1,0
472,44,166358,1,4
504,120,166538,5,0
504,192,166719,1,8
504,264,166900,1,8
504,336,167080,1,0
436,308,167261,1,8
436,308,167442,1,8
32,192,167803,6,0,B|-32:156|-48:96|-32:36|32:0,1,240,4|8
76,60,168346,1,8
116,0,168526,2,0,B|180:36|196:96|180:156|116:192,1,240,4|8
76,132,169068,1,0
76,132,169249,1,4
76,272,169430,5,0
148,272,169611,1,0
220,272,169791,1,8
292,272,169972,1,0
256,208,170153,1,8
256,208,170333,1,8
152,92,170695,6,0,B|200:24|312:24|360:92,1,240,4|8
296,336,171418,2,0,B|378:318|434:232|396:152,1,240,4|8
112,152,172141,2,0,B|84:236|132:328|248:340,1,240,4|8
256,192,172864,1,4
256,192,173225,1,8
420,288,173586,6,0,B|484:252|500:192|484:132|420:96,1,240,4|8
376,156,174129,1,0
336,96,174309,2,0,B|272:132|256:192|272:252|336:288,1,240,4|8
376,228,174852,1,0
376,228,175032,1,4
364,368,175213,5,0
292,368,175394,1,8
220,368,175574,1,0
148,368,175755,1,4
184,304,175936,1,0
184,304,176117,1,8
44,248,176478,6,0,B|-20:212|-36:152|-20:92|44:56,1,240,4|8
88,116,177020,1,0
128,56,177201,2,0,B|192:92|208:152|192:212|128:248,1,240,4|8
88,188,177743,1,0
88,188,177924,1,4
256,240,178105,5,0
220,304,178285,1,8
292,304,178466,1,0
364,304,178647,1,4
436,304,178827,1,0
436,304,179008,1,8
512,8,179370,6,0,B|464:48|404:36|396:-12|336:-24|288:16,1,240,4|8
256,80,179912,1,8
224,144,180093,2,0,B|176:184|116:172|108:124|48:112|0:152,1,240,4|8
56,204,180635,1,0
0,248,180815,1,4
0,320,180996,5,0
64,284,181177,1,8
128,320,181358,1,0
192,284,181538,1,4
260,324,181719,1,0
260,324,181900,1,8
224,56,182261,6,0,B|308:28|400:76|412:192,1,240,4|8
160,88,182984,2,0,B|88:138|93:241|159:300,1,240,4|8
400,232,183707,2,0,B|382:319|294:375|188:327,1,240,4|8
224,164,184430,1,4
212,152,184550,1,0
200,140,184671,1,0
188,128,184791,1,8
176,116,184912,1,0
164,104,185032,1,0
152,92,185153,6,0,B|200:24|312:24|360:92,1,240,4|8
296,336,185876,2,0,B|378:318|434:232|396:152,1,240,4|8
112,152,186599,2,0,B|84:236|132:328|248:340,1,240,4|8
256,56,187321,1,4
224,92,187442,1,0
232,140,187562,1,0
256,164,187683,1,8
280,188,187803,1,0
288,236,187924,1,0
256,272,188044,1,4
256,192,188135,8,4,191297
