osu file format v14

[General]
AudioFilename: My Chemical Romance- Every Snowflake is Different.mp3
AudioLeadIn: 0
PreviewTime: 59646
Countdown: 0
SampleSet: None
StackLeniency: 0.7
Mode: 0
LetterboxInBreaks: 0
WidescreenStoryboard: 1

[Editor]
DistanceSpacing: 1.1
BeatDivisor: 4
GridSize: 4
TimelineZoom: 1

[Metadata]
Title:Every Snowflake is Different (just like you)
TitleUnicode:Every Snowflake is Different (just like you)
Artist:My Chemical Romance
ArtistUnicode:My Chemical Romance
Creator:-Bakari-
Version:Snowy
Source:Yo Gabba Gabba!
Tags:and gerard way matt pelissier ray toro mikey frank iero bob
BeatmapID:672348
BeatmapSetID:299724

[Difficulty]
HPDrainRate:7
CircleSize:4
OverallDifficulty:7
ApproachRate:8
SliderMultiplier:2.1
SliderTickRate:2

[Events]
//Background and Video events
0,0,"sn.jpg",0,0
Video,406,"My Chemical Romance - 'Every Snowflake is Different (just like you)' [Official Music Video].avi"
//Break Periods
//Storyboard Layer 0 (Background)
//Storyboard Layer 1 (Fail)
//Storyboard Layer 2 (Pass)
//Storyboard Layer 3 (Foreground)
//Storyboard Sound Samples

[TimingPoints]
492,422.535211267606,4,3,0,50,1,0
59646,-100,4,3,0,50,0,1
71266,-100,4,3,0,50,0,0
73168,-100,4,3,0,50,0,1
83308,-100,4,2,0,5,0,0

[Colours]
Combo1 : 222,219,92
Combo2 : 134,187,111
Combo3 : 147,163,240
Combo4 : 218,141,84

[HitObjects]
80,384,492,6,0,P|68:344|80:268,1,105,4|0,0:0|0:0,0:0:0:0:
208,168,914,1,8,0:0:0:0:
216,284,1125,1,0,0:0:0:0:
96,172,1337,2,0,L|120:64,1,105
304,115,1759,2,0,P|320:171|304:232,1,105,8|0,0:0|0:0,0:0:0:0:
208,168,2182,6,0,P|200:116|312:4,1,210,0|8,0:0|0:0,0:0:0:0:
392,72,2815,2,0,P|404:124|376:196,1,105,0|0,0:0|0:0,0:0:0:0:
208,168,3238,1,0,0:0:0:0:
284,256,3449,2,0,L|272:368,1,105,8|0,0:0|0:0,0:0:0:0:
388,192,3872,6,0,L|404:316,1,105,0|0,0:0|0:0,0:0:0:0:
284,156,4294,1,8,0:0:0:0:
380,88,4506,1,0,0:0:0:0:
488,128,4717,2,0,P|504:168|500:240,1,105,0|0,0:0|0:0,0:0:0:0:
336,328,5139,2,0,L|344:224,1,105,8|0,0:0|0:0,0:0:0:0:
204,156,5562,6,0,P|176:196|184:272,1,105,0|0,0:0|0:0,0:0:0:0:
236,348,5984,1,8,0:0:0:0:
64,368,6196,1,0,0:0:0:0:
256,216,6407,1,0,0:0:0:0:
144,184,6618,1,0,0:0:0:0:
352,136,6830,2,0,L|272:60,1,105,8|0,0:0|0:0,0:0:0:0:
368,251,7252,6,0,P|424:227|448:79,1,210,4|8,0:0|0:0,0:0:0:0:
360,20,7886,1,0,0:0:0:0:
352,136,8097,1,0,0:0:0:0:
368,251,8308,1,0,0:0:0:0:
436,344,8520,2,0,L|308:364,1,105,8|0,0:0|0:0,0:0:0:0:
186,325,8942,6,0,P|199:247|290:309,1,210,0|8,0:0|0:0,0:0:0:0:
116,360,9576,1,0,0:0:0:0:
96,248,9787,2,0,P|128:196|168:164,1,105,0|0,0:0|0:0,0:0:0:0:
144,52,10210,2,0,P|100:44|32:52,1,105,8|0,0:0|0:0,0:0:0:0:
260,110,10632,6,0,P|277:69|276:6,1,105,0|0,0:0|0:0,0:0:0:0:
168,128,11055,1,8,0:0:0:0:
204,236,11266,1,0,0:0:0:0:
244,344,11477,1,0,0:0:0:0:
128,332,11689,1,0,0:0:0:0:
204,236,11900,1,8,0:0:0:0:
284,152,12111,2,0,P|288:104|264:48,1,105,0|0,0:0|0:0,0:0:0:0:
332,256,12534,5,2,0:3:0:0:
416,176,12745,1,10,0:3:0:0:
500,96,12956,1,2,0:3:0:0:
388,60,13168,1,2,0:3:0:0:
416,176,13379,1,2,0:3:0:0:
444,288,13590,2,0,P|424:332|376:360,1,105,10|0,0:3|2:3,0:0:0:0:
226,350,14013,6,0,P|220:276|334:255,1,210,4|8,0:2|0:0,0:0:0:0:
292,144,14646,2,0,L|304:36,1,105,0|0,0:0|0:0,0:0:0:0:
148,24,15069,1,0,0:0:0:0:
152,140,15280,1,8,0:0:0:0:
160,256,15492,1,0,0:0:0:0:
24,332,15703,6,0,P|8:288|24:216,1,105,0|0,0:0|0:0,0:0:0:0:
152,140,16125,1,8,0:0:0:0:
132,256,16337,1,0,0:0:0:0:
272,176,16548,1,0,0:0:0:0:
340,268,16759,1,0,0:0:0:0:
420,144,16970,2,0,L|524:168,1,105,8|0,0:0|0:0,0:0:0:0:
340,172,17393,6,0,P|336:124|468:72,1,210,2|8,0:2|0:0,0:0:0:0:
500,176,18027,1,2,0:2:0:0:
420,260,18238,2,0,L|412:368,1,105,0|0,0:0|0:0,0:0:0:0:
304,248,18661,1,8,0:0:0:0:
272,136,18872,1,0,0:0:0:0:
164,248,19083,6,0,P|152:304|0:292,1,210,2|8,0:2|0:0,0:0:0:0:
52,212,19717,1,2,0:2:0:0:
276,288,19928,1,0,0:0:0:0:
140,93,20139,1,0,0:0:0:0:
136,331,20351,1,8,0:0:0:0:
279,141,20562,1,2,0:0:0:0:
175,200,20773,6,0,P|119:204|63:176,1,105
140,93,21196,2,0,P|196:89|252:117,1,105,8|0,0:0|0:0,0:0:0:0:
276,216,21618,2,0,L|492:224,1,210,0|8,0:0|0:0,0:0:0:0:
400,148,22252,1,0,0:0:0:0:
288,313,22463,6,0,P|256:309|184:249,1,105
193,109,22886,2,0,P|225:113|297:173,1,105,8|0,0:0|0:0,0:0:0:0:
288,313,23308,1,0,0:0:0:0:
384,248,23520,1,0,0:0:0:0:
197,266,23731,2,0,L|61:242,1,105,8|0,0:0|0:0,0:0:0:0:
44,96,24153,5,0,0:0:0:0:
160,68,24365,1,0,0:0:0:0:
292,144,24576,2,0,P|260:172|184:192,1,105,8|0,0:0|0:0,0:0:0:0:
79,307,24999,2,0,P|131:335|179:347,1,105,0|0,0:0|0:0,0:0:0:0:
312,252,25421,1,8,0:0:0:0:
336,364,25632,1,0,2:2:0:0:
228,320,25844,6,0,L|248:84,1,210,2|8,0:2|0:0,0:0:0:0:
358,147,26477,2,0,L|340:44,2,105,0|0|0,0:0|0:0|0:0,0:0:0:0:
469,95,27111,2,0,L|456:200,1,105,8|0,0:0|0:0,0:0:0:0:
436,216,27428,1,0,0:0:0:0:
416,233,27534,6,0,B|368:264|304:240|304:240|208:280,1,210,0|8,0:0|0:0,0:0:0:0:
104,260,28168,2,0,P|88:224|208:188,1,210,0|0,0:0|0:0,0:0:0:0:
184,296,28801,2,0,B|216:336|216:336|280:360,1,105,8|0,0:0|0:0,0:0:0:0:
360,289,29224,2,0,B|312:200|312:200|204:182,1,210,0|8,0:0|0:0,0:0:0:0:
172,72,29858,2,0,B|228:59|271:92|271:92|319:133|372:118,1,210,0|0,0:0|0:0,0:0:0:0:
352,4,30492,1,8,0:0:0:0:
192,172,30914,6,0,P|144:168|72:28,1,210,0|8,0:0|0:0,0:0:0:0:
184,55,31548,2,0,L|158:263,1,210
328,316,32182,2,0,L|316:208,1,105,8|0,0:0|0:0,0:0:0:0:
432,96,32604,5,0,0:0:0:0:
424,212,32815,1,0,0:0:0:0:
424,328,33027,2,0,P|372:324|320:352,1,105,8|0,0:0|0:0,0:0:0:0:
212,332,33449,2,0,P|184:280|188:228,1,105,0|0,0:0|0:0,0:0:0:0:
228,128,33872,2,0,L|216:24,1,105,8|0,0:0|0:0,0:0:0:0:
344,84,34294,6,0,P|352:136|240:240,1,210,0|8,0:0|0:0,0:0:0:0:
152,180,34928,1,0,0:0:0:0:
168,296,35139,1,0,0:0:0:0:
40,240,35351,2,0,L|56:128,1,105,0|8,0:0|0:0,0:0:0:0:
36,24,35773,1,0,0:0:0:0:
204,96,35984,6,0,P|260:96|380:8,1,210,0|8,0:0|0:0,0:0:0:0:
428,116,36618,2,0,P|400:164|416:312,1,210,0|0,0:0|0:0,0:0:0:0:
300,304,37252,2,0,P|272:255|135:195,2,210,8|0|8,0:0|0:0|0:0,0:0:0:0:
208,372,38308,5,0,0:0:0:0:
200,256,38520,2,0,L|208:128,2,105,0|0|8,0:0|0:0|0:0,0:0:0:0:
300,304,39153,1,0,0:0:0:0:
242,32,39576,5,2,0:0:0:0:
168,203,39787,1,10,0:0:0:0:
127,21,39999,1,2,0:0:0:0:
268,144,40210,1,2,0:0:0:0:
82,126,40421,2,0,P|68:156|64:188,1,52.5,0|0,0:0|0:0,0:0:0:0:
76,208,40632,1,8,0:0:0:0:
96,240,40738,1,0,0:0:0:0:
112,272,40844,1,0,0:0:0:0:
128,304,40949,1,0,0:0:0:0:
144,336,41055,22,0,L|264:328,1,105,4|0,0:2|0:0,0:0:0:0:
353,225,41477,2,0,P|309:201|245:201,1,105,8|0,0:0|0:0,0:0:0:0:
148,99,41900,2,0,P|196:59|340:59,1,210,0|8,1:0|0:0,0:0:0:0:
428,128,42534,1,0,0:0:0:0:
325,300,42745,6,0,L|336:196,1,105,4|0,0:2|0:0,0:0:0:0:
208,129,43168,2,0,P|200:165|216:233,1,105,8|0,0:0|0:0,0:0:0:0:
116,339,43590,2,0,P|72:291|56:139,1,210,0|8,1:0|0:0,0:0:0:0:
120,56,44224,1,0,0:0:0:0:
208,128,44435,6,0,L|316:132,1,105,4|0,2:0|0:0,0:0:0:0:
420,172,44858,1,8,0:0:0:0:
392,60,45069,1,0,0:0:0:0:
288,245,45280,1,0,1:0:0:0:
312,133,45492,1,0,0:0:0:0:
90,229,45703,2,0,L|182:177,1,105,8|0,0:0|0:0,0:0:0:0:
28,116,46125,22,0,L|0:328,1,210,4|8,0:2|0:0,0:0:0:0:
112,300,46759,1,0,0:0:0:0:
216,348,46970,2,0,P|228:296|128:180,1,210,0|8,1:0|0:0,0:0:0:0:
112,300,47604,1,0,0:0:0:0:
216,348,47815,22,0,L|236:240,1,105,4|0,0:2|0:0,0:0:0:0:
336,304,48238,2,0,L|392:200,1,105,8|0,0:0|0:0,0:0:0:0:
360,100,48661,2,0,P|316:92|168:196,1,210,0|8,0:1|0:0,0:0:0:0:
292,200,49294,1,0,0:0:0:0:
220,292,49506,6,0,P|276:320|332:308,1,105,4|0,0:2|0:0,0:0:0:0:
292,200,49928,2,0,P|296:156|156:28,2,210,8|0|8,0:0|1:0|0:0,0:0:0:0:
216,296,50984,1,0,0:0:0:0:
328,320,51196,2,0,L|440:308,1,105,0|0,0:0|0:0,0:0:0:0:
472,199,51618,5,8,0:0:0:0:
443,183,51830,1,0,0:0:0:0:
415,167,52041,1,0,0:0:0:0:
387,151,52252,1,0,0:0:0:0:
359,136,52463,1,8,0:0:0:0:
331,120,52675,1,0,0:0:0:0:
308,232,52886,5,0,0:0:0:0:
257,222,53097,1,0,0:0:0:0:
205,212,53308,1,8,0:0:0:0:
153,202,53520,1,0,0:0:0:0:
64,304,53731,5,0,0:0:0:0:
136,296,53942,1,0,0:0:0:0:
207,283,54153,1,8,0:0:0:0:
279,275,54365,1,0,0:0:0:0:
348,353,54576,5,0,0:0:0:0:
218,174,54787,1,0,0:0:0:0:
428,242,54999,1,8,0:0:0:0:
218,310,55210,1,0,0:0:0:0:
348,132,55421,2,0,P|348:176|328:252,1,105,0|0,0:0|0:0,0:0:0:0:
152,132,55844,2,0,P|148:88|160:20,1,105,8|0,0:0|0:0,0:0:0:0:
256,192,56266,12,2,57956,0:3:0:0:
88,340,59646,6,0,P|76:316|68:236,1,105,4|0,0:2|0:0,0:0:0:0:
212,152,60069,1,8,0:0:0:0:
184,264,60280,1,2,0:0:0:0:
112,76,60492,2,0,P|168:40|320:56,1,210,0|8,0:0|0:0,0:0:0:0:
344,224,61125,1,0,0:0:0:0:
420,136,61337,6,0,L|432:368,1,210,0|8,0:1|0:0,0:0:0:0:
344,224,61970,1,0,0:0:0:0:
292,328,62182,1,0,0:0:0:0:
236,228,62393,1,0,0:0:0:0:
408,320,62604,2,0,P|432:300|460:224,1,105,8|0,0:0|0:0,0:0:0:0:
418,55,63027,6,0,P|358:95|350:235,1,210,4|8,0:2|0:0,0:0:0:0:
408,320,63661,1,0,0:0:0:0:
292,328,63872,1,0,0:0:0:0:
452,216,64083,1,0,0:0:0:0:
268,224,64294,2,0,L|156:216,1,105,8|0,0:0|0:0,0:0:0:0:
311,119,64717,6,0,P|371:175|360:305,1,210,0|8,0:1|0:0,0:0:0:0:
192,320,65351,1,0,0:0:0:0:
268,223,65562,1,0,0:0:0:0:
152,216,65773,1,0,0:0:0:0:
312,332,65984,2,0,P|348:308|376:252,1,105,8|0,0:0|0:0,0:0:0:0:
340,144,66407,6,0,P|392:148|488:28,1,210,4|8,0:2|0:0,0:0:0:0:
372,28,67041,1,0,0:0:0:0:
228,128,67252,2,0,P|228:168|264:228,1,105,0|0,0:0|0:0,0:0:0:0:
372,244,67675,2,0,L|356:360,1,105,8|0,0:0|0:0,0:0:0:0:
164,352,68097,6,0,L|192:140,1,210,0|8,0:1|0:0,0:0:0:0:
300,104,68731,1,0,0:0:0:0:
264,212,68942,1,0,0:0:0:0:
156,252,69153,1,0,0:0:0:0:
264,320,69365,2,0,L|384:304,1,105,8|0,0:0|0:0,0:0:0:0:
468,228,69787,6,0,P|416:192|280:224,1,210,4|8,0:2|0:0,0:0:0:0:
232,328,70421,1,0,0:0:0:0:
152,244,70632,2,0,L|156:136,1,105,0|0,0:0|0:0,0:0:0:0:
56,84,71055,2,0,L|52:196,1,105,8|0,0:0|0:0,0:0:0:0:
68,304,71477,5,2,0:2:0:0:
244,236,71689,2,0,P|232:188|188:152,2,105,2|10|2,0:0|0:0|0:0,0:0:0:0:
316,328,72322,2,0,P|352:332|416:372,2,105,2|2|10,0:0|0:0|0:0,0:0:0:0:
200,344,72956,1,2,0:0:0:0:
364,220,73168,6,0,B|372:104|372:104|452:44,1,210,4|8,0:2|0:0,0:0:0:0:
444,164,73801,2,0,B|384:180|348:140|348:140|304:96|248:112,1,210,0|0,0:0|0:0,0:0:0:0:
176,200,74435,2,0,P|176:228|208:300,1,105,8|0,0:0|0:0,0:0:0:0:
292,220,74858,6,0,L|276:8,1,210,0|8,1:0|0:0,0:0:0:0:
188,88,75492,1,0,0:0:0:0:
384,180,75703,1,0,0:0:0:0:
348,72,75914,1,0,0:0:0:0:
268,156,76125,2,0,P|272:200|308:256,1,105,8|0,0:0|0:0,0:0:0:0:
412,284,76548,5,0,0:0:0:0:
260,344,76759,1,0,0:0:0:0:
372,372,76970,1,8,0:0:0:0:
312,272,77182,1,0,0:0:0:0:
272,164,77393,2,0,P|284:104|316:56,1,105,0|0,0:0|0:0,0:0:0:0:
420,56,77815,2,0,P|408:116|376:164,1,105,8|0,0:0|0:0,0:0:0:0:
184,200,78238,6,0,L|64:192,1,105,0|0,1:0|0:0,0:0:0:0:
36,300,78661,1,8,0:0:0:0:
152,288,78872,1,0,0:0:0:0:
264,268,79083,2,0,P|312:276|364:304,1,105,0|0,0:0|0:0,0:0:0:0:
468,256,79506,2,0,P|480:208|476:144,1,105,8|0,0:0|0:0,0:0:0:0:
344,10,79928,6,0,P|324:50|380:202,1,210,4|8,0:2|0:0,0:0:0:0:
468,256,80562,1,0,0:0:0:0:
356,280,80773,2,0,L|248:272,1,105,0|0,0:0|0:0,0:0:0:0:
196,370,81196,2,0,L|304:362,1,105,8|0,0:0|0:0,0:0:0:0:
277,153,81618,6,0,P|186:179|130:291,2,210,0|8|0,0:1|0:0|0:0,0:0:0:0:
376,216,82675,2,0,L|368:80,2,105,0|8|0,0:0|0:0|0:0,0:0:0:0:
256,192,83308,12,0,85844,0:0:0:0:
