osu file format v7

[General]
AudioFilename: 02 - My Chemical Romance - Dead!.mp3
AudioLeadIn: 0
PreviewTime: 38624
Countdown: 3
SampleSet: Normal
StackLeniency: 0.7
Mode: 0
LetterboxInBreaks: 1

[Editor]
Bookmarks: 14496,33890,38739,58035,61653,106276,111100,125573,135221,189312
DistanceSpacing: 0.779999971389771
BeatDivisor: 3
GridSize: 8

[Metadata]
Title:Dead!
Artist:My Chemical Romance
Creator:MetalMario201
Version:Normal
Source:
Tags:the black parade

[Difficulty]
HPDrainRate:5
CircleSize:4
OverallDifficulty:3
SliderMultiplier:1.4
SliderTickRate:1

[Events]
//Background and Video events
0,0,"operatingroom.jpg"
//Break Periods
2,34076,37281
2,58217,60195
2,106458,110245
2,125755,133763
2,145051,145823
//Storyboard Layer 0 (Background)
//Storyboard Layer 1 (Fail)
//Storyboard Layer 2 (Pass)
//Storyboard Layer 3 (Foreground)
//Storyboard Sound Samples
//Background Colour Transformations
3,100,163,162,255

[TimingPoints]
4786,303.030303030303,4,1,0,100,1,0
36301,-100,4,1,1,100,0,0
38721,301.507537688442,4,1,1,100,1,0
38875,-100,4,1,0,100,0,0
40986,-100,4,1,1,100,0,0
41287,-100,4,1,0,100,0,0
48067,-100,4,1,1,100,0,0
48523,-100,4,1,0,100,0,0
50634,-100,4,1,1,100,0,0
50936,-100,4,1,0,100,0,0
56660,-100,4,1,0,90,0,0
57112,-100,4,1,0,100,0,0
59826,-100,4,2,0,100,0,0
62389,-100,4,1,0,100,0,0
86660,-100,4,1,1,100,0,0
87112,-100,4,1,0,100,0,0
89223,-100,4,1,1,100,0,0
89525,-100,4,1,0,100,0,0
96308,-100,4,1,1,100,0,0
96761,-100,4,1,0,100,0,0
98871,-100,4,1,1,100,0,0
99173,-100,4,1,0,100,0,0
104901,-100,4,1,0,90,0,0
105354,-100,4,1,0,100,0,0
108670,-100,4,2,2,100,0,0
112138,-100,4,2,1,100,0,0
112590,-100,4,2,2,100,0,0
115303,-100,4,2,1,100,0,0
116359,-100,4,2,2,100,0,0
117715,-100,4,2,1,100,0,0
119826,-100,4,2,2,100,0,0
120429,-100,4,2,1,100,0,0
123444,-100,4,2,2,100,0,0
124047,-100,4,2,1,100,0,0
124650,-100,4,2,2,100,0,0
125253,-100,4,2,1,100,0,0
127967,-100,4,1,0,100,0,0
149706,309.278350515464,4,1,0,100,1,1
169293,-100,4,1,1,100,0,1
169401,-100,4,1,1,100,0,0
169499,-100,4,1,1,100,0,1
169809,-100,4,1,0,100,0,1
179293,-100,4,1,1,100,0,0
179396,-100,4,1,1,100,0,1
179706,-100,4,1,0,100,0,1
188056,-100,4,1,1,100,0,0
191772,-100,4,1,0,100,0,1

[HitObjects]
304,112,14482,5,4
312,216,14785,1,8
400,160,15089,1,0
408,264,15392,1,8
512,232,15695,2,0,B|512:336|447:378|310:360,1,280
256,272,16604,1,8
144,160,17210,5,8
104,264,17513,1,0
104,264,17715,1,0
0,232,18018,2,0,B|0:336|65:378|202:360,1,280,8|0
256,116,19028,5,8
152,80,19331,2,0,B|168:8|256:-31|344:8|360:82,2,280,4|0|0
392,248,21149,1,0
392,248,21452,2,2,B|392:368|256:437|120:368|120:246,1,420,6|0
200,88,22664,5,8
256,0,22967,1,6
312,88,23270,1,8
312,88,23472,1,0
347,192,23775,2,2,B|272:232|256:144|240:232|163:191,1,186.666666666667,2|6
128,88,24482,5,4
64,176,24786,1,0
104,272,25089,1,4
200,320,25392,1,0
312,320,25695,1,4
408,272,25998,1,0
448,176,26301,1,8
384,88,26604,1,4
200,216,26907,5,8
112,160,27210,1,0
104,264,27513,1,8
0,240,27816,2,0,B|5:318|64:366|170:360,1,233.333333333333
256,312,28624,1,8
256,312,28725,1,8
360,80,29028,6,0,B|344:8|256:-31|168:8|152:82,1,280,4|0
256,116,29937,1,8
360,152,30240,2,0,B|344:224|256:263|168:224|152:150,1,280,4|0
120,248,31149,2,0,B|120:368|256:437|392:368|392:246,1,420,6|0
312,88,32361,5,8
256,0,32664,1,2
200,88,32967,1,8
200,88,33169,1,0
165,192,33472,2,0,B|240:232|256:144|272:232|349:191,1,186.666666666667,0|6
24,136,38721,6,0,B|80:8|256:-35|432:8|489:138,1,560,6|4
360,152,40228,1,0
256,112,40530,1,4
152,152,40831,1,8
80,232,41133,6,0,B|32:214|-18:264|1:313,2,140,12|0|0
104,336,42037,2,0,B|264:384|408:320|457:190,1,420,4|0
208,48,43545,6,0,B|176:16|112:16|79:49,2,140,4|0|0
144,136,44449,1,8
144,248,44751,1,0
144,360,45052,1,8
144,360,45253,2,0,B|216:363|256:312|256:238,1,186.666666666667
304,48,45957,6,0,B|336:16|400:16|433:49,2,140,4|0|0
368,136,46861,1,8
368,248,47163,1,0
368,360,47464,1,8
368,360,47665,2,0,B|296:363|256:312|256:238,1,186.666666666667
488,136,48369,6,0,B|432:8|256:-35|80:8|23:138,1,560,6|4
152,152,49876,1,0
256,112,50178,1,4
360,152,50479,1,8
432,232,50781,6,0,B|480:214|530:264|511:313,2,140,12|0|0
408,336,51685,2,0,B|248:384|104:320|55:190,1,420,4|0
304,56,53193,6,0,B|336:24|400:24|433:57,3,140,4|0|0|8
368,144,54399,1,0
407,211,54600,1,0
407,211,54700,1,8
335,211,54901,1,0
335,211,55002,1,0
256,288,55303,1,8
208,56,55605,6,0,B|176:24|112:24|79:57,2,140,4|0|0
144,144,56509,1,8
256,192,56811,5,4
256,192,57414,1,0
256,192,58017,1,4
280,312,61635,6,0,B|327:294|345:247,3,93.3333333333333
344,72,62540,1,8
168,72,62841,1,4
112,160,63143,5,8
200,216,63444,1,0
104,264,63746,1,8
0,232,64047,2,0,B|0:336|65:378|202:360,1,280
256,272,64952,1,8
256,160,65253,1,4
368,160,65555,5,8
408,264,65856,1,0
408,264,66057,1,0
512,232,66359,2,0,B|512:336|447:378|310:360,1,280,8|0
256,116,67364,5,8
360,80,67665,2,0,B|344:8|256:-31|168:8|152:82,2,280,4|0|0
120,248,69474,1,0
120,248,69776,2,2,B|120:368|256:437|392:368|392:246,1,420,6|0
312,88,70982,5,8
256,0,71283,1,6
200,88,71585,1,8
200,88,71786,1,0
165,192,72087,2,2,B|240:232|256:144|272:232|349:191,1,186.666666666667,2|6
384,96,72791,5,4
344,272,73092,1,0
304,120,73394,1,4
256,280,73695,1,0
208,120,73997,1,4
168,272,74298,1,0
128,96,74600,1,8
256,176,74901,1,4
400,160,75203,5,8
312,216,75504,1,0
408,264,75806,1,8
512,240,76107,2,0,B|507:318|448:366|342:360,1,233.333333333333
256,304,76911,1,8
256,304,77012,1,8
152,80,77313,6,0,B|168:8|256:-31|344:8|360:82,1,280,4|0
256,116,78218,1,8
152,152,78519,2,0,B|168:224|256:263|344:224|360:150,1,280,4|0
392,248,79424,2,0,B|392:368|256:437|120:368|120:246,1,420,6|0
200,88,80630,5,8
256,0,80932,1,2
312,88,81233,1,8
312,88,81434,1,0
256,176,81736,1,0
144,312,82138,6,0,B|192:408|320:408|369:310,2,280,6|0|0
344,240,83947,1,8
440,200,84248,1,0
416,96,84550,2,0,B|384:32|306:15,1,140,4|0
204,16,85153,2,0,B|128:32|95:98,1,140,4|0
152,184,85756,2,2,B|184:79|328:79|361:186,1,280,2|6
488,136,86962,6,0,B|432:8|256:-35|80:8|23:138,1,560,6|4
152,152,88469,1,0
256,112,88771,1,4
360,152,89072,1,8
432,232,89374,6,0,B|480:214|530:264|511:313,2,140,12|0|0
408,336,90278,2,0,B|248:384|104:320|55:190,1,420,4|0
304,48,91786,6,0,B|336:16|400:16|433:49,2,140,4|0|0
368,136,92690,1,8
368,248,92992,1,0
368,360,93293,1,8
368,360,93494,2,0,B|296:363|256:312|256:238,1,186.666666666667
208,48,94198,6,0,B|176:16|112:16|79:49,2,140,4|0|0
144,136,95102,1,8
144,248,95404,1,0
144,360,95705,1,8
144,360,95906,2,0,B|216:363|256:312|256:238,1,186.666666666667
24,136,96610,6,0,B|80:8|256:-35|432:8|489:138,1,560,6|4
360,152,98117,1,0
256,112,98419,1,4
152,152,98721,1,8
80,232,99022,6,0,B|32:214|-18:264|1:313,2,140,12|0|0
104,336,99927,2,0,B|264:384|408:320|457:190,1,420,4|0
192,40,101434,6,0,B|224:8|288:8|321:41,1,140,4|8
320,152,102037,2,0,B|288:184|224:184|191:151,1,140,0|8
128,240,102640,2,0,B|131:288|168:325|222:328,1,140,2|8
292,328,103143,1,0
292,328,103243,2,2,B|344:325|381:288|384:238,1,140,2|10
320,152,103846,6,0,B|288:184|224:184|191:151,1,140,4|8
192,40,104449,2,0,B|224:8|288:8|321:41,1,140,0|8
259,99,105052,5,4
259,99,105655,1,0
259,99,106258,1,4
200,224,111685,5,4
312,224,111987,1,0
376,312,112288,2,0,B|328:392|184:392|135:310,1,280,8|12
88,216,113193,1,0
80,104,113494,2,2,B|144:-23|368:-23|433:107,1,420,10|6
376,312,115002,2,0,B|352:250|200:248|312:344|160:342|135:278,1,280,8|4
256,192,116811,5,0
384,160,117112,2,2,B|288:92|224:92|126:161,2,280,10|2|6
256,336,118922,1,0
256,336,119525,1,8
312,192,120128,5,4
200,192,120429,1,0
96,136,120731,2,2,B|112:48|256:-44|400:48|417:138,1,420,14|2
416,248,121937,2,2,B|400:336|256:428|112:336|95:246,1,420,10|2
116,144,123143,6,0,B|404:144,3,280,12|4|8|4
256,312,125555,1,12
312,56,135203,5,4
200,56,135504,1,8
168,168,135806,1,0
168,168,136007,1,0
256,232,136308,1,0
256,232,136409,1,0
344,168,136710,1,8
344,168,136911,1,0
256,104,137213,1,0
256,104,137313,1,2
108,264,137816,6,0,B|92:326|158:392|222:375,1,186.666666666667
220,304,138419,1,0
404,264,138721,2,0,B|420:326|354:392|290:375,1,186.666666666667
292,304,139324,1,4
256,160,139726,1,8
400,144,140027,6,0,B|400:91|365:56|310:56,3,140,4|0|0|8
200,56,141233,2,0,B|147:56|112:91|112:146,3,140,0|0|0|8
186,224,142439,2,0,B|330:224,1,140,4|8
326,336,143042,2,0,B|182:336,1,140,4|8
112,280,143645,6,0,B|65:262|47:215,3,93.3333333333333,4|0|0|4
168,104,144550,1,8
344,104,144851,1,4
144,192,147263,5,4
368,192,147866,1,4
328,48,148469,5,4
280,144,148771,1,4
232,240,149072,1,4
184,336,149374,1,4
72,328,149706,6,0,B|14:192|73:54,1,280,4|0
152,112,150633,2,0,B|160:48|256:-7|352:48|360:114,1,280,2|2
328,336,151870,5,0
440,328,152180,2,0,B|498:192|439:54,1,280,4|0
360,112,153108,2,0,B|352:48|256:-7|160:48|152:114,2,280,2|2|0
312,216,154654,6,0,B|288:264|224:264|199:214,2,140,4|0|0
376,304,155582,2,2,B|328:384|184:384|135:302,1,280
112,200,156510,1,8
0,200,156819,6,0,B|8:40|256:-97|504:40|513:204,1,700,4|0
256,248,158675,1,8
256,136,158984,1,0
256,136,159190,1,8
440,56,159602,6,0,B|498:192|439:330,1,280,4|0
360,272,160530,2,0,B|352:336|256:391|160:336|152:270,1,280,2|2
184,48,161767,5,0
72,56,162077,2,0,B|14:192|73:330,1,280,4|0
152,272,163004,2,0,B|160:336|256:391|352:336|360:270,2,280,2|2|0
200,168,164551,6,0,B|224:120|288:120|313:170,2,140,4|0|0
136,80,165479,2,2,B|184:0|328:0|377:82,1,280
400,184,166407,1,8
512,184,166716,6,0,B|504:344|256:481|8:344|-1:180,1,700,4|0
200,192,168571,1,8
312,192,168881,1,0
312,192,169087,1,8
440,192,169499,6,0,B|562:184|562:24|438:16,2,280,6|0|2
256,152,171355,1,8
160,104,171664,2,2,B|112:192|200:296|312:296|400:192|351:101,1,420,6|2
408,296,173211,1,2
312,352,173520,1,0
200,352,173829,1,8
104,296,174138,1,2
72,192,174448,6,0,B|-50:184|-50:24|74:16,2,280,4|0|2
256,152,176303,1,8
352,104,176613,2,2,B|400:192|312:296|200:296|112:192|161:101,1,420,6|2
104,296,178159,1,2
200,352,178468,1,8
312,352,178778,1,0
408,296,179087,1,10
376,120,179396,6,0,B|272:31|240:31|134:122,2,280,6|0|2
144,256,181252,1,0
72,336,181561,2,2,B|144:408|208:432|216:253|296:253|304:432|368:408|442:334,1,420,6|2
160,192,183108,1,2
256,136,183417,1,0
352,192,183726,1,8
256,248,184035,1,2
136,264,184345,6,0,B|240:353|272:353|378:262,2,280,4|0|2
368,128,186200,1,0
440,48,186510,2,2,B|368:-24|304:-48|296:131|216:131|208:-48|144:-24|70:50,1,420,6|2
256,192,188056,12,4,189293
