osu file format v7

[General]
AudioFilename: 02 - My Chemical Romance - Dead!.mp3
AudioLeadIn: 0
PreviewTime: 38624
Countdown: 3
SampleSet: Normal
StackLeniency: 0.7
Mode: 0
LetterboxInBreaks: 1

[Editor]
Bookmarks: 14496,33890,38739,58035,61653,106276,111100,125573,135221,189312
DistanceSpacing: 0.720000028610229
BeatDivisor: 6
GridSize: 8

[Metadata]
Title:Dead!
Artist:My Chemical Romance
Creator:MetalMario201
Version:Hard
Source:
Tags:the black parade

[Difficulty]
HPDrainRate:6
CircleSize:4
OverallDifficulty:6
SliderMultiplier:2
SliderTickRate:1

[Events]
//Background and Video events
0,0,"operatingroom.jpg"
//Break Periods
2,34076,37671
2,58217,60585
2,106458,110635
2,125755,134153
2,145051,146213
//Storyboard Layer 0 (Background)
//Storyboard Layer 1 (Fail)
//Storyboard Layer 2 (Pass)
//Storyboard Layer 3 (Foreground)
//Storyboard Sound Samples
//Background Colour Transformations
3,100,163,162,255

[TimingPoints]
4786,303.030303030303,4,1,0,100,1,0
36301,-100,4,1,0,100,0,0
38721,301.507537688442,4,1,1,100,1,0
38875,-100,4,1,0,100,0,0
40986,-100,4,1,1,100,0,0
41287,-100,4,1,0,100,0,0
48222,-100,4,1,1,100,0,0
48523,-100,4,1,0,100,0,0
50634,-100,4,1,1,100,0,0
50936,-100,4,1,0,100,0,0
56664,-100,4,1,0,90,0,0
57116,-100,4,1,0,100,0,0
60433,-100,4,2,0,100,0,0
62393,-100,4,1,0,100,0,0
86811,-100,4,1,1,100,0,0
87112,-100,4,1,0,100,0,0
89223,-100,4,1,1,100,0,0
89525,-100,4,1,0,100,0,0
96459,-100,4,1,1,100,0,0
96761,-100,4,1,0,100,0,0
98871,-100,4,1,1,100,0,0
99173,-100,4,1,0,100,0,0
105052,-100,4,1,0,90,0,0
105354,-100,4,1,0,100,0,0
108670,-100,4,2,2,100,0,0
111987,-100,4,2,1,100,0,0
112741,-100,4,2,2,100,0,0
113344,-100,4,2,1,100,0,0
114248,-100,4,2,2,100,0,0
114550,-100,4,2,1,100,0,0
114851,-100,4,2,2,100,0,0
115454,-100,4,2,1,100,0,0
116962,-100,4,2,2,100,0,0
118017,-100,4,2,1,100,0,0
118771,-100,4,2,2,100,0,0
119223,-100,4,2,1,100,0,0
119826,-100,4,2,2,100,0,0
120429,-100,4,2,1,100,0,0
121032,-100,4,2,2,100,0,0
121635,-100,4,2,1,100,0,0
122238,-100,4,2,2,100,0,0
123143,-100,4,2,1,100,0,0
127967,-100,4,1,0,100,0,0
149706,309.278350515464,4,1,0,100,1,1
159504,-100,4,1,0,100,0,0
159607,-100,4,1,0,100,0,1
169293,-100,4,1,1,100,0,1
169401,-100,4,1,1,100,0,0
169504,-100,4,1,1,100,0,1
169809,-100,4,1,0,100,0,1
179293,-100,4,1,1,100,0,0
179396,-100,4,1,1,100,0,1
179706,-100,4,1,0,100,0,1
187442,-100,4,1,1,100,0,0
191772,-100,4,1,0,100,0,1

[HitObjects]
256,224,14482,5,4
256,80,14786,1,8
184,208,15089,1,0
112,80,15392,1,8
40,208,15695,2,0,B|51:325|170:336,3,200,0|0|0|0
256,224,16907,1,4
256,80,17210,5,8
328,208,17513,1,0
392,144,17715,1,0
512,160,17967,2,0,B|501:43|382:32,2,200,8|0|0
256,192,18927,5,0
256,192,19028,1,8
176,48,19331,2,0,B|66:92|96:210,1,200,4|0
168,336,19937,2,0,B|256:420|346:335,1,200,8|0
416,208,20543,2,2,B|446:92|334:47,2,200,10|0|0
256,8,21452,6,0,B|130:192|382:192|254:378,2,400,4|0|8
128,8,22967,6,2,B|114:8|114:8|32:8|32:90|32:90|32:152,1,200,2|4
32,240,23472,2,2,B|32:294|32:294|32:376|114:376|114:376|136:376,1,200,0|6
256,192,24179,1,6
256,312,24482,5,4
148,120,24785,1,8
364,120,25089,1,4
496,224,25392,2,0,B|485:341|366:352,3,200,0|4|0|8
256,224,26604,1,4
256,80,26907,5,8
184,208,27210,1,0
72,120,27513,1,8
112,256,27816,1,0
112,256,28018,1,0
0,240,28321,2,0,B|11:357|130:368,1,200,0|8
200,368,28725,1,8
328,112,29028,6,0,B|394:127|419:225|359:273,3,200,4|0|0|0
184,112,30240,2,0,B|118:127|93:225|153:273,2,200,4|0|0
256,8,31149,6,0,B|382:192|130:192|258:378,2,400,4|0|8
384,8,32664,6,2,B|398:8|398:8|480:8|480:90|480:90|480:152,1,200,0|6
480,240,33169,2,0,B|480:294|480:294|480:376|398:376|398:376|376:376,1,200,0|8
384,304,33573,1,8
256,192,33876,1,4
176,48,38721,6,0,B|206:-19|306:-19|337:49,4,200,6|8|0|8|8
240,168,40228,1,0
336,264,40530,1,4
200,304,40831,1,8
72,360,41133,6,0,B|-32:320|0:192,2,200,12|8|0
80,208,42037,2,0,B|200:47|312:241|434:78,2,400,4|8|8
224,368,43545,6,0,B|312:376|329:306,1,133.333333333333,4|0
256,296,43846,2,0,B|168:304|151:234,1,133.333333333333,8|0
224,224,44148,2,0,B|344:226|385:126,2,200,0|8|0
256,88,45052,1,8
256,88,45253,2,0,B|136:86|95:186,1,200
288,368,45957,6,0,B|200:376|183:306,1,133.333333333333,4|0
256,296,46258,2,0,B|344:304|361:234,1,133.333333333333,8|0
288,224,46560,2,0,B|168:226|127:126,1,200,0|8
256,88,47163,2,0,B|376:86|417:186,1,200,0|8
368,296,47665,1,0
168,240,47967,1,2
336,120,48268,1,0
336,48,48369,6,0,B|306:-19|206:-19|175:49,4,200,6|8|0|8|8
272,168,49876,1,0
176,264,50178,1,4
312,304,50479,1,8
440,360,50781,6,0,B|544:320|512:192,2,200,12|8|0
432,208,51685,2,0,B|312:47|200:241|78:78,2,400,4|8|8
360,360,53193,6,0,B|274:367|239:318,1,133.333333333333,4|0
168,304,53494,2,0,B|93:286|79:214,1,133.333333333333,8|0
152,200,53796,2,0,B|238:207|273:158,1,133.333333333333,0|0
344,144,54097,2,0,B|419:126|433:54,1,133.333333333333,8|0
368,24,54399,2,0,B|282:17|247:66,1,133.333333333333,2|0
176,80,54700,2,2,B|101:98|87:170,1,133.333333333333,10|0
88,240,55002,2,0,B|136:295|216:295|265:239,1,200,2|8
152,24,55605,6,0,B|238:17|273:66,1,133.333333333333,4|0
344,80,55906,2,0,B|419:98|433:170,1,133.333333333333,8|0
368,208,56208,2,0,B|320:263|240:263|191:207,1,200,2|8
256,24,56811,5,4
256,24,57414,1,0
256,24,58017,1,4
344,352,61635,6,0,B|414:329|408:247,3,133.333333333333
408,80,62540,1,0
104,80,62841,1,4
184,280,63143,5,8
328,280,63444,1,0
256,152,63746,1,8
256,8,64047,2,0,B|374:4|417:106,3,200,0|8|0|8
256,240,65253,1,4
328,112,65555,5,8
184,112,65856,1,0
184,112,66057,1,0
256,8,66308,2,0,B|138:4|95:106,2,200,8|0|0
256,192,67263,5,0
256,192,67364,1,8
336,48,67665,2,0,B|446:92|416:210,1,200,4|8
344,336,68268,2,0,B|256:420|166:335,1,200,2|8
96,208,68871,2,2,B|66:92|178:47,2,200,2|8|10
256,8,69776,6,0,B|382:192|130:192|258:378,2,400,4|8|8
384,8,71283,6,2,B|398:8|398:8|480:8|480:90|480:90|480:152,1,200,2|4
480,240,71786,2,2,B|480:294|480:294|480:376|398:376|398:376|376:376,1,200,0|6
256,192,72489,1,6
256,64,72791,5,4
148,256,73092,1,0
364,256,73394,1,4
416,72,73695,1,0
96,72,73997,1,4
96,312,74298,1,0
416,312,74600,1,8
256,192,74901,1,4
136,192,75203,5,8
256,120,75504,1,2
376,192,75806,1,8
256,264,76107,1,0
256,264,76308,1,0
352,352,76610,2,2,B|288:384|224:384|158:351,1,200,2|8
96,320,77012,1,8
184,112,77313,6,0,B|118:127|93:225|153:273,3,200,4|8|0|8
328,112,78519,2,0,B|394:127|419:225|359:273,2,200,4|8|0
256,8,79424,6,0,B|130:192|382:192|254:378,2,400,4|8|8
128,8,80932,6,2,B|114:8|114:8|32:8|32:90|32:90|32:152,1,200,0|6
32,240,81434,2,0,B|32:294|32:294|32:376|114:376|114:376|136:376,1,200,0|8
128,304,81836,1,8
448,288,82138,5,4
496,152,82439,1,0
432,24,82741,1,0
328,128,83042,1,4
184,128,83344,1,0
80,24,83645,1,0
16,152,83947,1,4
64,288,84248,1,0
104,128,84550,6,0,B|85:193|102:255|186:289,1,200,4|0
328,288,85153,2,0,B|410:255|427:193|407:126,1,200,4|0
256,64,85756,5,4
256,64,85856,1,0
256,64,85957,1,0
256,64,86057,1,8
280,160,86258,1,0
280,160,86359,1,4
232,256,86560,1,0
232,256,86660,1,8
256,352,86861,5,0
256,352,86962,2,0,B|134:352|87:262,4,200,6|8|0|8|8
320,232,88469,1,0
192,152,88771,1,4
256,24,89072,1,8
364,96,89374,5,12
148,96,89675,1,8
256,288,89977,1,0
408,352,90278,2,0,B|539:306|539:78|406:31,2,400,4|8|8
320,288,91786,6,0,B|256:320|190:287,1,133.333333333333,4|0
189,216,92087,2,0,B|325:216,1,133.333333333333,8|0
344,148,92389,2,0,B|296:93|216:93|167:149,2,200,0|8|0
304,16,93293,1,8
208,16,93494,1,0
64,40,93796,1,8
64,40,93896,1,8
192,96,94198,6,0,B|256:64|322:97,1,133.333333333333,4|0
323,168,94499,2,0,B|187:168,1,133.333333333333,8|0
168,236,94801,2,0,B|216:291|296:291|345:235,2,200,0|8|0
208,368,95705,1,8
304,368,95906,1,0
256,192,96208,1,8
256,192,96308,1,8
256,32,96509,5,0
256,32,96610,2,0,B|378:32|425:122,4,200,6|8|0|8|8
192,152,98117,1,0
320,232,98419,1,4
256,360,98721,1,8
148,288,99022,5,12
364,288,99324,1,8
256,96,99625,1,0
104,32,99927,2,0,B|-27:78|-27:306|106:353,2,400,4|8|8
432,160,101434,6,0,B|401:104|348:104|348:104|312:104,1,133.333333333333,4|0
248,104,101736,2,0,B|112:104,1,133.333333333333,8|0
80,168,102037,2,0,B|111:224|164:224|164:224|200:224,1,133.333333333333
264,224,102339,2,0,B|400:224,1,133.333333333333,8|0
408,296,102640,2,0,B|372:352|291:348,1,133.333333333333,2|0
220,348,102942,2,2,B|140:352|103:295,1,133.333333333333,10|0
160,252,103243,2,0,B|200:282|312:282|353:251,1,200,2|8
408,92,103846,6,0,B|372:36|291:40,1,133.333333333333,4|0
220,40,104148,2,0,B|140:36|103:93,1,133.333333333333,8|0
160,136,104449,2,0,B|200:106|312:106|353:137,2,200,2|8|4
256,360,105655,5,0
256,360,106258,1,4
328,40,111685,5,4
184,40,111987,1,0
32,80,112288,2,0,B|60:182|186:184,1,200,12|0
328,184,112891,2,2,B|452:186|480:290,1,200,14|0
344,328,113494,6,0,B|304:380|208:380|166:327,2,200,8|0|2
376,176,114399,2,0,B|379:112|312:45|246:48,1,200,4|8
136,160,115002,2,2,B|133:224|200:291|266:288,1,200,10|2
400,344,115605,2,0,B|543:305|543:79|398:39,2,400,4|0|0
352,264,117112,6,2,B|256:313|158:263,1,200,14|0
160,120,117715,2,0,B|256:71|354:121,1,200,10|0
496,112,118318,5,12
448,248,118620,1,0
328,328,118922,1,4
184,328,119223,1,0
64,248,119525,1,8
16,112,119826,1,0
168,192,120128,2,2,B|208:245|304:245|345:191,1,200,10|2
32,32,120731,5,12
48,232,121032,1,0
176,72,121334,1,4
192,272,121635,1,0
320,112,121937,1,8
336,312,122238,1,0
464,152,122540,1,14
480,352,122841,1,0
256,192,123143,12,12,125555
256,92,135203,5,4
256,292,135504,1,8
208,156,135806,1,0
304,156,136007,1,0
259,367,136308,1,0
259,367,136409,1,0
208,228,136710,1,8
304,228,136911,1,0
256,20,137213,1,0
256,20,137313,1,2
256,92,137514,1,0
40,168,137816,5,0
40,168,137916,2,0,B|32:232|96:298|169:288,1,200,8|0
256,192,138419,1,0
472,168,138720,1,0
472,168,138821,2,0,B|480:232|416:298|343:288,1,200,8|0
256,192,139324,1,4
256,48,139625,1,8
256,48,139726,1,8
120,104,140027,5,4
120,104,140128,1,0
120,104,140228,1,0
120,104,140329,2,0,B|104:176|152:240|218:257,2,200,8|0|8
392,104,141233,1,4
392,104,141334,1,0
392,104,141434,1,0
392,104,141535,2,0,B|408:176|360:240|294:257,2,200,8|0|8
256,192,142439,5,4
256,192,142540,1,0
256,192,142640,1,0
256,192,142741,1,8
256,336,143042,1,4
256,336,143143,1,0
256,336,143243,1,0
256,336,143344,1,8
112,352,143645,6,0,B|42:329|48:247,3,133.333333333333,4|0|0|4
104,80,144550,1,8
408,80,144851,1,4
40,192,147263,5,4
472,192,147866,1,4
120,56,148469,5,4
120,328,148771,1,4
392,328,149072,1,4
392,56,149374,1,4
424,192,149706,5,4
256,192,150015,1,0
88,192,150324,1,8
176,120,150633,2,0,B|206:53|306:53|337:121,1,200,2|0
336,264,151252,2,2,B|306:331|206:331|175:263,1,200,2|8
88,336,151870,1,0
88,192,152180,5,4
256,192,152489,1,0
424,192,152798,1,8
336,264,153108,2,0,B|306:331|206:331|175:263,1,200,2|0
176,120,153726,2,2,B|206:53|306:53|337:121,1,200,2|8
424,48,154345,1,0
424,192,154654,5,4
256,192,154963,1,0
88,192,155273,1,8
176,264,155582,2,2,B|206:331|306:331|337:263,2,200,2|0|2
256,192,156510,1,8
32,168,156819,6,0,B|48:48|159:-25|353:-25|464:48|480:170,2,600,4|8|8
256,144,158984,1,0
259,243,159190,1,8
259,243,159293,1,0
64,56,159602,5,4
16,192,159912,1,0
64,328,160221,1,8
176,264,160530,2,0,B|206:331|306:331|337:263,1,200,2|0
336,120,161149,2,2,B|306:53|206:53|175:121,2,200,2|8|0
448,328,162077,5,4
496,192,162386,1,0
448,56,162695,1,8
336,120,163004,2,0,B|306:53|206:53|175:121,1,200,2|0
176,264,163623,2,2,B|206:331|306:331|337:263,2,200,2|8|0
144,8,164551,5,4
256,144,164860,1,0
368,8,165169,1,8
336,120,165479,2,2,B|306:53|206:53|175:121,1,200
184,264,166097,1,0
328,264,166407,1,10
480,216,166716,6,0,B|464:336|353:409|159:409|48:336|32:214,2,600,4|8|8
304,192,168881,1,0
208,192,169087,1,8
208,192,169190,1,0
24,104,169499,6,0,B|65:5|186:8,1,200,6|0
328,8,170118,2,2,B|447:5|489:105,1,200,10|0
256,96,170736,1,2
184,216,171046,1,0
328,216,171355,1,8
440,304,171664,2,0,B|352:392|160:392|70:302,1,400,6|0
0,160,172592,6,2,B|0:88|31:27|107:7,1,200,10|0
104,192,173211,1,2
256,304,173520,1,0
256,80,173829,1,12
408,192,174138,1,2
488,104,174448,6,0,B|447:5|326:8,1,200,4|0
184,8,175066,2,2,B|65:5|23:105,1,200,10|0
256,96,175685,1,2
328,216,175994,1,0
184,216,176303,1,8
72,304,176613,2,0,B|160:392|352:392|442:302,1,400,6|0
512,160,177541,6,2,B|512:88|481:27|405:7,1,200,10|0
392,128,178159,1,2
256,264,178468,1,8
120,128,178778,1,0
256,120,178984,1,8
256,120,179087,1,2
352,32,179396,6,0,B|256:-17|158:33,1,200,6|0
156,192,180015,2,0,B|364:192,1,200,10|0
352,352,180633,2,2,B|256:401|158:351,2,200,2|0|8
432,256,181561,2,0,B|312:95|200:289|78:126,1,400,6|0
160,32,182489,6,0,B|256:-17|354:33,1,200,10|0
408,192,183108,1,2
256,80,183417,1,0
256,304,183726,1,12
104,192,184035,1,2
160,352,184345,6,0,B|256:401|354:351,1,200,4|0
356,192,184963,2,0,B|148:192,1,200,10|0
160,32,185582,2,2,B|256:-17|354:33,2,200,2|0|8
80,128,186510,2,0,B|200:289|312:95|434:258,1,400,6|4
256,192,187437,12,4,189293
