osu file format v7

[General]
AudioFilename: 02 - My Chemical Romance - Dead!.mp3
AudioLeadIn: 0
PreviewTime: 38624
Countdown: 3
SampleSet: Normal
StackLeniency: 0.7
Mode: 0
LetterboxInBreaks: 1

[Editor]
Bookmarks: 14496,33890,38739,58035,61653,106276,111100,125573,135221,189312
DistanceSpacing: 0.800000011920929
BeatDivisor: 1
GridSize: 8

[Metadata]
Title:Dead!
Artist:My Chemical Romance
Creator:MetalMario201
Version:Easy
Source:
Tags:the black parade

[Difficulty]
HPDrainRate:3
CircleSize:4
OverallDifficulty:0
SliderMultiplier:0.9
SliderTickRate:1

[Events]
//Background and Video events
0,0,"operatingroom.jpg"
//Break Periods
2,34076,36921
2,58217,61343
2,106458,109885
2,125755,133403
2,145051,145463
//Storyboard Layer 0 (Background)
//Storyboard Layer 1 (Fail)
//Storyboard Layer 2 (Pass)
//Storyboard Layer 3 (Foreground)
//Storyboard Sound Samples
//Background Colour Transformations
3,100,163,162,255

[TimingPoints]
4786,303.030303030303,4,1,0,100,1,0
32967,-100,4,1,0,90,0,0
33573,-100,4,1,0,100,0,0
36301,-100,4,1,1,100,0,0
38721,301.507537688442,4,1,1,100,1,0
38875,-100,4,1,0,100,0,0
40986,-100,4,1,1,100,0,0
41287,-100,4,1,0,100,0,0
48067,-100,4,1,1,100,0,0
48523,-100,4,1,0,100,0,0
50634,-100,4,1,1,100,0,0
50936,-100,4,1,0,100,0,0
86660,-100,4,1,1,100,0,0
87112,-100,4,1,0,100,0,0
89223,-100,4,1,1,100,0,0
89525,-100,4,1,0,100,0,0
96308,-100,4,1,1,100,0,0
96761,-100,4,1,0,100,0,0
98871,-100,4,1,1,100,0,0
99173,-100,4,1,0,100,0,0
108670,-100,4,2,2,100,0,0
111987,-100,4,2,1,100,0,0
112590,-100,4,2,2,100,0,0
114700,-100,4,2,1,100,0,0
116208,-100,4,2,2,100,0,0
118017,-100,4,2,1,100,0,0
118620,-100,4,2,2,100,0,0
119223,-100,4,2,1,100,0,0
119826,-100,4,2,2,100,0,0
120429,-100,4,2,1,100,0,0
121032,-100,4,2,2,100,0,0
121635,-100,4,2,1,100,0,0
122238,-100,4,2,2,100,0,0
122841,-100,4,2,1,100,0,0
123444,-100,4,2,2,100,0,0
124047,-100,4,2,1,100,0,0
124650,-100,4,2,2,100,0,0
125253,-100,4,2,1,100,0,0
127967,-100,4,1,0,100,0,0
149706,309.278350515464,4,1,0,100,1,1
159607,-100,4,1,0,100,0,1
169190,-100,4,1,1,100,0,1
169401,-100,4,1,1,100,0,0
169499,-100,4,1,1,100,0,1
169809,-100,4,1,0,100,0,1
179293,-100,4,1,1,100,0,0
179396,-100,4,1,1,100,0,1
179706,-100,4,1,0,100,0,1
188056,-100,4,1,1,100,0,0
191772,-100,4,1,0,100,0,1

[HitObjects]
40,72,14786,5,0
184,72,15392,1,0
328,72,15998,1,8
472,72,16604,1,8
472,312,17210,5,0
328,312,17816,1,0
184,312,18422,1,8
40,312,19028,1,8
76,240,19331,6,0,B|444:240,1,360,4|0
436,96,21149,1,0
436,24,21452,2,2,B|68:24,1,360,6|0
112,96,22967,5,6
256,96,23573,1,6
400,96,24179,1,6
328,120,24482,5,4
184,120,25089,1,4
256,248,25695,1,12
256,248,25998,1,10
256,248,26301,1,14
40,312,26907,5,0
184,312,27513,1,0
328,312,28119,1,8
472,312,28725,1,8
436,240,29028,6,0,B|68:240,1,360,4|0
76,96,30846,1,0
76,24,31149,2,2,B|444:24,1,360,6|2
400,96,32664,5,4
256,96,33270,1,4
112,96,33876,1,4
96,72,38721,6,0,B|136:8|256:-21|376:8|417:74,1,360,6|4
292,112,40530,1,4
220,112,40831,1,8
136,136,41133,2,0,B|200:207|312:207|377:135,1,270,12|4
328,328,43545,5,0
256,328,43846,1,8
184,328,44148,2,4,B|0:328,2,180
184,184,45957,5,0
256,184,46258,1,8
328,184,46560,2,4,B|512:184,2,180
416,72,48369,6,0,B|376:8|256:-21|136:8|95:74,1,360,6|4
220,112,50178,1,4
292,112,50479,1,8
376,136,50781,2,0,B|312:207|200:207|135:135,1,270,12|4
184,336,53193,5,4
256,336,53494,1,8
328,336,53796,1,4
328,192,54399,1,4
256,192,54700,1,8
184,192,55002,1,4
220,48,55605,5,4
292,48,55906,1,8
346,120,56208,2,4,B|154:120,3,180
184,120,63143,5,8
184,264,63746,1,8
328,264,64349,1,8
328,120,64952,1,8
166,192,65555,6,8,B|350:192,3,180,8|8|8|0
400,264,67665,6,0,B|368:352|256:383|144:352|111:262,1,360,4|0
112,120,69474,1,0
112,120,69776,2,2,B|144:32|256:1|368:32|401:122,1,360,6|0
400,192,71283,5,6
256,192,71886,1,6
112,192,72489,1,6
184,192,72791,5,4
328,192,73394,1,4
328,336,73997,1,12
256,336,74298,1,2
184,336,74600,1,6
184,120,75203,5,8
184,264,75806,1,8
328,264,76409,1,8
328,120,77012,1,8
328,48,77313,6,0,B|304:-12|208:-12|183:50,2,180,4|0|0
400,264,79123,1,0
400,264,79424,2,2,B|368:352|256:383|144:352|111:262,1,360,6|0
184,232,80932,5,6
328,232,81535,1,6
336,56,82138,6,0,B|256:128|256:0|174:74,3,180,6|4|4|0
176,216,84550,2,0,B|256:144|256:272|338:198,3,180,4|4|4|4
400,96,86962,6,0,B|368:8|256:-23|144:8|111:98,1,360,6|4
49,224,88771,1,4
121,224,89072,1,8
193,224,89374,2,0,B|472:224,1,270,12|4
364,120,91786,5,4
292,120,92087,1,8
220,120,92389,1,4
148,120,92690,1,8
184,56,92992,2,0,B|208:-4|304:-4|329:58,1,180,4|4
148,264,94198,5,4
220,264,94499,1,8
292,264,94801,1,4
364,264,95102,1,8
328,328,95404,2,0,B|304:388|208:388|183:326,1,180,4|4
112,96,96610,6,0,B|144:8|256:-23|368:8|401:98,1,360,6|4
463,224,98419,1,4
391,224,98721,1,8
319,224,99022,2,0,B|39:224,1,270,12|4
121,80,101434,6,0,B|401:80,1,270,4|8
391,152,102640,2,0,B|111:152,1,270,4|8
121,224,103846,6,0,B|401:224,1,270,4|8
346,296,105052,2,0,B|162:296,2,180,4|4|4
121,72,111685,5,4
256,32,112288,1,8
391,72,112891,1,12
391,216,113494,2,2,B|111:216,1,270,10|6
184,344,115002,1,8
328,344,115605,1,4
256,192,116811,5,0
328,192,117112,2,2,B|512:192,2,180,10|2|14
184,192,118922,1,4
40,192,119525,1,8
256,192,120128,5,10
256,192,120429,1,2
172,120,120731,2,12,B|256:62|342:121,3,180,12|12|8|4
340,264,123143,2,0,B|256:322|170:263,4,180,14|4|8|12|12
130,84,135203,5,4
202,84,135504,2,8,B|386:84,3,180
382,156,137615,5,0
310,156,137916,2,8,B|126:156,3,180
144,228,140027,6,2,B|184:311|328:311|369:226,1,270,6|10
368,156,141233,2,2,B|328:73|184:73|143:158,1,270,6|10
144,228,142439,2,2,B|184:311|328:311|369:226,1,270,6|10
336,164,143645,2,4,B|296:117|216:117|175:165,2,180
328,360,147263,5,4
184,360,147866,1,4
148,224,148469,5,4
220,224,148771,1,4
292,224,149072,1,4
364,224,149374,1,4
360,152,149706,6,0,B|328:56|184:56|151:154,2,270,4|0|8
360,296,152180,2,0,B|328:392|184:392|151:294,2,270,4|0|8
121,224,154654,6,0,B|401:224,1,270,4|0
496,320,156200,1,0
496,248,156510,1,8
488,176,156819,2,0,B|472:16|256:-65|40:16|24:179,1,630,4|8
152,152,159602,6,0,B|184:56|328:56|361:154,2,270,4|0|8
152,296,162077,2,0,B|184:392|328:392|361:294,2,270,4|0|8
391,224,164551,6,0,B|111:224,1,270,4|0
16,320,166097,1,0
16,248,166407,1,8
24,176,166716,2,0,B|40:16|256:-65|472:16|488:179,1,630,4|8
256,88,169499,5,6
152,192,170118,1,8
8,168,170736,2,0,B|0:264|80:344|178:336,1,270,0|4
352,192,172592,1,8
496,168,173211,2,2,B|504:264|424:344|326:336,1,270
256,296,174448,5,4
152,192,175066,1,8
8,216,175685,2,0,B|0:120|80:40|178:48,1,270,0|4
352,192,177541,1,8
496,216,178159,2,2,B|504:120|424:40|326:48,1,270
256,48,179396,5,6
256,192,180015,1,8
256,336,180633,1,2
120,296,181252,1,8
120,296,181561,2,2,B|24:264|24:120|122:87,1,270,2|10
184,192,183108,1,6
184,192,183417,1,0
184,192,183726,1,8
256,336,184345,5,4
256,192,184963,1,8
256,48,185582,1,2
392,88,186200,1,8
392,88,186510,2,2,B|488:120|488:264|390:297,1,270,2|14
256,192,187747,12,4,189293
