osu file format v13

[General]
AudioFilename: tengoku to jigoku.mp3
AudioLeadIn: 1500
PreviewTime: 29057
Countdown: 0
SampleSet: Soft
StackLeniency: 0.7
Mode: 0
LetterboxInBreaks: 0
WidescreenStoryboard: 0

[Editor]
DistanceSpacing: 1.4
BeatDivisor: 2
GridSize: 4
TimelineZoom: 5.299997

[Metadata]
Title:Tengoku to Jigoku
TitleUnicode:天国と地獄
Artist:Mutsuhiko Izumi
ArtistUnicode:Mutsuhiko Izumi
Creator:N a s y a
Version:Hyper
Source:jubeat
Tags:Nasya N_a_s_y_a Black Sheep ShiraKai KaCha Mercurius 泉陸奥彦
BeatmapID:483185
BeatmapSetID:183656

[Difficulty]
HPDrainRate:5
CircleSize:4
OverallDifficulty:6
ApproachRate:8
SliderMultiplier:1.5
SliderTickRate:1

[Events]
//Background and Video events
0,0,"bg.jpg",0,0
//Break Periods
//Storyboard Layer 0 (Background)
//Storyboard Layer 1 (Fail)
//Storyboard Layer 2 (Pass)
//Storyboard Layer 3 (Foreground)
//Storyboard Sound Samples

[TimingPoints]
442,307.692307692308,4,2,3,60,1,0
5365,-100,4,2,3,65,0,0
15826,-100,4,2,1,65,0,0
24442,307.692307692308,4,2,3,65,1,0
24595,-100,4,2,1,65,0,0
29365,-100,4,2,3,75,0,1
49057,-100,4,2,3,65,0,0
56442,-100,4,2,3,65,0,0
58903,-100,4,3,3,65,0,0
61980,-66.6666666666667,4,3,3,65,0,0
62595,-100,4,2,3,75,0,1
63826,-100,4,2,1,75,0,1
64595,-100,4,2,3,75,0,1
68749,-100,4,2,1,75,0,1
69518,-100,4,2,3,75,0,1
73672,-100,4,2,1,75,0,1
74442,-100,4,2,3,75,0,1
78595,-100,4,2,1,75,0,1
79672,-100,4,2,3,75,0,1
82749,-100,4,2,1,75,0,1
83211,-100,4,2,3,75,0,1
85211,-100,4,2,1,75,0,1
85672,-100,4,2,3,75,0,1
87211,-100,4,3,3,65,0,0
90288,-66.6666666666667,4,3,3,65,0,0
90903,-133.333333333333,4,2,1,65,0,0
95826,-133.333333333333,4,2,3,65,0,0
100749,-133.333333333333,4,2,1,65,0,0

[Colours]
Combo1 : 89,92,217
Combo2 : 28,217,155
Combo3 : 33,118,222
Combo4 : 233,222,22

[HitObjects]
160,128,442,6,0,L|136:232,1,75,2|0,0:0|3:0,0:0:0:0:
247,192,749,2,0,L|230:265,1,75,0|0,0:0|3:3,0:0:0:0:
335,253,1057,2,0,L|311:357,2,75,2|0|0,0:0|3:3|0:0,0:0:0:0:
425,200,1518,1,0,3:3:0:0:
384,103,1672,6,0,P|333:103|292:111,1,75,2|0,0:0|3:3,0:0:0:0:
247,192,1980,2,0,P|209:196|172:195,1,75,0|0,0:0|3:3,0:0:0:0:
112,108,2288,2,0,P|74:106|37:111,2,75,2|0|0,0:0|3:3|0:0,0:0:0:0:
189,36,2749,1,0,3:3:0:0:
241,127,2903,6,0,L|249:220,1,75,2|0,0:0|3:3,0:0:0:0:
351,183,3211,2,0,L|359:276,1,75,2|0,0:0|3:3,0:0:0:0:
263,355,3518,2,0,L|256:280,1,75,2|0,0:0|3:3,0:0:0:0:
144,319,3826,2,0,L|137:244,1,75,2|0,0:0|3:3,0:0:0:0:
256,192,4134,12,2,5057,0:0:0:0:
81,153,5365,6,0,P|130:130|233:134,1,150,4|8,0:0|0:0,0:0:0:0:
310,191,5826,1,2,0:0:0:0:
413,208,5980,2,0,P|406:157|398:128,1,75,2|0,0:0|0:0,0:0:0:0:
202,171,6288,2,0,P|209:222|217:251,1,75,8|2,0:0|0:0,0:0:0:0:
337,315,6595,6,8,L|494:321,2,150,2|8|2,0:0|0:0|0:0,0:0:0:0:
251,253,7365,2,0,L|161:249,2,75,2|8|0,0:0|0:0|0:0,0:0:0:0:
372,136,7826,6,0,L|378:217,1,75,2|0,0:0|0:0,0:0:0:0:
256,328,8134,2,0,L|250:247,1,75,8|2,0:0|0:0,0:0:0:0:
160,152,8442,1,2,0:0:0:0:
128,252,8595,1,0,0:0:0:0:
256,192,8749,2,0,L|250:111,1,75,8|2,0:0|0:0,0:0:0:0:
112,28,9057,6,0,L|108:76,2,37.5,2|0|0,0:0|0:0|0:0,0:0:0:0:
40,140,9365,2,0,L|36:188,2,37.5,10|0|0,0:0|0:0|0:0,0:0:0:0:
104,256,9672,2,0,L|100:304,2,37.5,2|0|0,0:0|0:0|0:0,0:0:0:0:
220,176,9980,2,0,L|216:224,2,37.5,10|0|0,0:0|0:0|0:0,0:0:0:0:
329,285,10288,6,0,L|320:369,1,75,4|2,0:0|0:0,0:0:0:0:
438,219,10595,2,0,L|442:305,1,75,8|2,0:0|0:0,0:0:0:0:
340,184,10903,2,0,L|335:33,2,150,2|8|2,0:0|0:0|0:0,0:0:0:0:
252,253,11672,1,0,0:0:0:0:
173,183,11826,2,0,P|120:187|83:199,1,75,8|2,0:0|0:0,0:0:0:0:
95,298,12134,2,0,P|148:294|185:282,1,75,2|0,0:0|0:0,0:0:0:0:
248,178,12442,1,10,0:0:0:0:
248,178,12749,6,0,L|253:268,1,75,2|0,0:0|0:0,0:0:0:0:
353,221,13057,2,0,L|358:311,1,75,8|2,0:0|0:0,0:0:0:0:
271,357,13365,2,0,B|114:361,1,150,2|8,0:0|0:0,0:0:0:0:
43,289,13826,1,2,0:0:0:0:
115,181,13980,6,0,L|120:230,2,37.5,2|0|0,0:0|0:0|0:0,0:0:0:0:
215,244,14288,2,0,L|220:293,2,37.5,10|0|0,0:0|0:0|0:0,0:0:0:0:
343,223,14595,1,2,0:0:0:0:
365,219,14672,1,0,0:0:0:0:
387,216,14749,2,0,L|440:208,2,37.5,2|0|8,0:0|0:0|0:0,0:0:0:0:
305,84,15211,6,0,P|230:98|139:96,2,150,4|8|2,0:0|0:0|0:0,0:0:0:0:
441,134,16134,2,0,B|427:186|427:186|447:296,1,150,10|4,0:0|0:3,0:0:0:0:
257,342,16749,2,0,L|166:338,1,75,4|0,0:3|0:0,0:0:0:0:
81,293,17057,2,0,L|66:378,2,75,8|8|8,0:3|0:3|0:3,0:0:0:0:
241,192,17672,6,0,P|186:153|77:152,2,150,4|8|2,0:0|0:0|0:0,0:0:0:0:
368,331,18595,2,0,B|424:332|424:332|522:297,1,150,10|4,0:0|0:3,0:0:0:0:
492,196,19057,1,0,0:0:0:0:
401,143,19211,2,0,L|393:228,1,75,4|0,0:3|0:0,0:0:0:0:
271,293,19518,2,0,L|368:330,2,75,8|8|8,0:3|0:3|0:3,0:0:0:0:
147,193,20134,6,0,P|126:298|118:373,2,150,4|8|2,0:0|0:0|0:0,0:0:0:0:
258,154,21057,2,0,P|327:168|398:92,1,150,10|4,0:0|0:3,0:0:0:0:
414,24,21518,1,0,0:0:0:0:
499,85,21672,2,0,P|505:141|505:177,1,75,4|0,0:3|0:0,0:0:0:0:
434,275,21980,2,0,P|428:219|428:183,2,75,8|8|8,0:3|0:3|0:3,0:0:0:0:
282,334,22595,6,0,B|112:336,2,150,4|8|2,0:0|0:0|0:0,0:0:0:0:
441,262,23518,2,0,P|398:236|347:224,1,75,10|0,0:0|0:0,0:0:0:0:
305,149,23826,2,0,P|349:133|395:125,2,75,4|0|4,0:3|0:0|0:3,0:0:0:0:
266,246,24288,1,0,0:0:0:0:
182,141,24442,6,0,L|201:94,2,37.5,8|0|2,0:3|0:0|0:0,0:0:0:0:
307,118,24749,2,0,L|354:136,2,37.5,4|0|2,0:3|0:0|0:0,0:0:0:0:
331,241,25057,2,0,L|312:288,2,37.5,8|0|2,0:3|0:0|0:0,0:0:0:0:
206,267,25365,2,0,L|160:248,2,37.5,4|0|2,0:3|0:0|0:0,0:0:0:0:
239,103,25672,6,0,L|286:83,2,37.5,8|0|2,0:3|0:0|0:0,0:0:0:0:
344,175,25980,2,0,L|364:221,2,37.5,4|0|2,0:3|0:0|0:0,0:0:0:0:
274,279,26288,2,0,L|227:299,2,37.5,8|0|2,0:3|0:0|0:0,0:0:0:0:
167,209,26595,2,0,L|148:163,2,37.5,4|0|2,0:3|0:0|0:0,0:0:0:0:
256,192,26903,12,4,29057,0:0:0:0:
41,62,29365,6,0,P|117:37|194:33,1,150,4|8,0:0|0:0,0:0:0:0:
291,47,29826,1,0,0:0:0:0:
272,149,29980,2,0,L|169:139,1,75,2|0,0:0|0:0,0:0:0:0:
216,245,30288,2,0,L|319:255,1,75,10|0,0:0|0:0,0:0:0:0:
383,159,30595,6,0,P|393:107|400:2,2,150,2|10|2,0:0|0:0|0:0,0:0:0:0:
346,258,31365,1,0,0:0:0:0:
242,241,31518,2,0,P|170:239|136:241,1,75,10|0,0:0|0:0,0:0:0:0:
277,341,31826,2,0,P|332:345|440:341,2,150,2|10|2,0:0|0:0|0:0,0:0:0:0:
242,241,32595,1,0,0:0:0:0:
279,143,32749,1,10,0:0:0:0:
369,89,32903,1,0,0:0:0:0:
474,91,33057,6,0,L|483:184,1,75,2|0,0:0|0:0,0:0:0:0:
376,169,33365,2,0,L|385:262,1,75,10|0,0:0|0:0,0:0:0:0:
249,149,33672,2,0,L|258:242,1,75,2|0,0:0|0:0,0:0:0:0:
145,223,33980,2,0,L|154:316,1,75,10|0,0:0|0:0,0:0:0:0:
257,351,34288,6,0,B|422:336,1,150,4|8,0:0|0:0,0:0:0:0:
469,253,34749,1,0,0:0:0:0:
381,194,34903,2,0,P|323:200|282:217,1,75,2|0,0:0|0:0,0:0:0:0:
232,279,35211,2,0,P|174:273|133:256,1,75,10|0,0:0|0:0,0:0:0:0:
103,178,35518,6,0,L|95:15,2,150,2|10|2,0:0|0:0|0:0,0:0:0:0:
112,283,36288,1,0,0:0:0:0:
227,204,36442,2,0,L|233:294,1,75,10|0,0:0|0:0,0:0:0:0:
316,342,36749,6,0,P|365:349|485:354,1,150,2|10,0:0|0:0,0:0:0:0:
508,257,37211,1,0,0:0:0:0:
434,181,37365,2,0,L|398:253,1,75,2|0,0:0|0:0,0:0:0:0:
301,213,37672,2,0,L|265:285,1,75,10|0,0:0|0:0,0:0:0:0:
195,358,37980,5,2,0:0:0:0:
91,338,38134,1,0,0:0:0:0:
75,233,38288,1,10,0:0:0:0:
167,185,38442,1,0,0:0:0:0:
241,258,38595,1,2,0:0:0:0:
152,274,38903,5,4,0:0:0:0:
152,274,39211,2,0,P|134:231|110:116,1,150,4|8,0:0|0:0,0:0:0:0:
169,42,39672,1,0,0:0:0:0:
267,79,39826,2,0,P|323:94|371:96,1,75,2|0,0:0|0:0,0:0:0:0:
444,80,40134,2,0,L|436:171,1,75,10|0,0:0|0:0,0:0:0:0:
346,209,40442,6,0,P|253:200|188:228,2,150,2|10|2,0:0|0:0|0:0,0:0:0:0:
413,289,41211,1,0,0:0:0:0:
324,346,41365,2,0,L|243:338,1,75,10|0,0:0|0:0,0:0:0:0:
309,252,41672,6,0,L|469:268,1,150,2|10,0:0|0:0,0:0:0:0:
324,346,42134,1,0,0:0:0:0:
238,284,42288,2,0,P|185:280|135:283,1,75,2|0,0:0|0:0,0:0:0:0:
89,355,42595,2,0,P|51:355|14:351,1,75,10|0,0:0|0:0,0:0:0:0:
8,245,42903,6,0,L|28:147,1,75,2|0,0:0|0:0,0:0:0:0:
134,198,43211,2,0,L|154:100,1,75,10|0,0:0|0:0,0:0:0:0:
238,284,43518,2,0,L|258:186,1,75,2|0,0:0|0:0,0:0:0:0:
366,239,43826,2,0,L|386:141,1,75,10|0,0:0|0:0,0:0:0:0:
304,43,44134,6,0,L|144:51,1,150,4|8,0:0|0:0,0:0:0:0:
49,56,44595,1,0,0:0:0:0:
40,160,44749,2,0,P|92:149|125:132,1,75,2|0,0:0|0:0,0:0:0:0:
216,156,45057,2,0,L|223:255,1,75,10|0,0:0|0:0,0:0:0:0:
165,320,45365,6,0,P|74:320|3:284,2,150,2|10|2,0:0|0:0|0:0,0:0:0:0:
238,245,46134,1,0,0:0:0:0:
339,219,46288,1,10,0:0:0:0:
436,257,46442,1,0,0:0:0:0:
478,352,46595,6,0,P|391:352|335:295,1,150,2|10,0:0|0:0,0:0:0:0:
339,219,47057,1,0,0:0:0:0:
422,154,47211,2,0,P|442:203|445:239,1,75,2|0,0:0|0:0,0:0:0:0:
257,283,47518,2,0,P|237:234|234:198,1,75,10|0,0:0|0:0,0:0:0:0:
219,107,47826,5,2,0:0:0:0:
321,129,47980,1,0,0:0:0:0:
422,154,48134,2,0,L|432:47,2,75,10|0|2,0:0|0:0|0:0,0:0:0:0:
257,283,48749,1,4,0:0:0:0:
257,283,49057,6,0,L|263:180,1,75,4|0,0:0|0:0,0:0:0:0:
359,171,49365,2,0,L|353:274,1,75,10|0,0:0|0:0,0:0:0:0:
152,320,49672,2,0,L|158:217,1,75,2|0,0:0|0:0,0:0:0:0:
64,168,49980,2,0,L|59:242,1,75,8|2,0:0|0:0,0:0:0:0:
228,364,50288,6,0,L|309:358,1,75,2|0,0:0|0:0,0:0:0:0:
270,138,50595,2,0,L|190:142,1,75,10|0,0:0|0:0,0:0:0:0:
164,244,50903,2,0,L|244:240,2,75,2|2|8,0:0|0:0|0:0,0:0:0:0:
346,233,51518,6,0,L|335:323,1,75,2|0,0:0|0:0,0:0:0:0:
233,282,51826,2,0,L|222:372,1,75,8|2,0:0|0:0,0:0:0:0:
129,212,52134,2,0,L|118:302,1,75,2|0,0:0|0:0,0:0:0:0:
17,261,52442,2,0,L|6:351,1,75,8|2,0:0|0:0,0:0:0:0:
116,377,52749,6,0,L|160:381,2,37.5,2|0|0,0:0|0:0|0:0,0:0:0:0:
227,304,53057,2,0,L|271:300,2,37.5,10|0|0,0:0|0:0|0:0,0:0:0:0:
352,371,53365,2,0,L|396:375,2,37.5,2|0|0,0:0|0:0|0:0,0:0:0:0:
457,279,53672,2,0,L|501:275,2,37.5,10|0|0,0:0|0:0|0:0,0:0:0:0:
427,142,53980,6,0,L|356:193,1,75,4|2,0:0|0:0,0:0:0:0:
294,263,54288,2,0,L|203:252,1,75,8|2,0:0|0:0,0:0:0:0:
204,149,54595,2,0,L|295:160,2,75,2|0|10,0:0|0:0|0:0,0:0:0:0:
99,131,55057,1,2,0:0:0:0:
34,214,55211,6,0,P|49:257|74:289,1,75,2|0,0:0|0:0,0:0:0:0:
170,276,55518,2,0,P|190:307|201:342,1,75,10|0,0:0|0:0,0:0:0:0:
304,367,55826,2,0,L|379:371,2,75,2|0|10,0:0|0:0|0:0,0:0:0:0:
279,153,56442,5,2,0:0:0:0:
279,153,56595,1,2,0:0:0:0:
279,153,56749,2,0,L|204:149,1,75,10|0,0:0|0:0,0:0:0:0:
148,239,57057,1,2,0:0:0:0:
148,239,57210,1,2,0:0:0:0:
148,239,57364,2,0,L|223:243,1,75,10|0,0:0|0:0,0:0:0:0:
296,318,57672,5,2,0:0:0:0:
296,318,57825,1,2,0:0:0:0:
296,318,57980,2,0,L|371:322,1,75,10|0,0:0|0:0,0:0:0:0:
436,238,58288,1,2,0:0:0:0:
436,238,58441,1,2,0:0:0:0:
436,238,58595,2,0,L|511:242,1,75,10|0,0:0|0:0,0:0:0:0:
341,170,58903,6,0,L|278:176,7,37.5,4|0|2|0|8|0|2|0,0:2|0:0|0:0|0:0|0:2|0:0|0:0|0:0,0:0:0:0:
261,205,59518,2,0,L|198:211,7,37.5,0|0|2|0|8|0|2|0,0:2|0:0|0:0|0:0|0:2|0:0|0:0|0:0,0:0:0:0:
180,239,60134,2,0,L|117:245,7,37.5,4|0|2|0|8|0|2|0,0:2|0:0|0:0|0:0|0:2|0:0|0:0|0:0,0:0:0:0:
97,269,60749,2,0,L|34:275,7,37.5,0|0|2|0|8|0|2|0,0:2|0:0|0:0|0:0|0:2|0:0|0:0|0:0,0:0:0:0:
0,320,61365,6,0,L|10:381,7,37.5,4|0|2|0|8|0|2|0,0:2|0:0|0:0|0:0|0:2|0:0|0:0|0:0,0:0:0:0:
84,340,61980,2,0,L|89:368,15,28.1250010728836,0|0|0|0|2|0|0|0|8|0|0|0|2|0|0|0,0:0|0:0|0:0|0:0|0:0|0:0|0:0|0:0|0:2|0:0|0:0|0:0|0:0|0:0|0:0|0:0,0:0:0:0:
84,340,62595,6,0,B|241:346,1,150,4|8,0:0|0:0,0:0:0:0:
324,291,63057,1,0,0:0:0:0:
280,196,63211,2,0,P|231:246|218:270,1,75,2|0,0:0|0:0,0:0:0:0:
139,193,63518,2,0,L|129:102,1,75,10|0,0:0|0:0,0:0:0:0:
210,48,63826,6,0,L|385:28,2,150,2|10|2,0:0|0:0|0:0,0:0:0:0:
106,65,64595,1,2,0:0:0:0:
72,164,64749,2,0,L|166:149,1,75,8|2,0:0|0:0,0:0:0:0:
248,178,65057,6,0,P|255:240|257:344,2,150,2|10|2,0:0|0:0|0:0,0:0:0:0:
221,76,65826,1,0,0:0:0:0:
294,1,65980,2,0,P|317:53|327:87,1,75,10|0,0:0|0:0,0:0:0:0:
392,149,66288,6,0,L|472:153,1,75,2|0,0:0|0:0,0:0:0:0:
428,250,66595,2,0,L|348:246,1,75,10|0,0:0|0:0,0:0:0:0:
247,238,66903,1,2,0:0:0:0:
143,258,67057,1,0,0:0:0:0:
61,324,67211,2,0,P|105:352|148:365,1,75,10|0,0:0|0:0,0:0:0:0:
143,258,67518,6,0,L|149:90,1,150,4|8,0:0|0:0,0:0:0:0:
222,33,67980,1,0,0:0:0:0:
306,95,68134,2,0,L|229:126,1,75,2|0,0:0|0:0,0:0:0:0:
316,192,68442,2,0,L|393:161,1,75,10|0,0:0|0:0,0:0:0:0:
472,223,68749,6,0,P|466:296|447:379,2,150,2|10|2,0:0|0:0|0:0,0:0:0:0:
443,121,69518,1,2,0:0:0:0:
350,71,69672,2,0,P|282:55|244:55,1,75,8|2,0:0|0:0,0:0:0:0:
215,140,69980,6,0,P|283:156|321:156,1,75,2|0,0:0|0:0,0:0:0:0:
347,243,70288,2,0,P|279:259|241:259,1,75,10|0,0:0|0:0,0:0:0:0:
172,233,70595,2,0,P|134:238|99:249,2,75,2|0|10,0:0|0:0|0:0,0:0:0:0:
274,259,71057,1,0,0:0:0:0:
339,176,71211,6,0,L|347:67,1,75,2|0,0:0|0:0,0:0:0:0:
435,153,71518,2,0,L|430:228,2,75,10|0|2,0:0|0:0|0:0,0:0:0:0:
256,56,72134,1,4,0:0:0:0:
256,56,72442,6,0,B|243:222,1,150,4|8,0:0|0:0,0:0:0:0:
176,285,72903,1,0,0:0:0:0:
100,211,73057,2,0,P|151:186|202:175,1,75,2|0,0:0|0:0,0:0:0:0:
253,243,73365,2,0,L|334:250,1,75,10|0,0:0|0:0,0:0:0:0:
430,228,73672,6,0,P|444:150|453:73,2,150,2|10|2,0:0|0:0|0:0,0:0:0:0:
395,327,74442,1,2,0:0:0:0:
306,271,74595,2,0,P|294:318|291:352,1,75,8|2,0:0|0:0,0:0:0:0:
343,194,74903,6,0,P|297:186|185:192,2,150,2|10|2,0:0|0:0|0:0,0:0:0:0:
435,243,75672,1,0,0:0:0:0:
490,153,75826,1,10,0:0:0:0:
397,102,75980,1,0,0:0:0:0:
343,193,76134,6,0,L|340:280,1,75,2|0,0:0|0:0,0:0:0:0:
226,148,76442,2,0,L|228:222,1,75,10|0,0:0|0:0,0:0:0:0:
119,218,76749,2,0,L|116:305,1,75,2|0,0:0|0:0,0:0:0:0:
2,174,77057,2,0,L|4:248,1,75,10|0,0:0|0:0,0:0:0:0:
61,381,77365,6,0,P|111:381|216:348,1,150,4|8,0:0|0:0,0:0:0:0:
292,291,77826,1,0,0:0:0:0:
393,267,77980,2,0,P|402:324|404:358,1,75,2|0,0:0|0:0,0:0:0:0:
319,199,78288,2,0,P|310:142|308:108,1,75,10|0,0:0|0:0,0:0:0:0:
292,291,78595,5,2,0:0:0:0:
292,291,78903,1,10,0:0:0:0:
292,291,79211,2,0,P|223:309|130:316,1,150,2|8,0:0|0:0,0:0:0:0:
50,269,79672,1,2,0:0:0:0:
53,163,79826,6,0,P|101:142|134:138,1,75,2|0,0:0|0:0,0:0:0:0:
200,210,80134,2,0,P|236:202|270:185,1,75,10|0,0:0|0:0,0:0:0:0:
311,87,80442,2,0,L|317:-2,1,75,2|0,0:0|0:0,0:0:0:0:
411,56,80749,2,0,L|405:145,1,75,10|0,0:0|0:0,0:0:0:0:
395,236,81057,1,4,0:0:0:0:
395,236,81365,6,0,P|344:218|248:268,2,150,10|2|10,0:0|0:0|0:0,0:0:0:0:
226,109,82288,6,0,L|216:208,1,75,2|0,0:0|0:0,0:0:0:0:
116,208,82595,2,0,L|126:109,1,75,10|2,0:0|0:0,0:0:0:0:
154,32,82903,2,0,P|214:25|315:28,2,150,2|10|4,0:0|0:0|0:0,0:0:0:0:
151,242,83826,6,0,P|91:249|-10:246,2,150,10|2|10,0:0|0:0|0:0,0:0:0:0:
199,37,84749,6,0,L|290:57,1,75,2|0,0:0|0:0,0:0:0:0:
327,143,85057,2,0,L|418:163,1,75,10|2,0:0|0:0,0:0:0:0:
331,239,85365,2,0,L|257:222,1,75,2|0,0:0|0:0,0:0:0:0:
156,252,85673,2,0,L|82:235,1,75,10|0,0:0|0:0,0:0:0:0:
76,129,85980,6,0,L|92:41,1,75,6|0,0:1|0:0,0:0:0:0:
188,25,86288,2,0,L|181:75,3,37.5,10|0|0|0,0:0|0:0|0:0|0:0,0:0:0:0:
257,98,86595,2,0,L|252:136,3,37.5,2|0|0|0,0:0|0:0|0:0|0:0,0:0:0:0:
346,59,86903,2,0,L|339:109,3,37.5,10|0|0|0,0:0|0:0|0:0|0:0,0:0:0:0:
413,147,87211,6,0,L|408:185,3,37.5,6|0|0|0,0:2|0:0|0:0|0:0,0:0:0:0:
328,215,87518,2,0,L|321:265,3,37.5,10|0|0|0,0:2|0:0|0:0|0:0,0:0:0:0:
400,288,87826,2,0,L|393:338,3,37.5,2|0|0|0,0:2|0:0|0:0|0:0,0:0:0:0:
495,265,88134,2,0,L|488:315,3,37.5,10|0|0|0,0:2|0:0|0:0|0:0,0:0:0:0:
471,173,88442,6,0,L|394:180,1,75,6|0,0:1|0:0,0:0:0:0:
308,213,88749,2,0,L|249:220,3,37.5,10|0|0|0,0:2|0:0|0:0|0:0,0:0:0:0:
212,152,89057,2,0,L|175:157,3,37.5,2|0|0|0,0:2|0:0|0:0|0:0,0:0:0:0:
300,71,89365,2,0,L|241:78,3,37.5,10|0|0|0,0:2|0:0|0:0|0:0,0:0:0:0:
192,17,89672,6,0,L|155:22,3,37.5,6|0|0|0,0:2|0:0|0:0|0:0,0:0:0:0:
132,109,89980,2,0,L|95:114,3,37.5,10|0|0|0,0:2|0:0|0:0|0:0,0:0:0:0:
194,178,90288,2,0,L|197:211,15,28.1250010728836,2|0|0|0|0|0|0|0|10|0|0|0|0|0|0|0,0:2|0:0|0:0|0:0|0:0|0:0|0:0|0:0|0:2|0:0|0:0|0:0|0:0|0:0|0:0|0:0,0:0:0:0:
194,178,90903,6,0,P|226:132|284:96,1,112.500004291535,4|8,0:0|0:0,0:0:0:0:
333,245,91518,2,0,P|301:291|243:327,1,112.500004291535,6|10,0:0|0:0,0:0:0:0:
200,68,92134,6,0,P|248:40|316:33,1,112.500004291535,4|8,0:0|0:0,0:0:0:0:
312,316,92749,2,0,P|263:343|195:350,1,112.500004291535,6|10,0:0|0:0,0:0:0:0:
208,168,93365,5,4,0:0:0:0:
280,144,93672,1,8,0:0:0:0:
304,216,93980,1,6,0:0:0:0:
232,240,94288,1,10,0:0:0:0:
223,95,94595,5,4,0:0:0:0:
353,159,94903,1,8,0:0:0:0:
289,289,95211,1,6,0:0:0:0:
159,225,95518,1,10,0:0:0:0:
256,192,95826,5,6,0:1:0:0:
312,76,95980,2,0,L|352:80,2,28.1250010728836,0|0|6,3:0|3:0|0:1,0:0:0:0:
372,248,96288,2,0,L|368:288,2,28.1250010728836,0|0|6,3:0|3:0|0:1,0:0:0:0:
200,308,96595,2,0,L|160:304,2,28.1250010728836,0|0|6,3:0|3:0|0:1,0:0:0:0:
140,136,96903,2,0,L|144:96,2,28.1250010728836,0|0|6,3:0|3:0|0:1,0:0:0:0:
312,76,97672,5,6,0:1:0:0:
327,299,98288,1,6,0:1:0:0:
126,200,98903,1,6,0:1:0:0:
256,192,99518,12,6,100749,0:0:0:0:
