osu file format v13

[General]
AudioFilename: tengoku to jigoku.mp3
AudioLeadIn: 1500
PreviewTime: 29057
Countdown: 0
SampleSet: Soft
StackLeniency: 0.7
Mode: 0
LetterboxInBreaks: 0
WidescreenStoryboard: 0

[Editor]
DistanceSpacing: 1.2
BeatDivisor: 2
GridSize: 4
TimelineZoom: 3.399999

[Metadata]
Title:Tengoku to Jigoku
TitleUnicode:天国と地獄
Artist:Mutsuhiko Izumi
ArtistUnicode:Mutsuhiko Izumi
Creator:N a s y a
Version:Beginner
Source:jubeat
Tags:Nasya N_a_s_y_a Black Sheep ShiraKai KaCha Mercurius 泉陸奥彦
BeatmapID:483183
BeatmapSetID:183656

[Difficulty]
HPDrainRate:2
CircleSize:3
OverallDifficulty:2
ApproachRate:3
SliderMultiplier:0.799999999999999
SliderTickRate:1

[Events]
//Background and Video events
0,0,"bg.jpg",0,0
//Break Periods
//Storyboard Layer 0 (Background)
//Storyboard Layer 1 (Fail)
//Storyboard Layer 2 (Pass)
//Storyboard Layer 3 (Foreground)
//Storyboard Sound Samples

[TimingPoints]
442,307.692307692308,4,2,3,60,1,0
5365,-100,4,2,3,65,0,0
6903,-100,4,2,2,65,0,0
7211,-100,4,2,1,65,0,0
8134,-100,4,2,2,65,0,0
8442,-100,4,2,1,65,0,0
8749,-100,4,2,2,65,0,0
9057,-100,4,2,1,65,0,0
10595,-100,4,2,2,65,0,0
10903,-100,4,2,1,65,0,0
11826,-100,4,2,2,65,0,0
12134,-100,4,2,1,65,0,0
12442,-100,4,2,2,65,0,0
12749,-100,4,2,1,65,0,0
15518,-100,4,2,2,65,0,0
15826,-100,4,2,1,65,0,0
17980,-100,4,2,2,65,0,0
18288,-100,4,2,1,65,0,0
20442,-100,4,2,2,65,0,0
20749,-100,4,2,1,65,0,0
22903,-100,4,2,2,65,0,0
23211,-100,4,2,1,65,0,0
24442,307.692307692308,4,2,3,65,1,0
29365,-100,4,2,3,75,0,1
29672,-100,4,2,2,75,0,1
29980,-100,4,2,3,75,0,1
32134,-100,4,2,2,75,0,1
32442,-100,4,2,3,75,0,1
33365,-100,4,2,2,75,0,1
33672,-100,4,2,1,75,0,1
33980,-100,4,2,2,75,0,1
34288,-100,4,2,3,75,0,1
35826,-100,4,2,2,75,0,1
36134,-100,4,2,3,75,0,1
37057,-100,4,2,2,75,0,1
37365,-100,4,2,3,75,0,1
38288,-100,4,2,2,75,0,1
38595,-100,4,2,1,75,0,1
39518,-100,4,2,2,75,0,1
39826,-100,4,2,3,75,0,1
41980,-100,4,2,2,75,0,1
42288,-100,4,2,3,75,0,1
43518,-100,4,2,1,75,0,1
43826,-100,4,2,2,75,0,1
44134,-100,4,2,3,75,0,1
45672,-100,4,2,2,75,0,1
45980,-100,4,2,3,75,0,1
46903,-100,4,2,2,75,0,1
47211,-100,4,2,3,75,0,1
48442,-100,4,2,1,75,0,1
49057,-100,4,2,3,65,0,0
50595,-100,4,2,2,65,0,0
50903,-100,4,2,3,65,0,0
51826,-100,4,2,2,65,0,0
52134,-100,4,2,3,65,0,0
52442,-100,4,2,2,65,0,0
52749,-100,4,2,3,65,0,0
54288,-100,4,2,2,65,0,0
54595,-100,4,2,3,65,0,0
56749,-100,4,2,2,65,0,0
57057,-100,4,2,3,65,0,0
57980,-100,4,2,2,65,0,0
58288,-100,4,2,3,65,0,0
60442,-100,4,2,2,65,0,0
62595,-100,4,2,3,75,0,1
63826,-100,4,2,1,75,0,1
64749,-100,4,2,2,75,0,1
65057,-100,4,2,3,75,0,1
66903,-100,4,2,1,75,0,1
67211,-100,4,2,2,75,0,1
67518,-100,4,2,3,75,0,1
68749,-100,4,2,1,75,0,1
69980,-100,4,2,3,75,0,1
70288,-100,4,2,2,75,0,1
70595,-100,4,2,3,75,0,1
71518,-100,4,2,2,75,0,1
71826,-100,4,2,1,75,0,1
72749,-100,4,2,2,75,0,1
73057,-100,4,2,3,75,0,1
73672,-100,4,2,1,75,0,1
74903,-100,4,2,3,75,0,1
75211,-100,4,2,2,75,0,1
75518,-100,4,2,3,75,0,1
75826,-100,4,2,2,75,0,1
76134,-100,4,2,3,75,0,1
76749,-100,4,2,1,75,0,1
77057,-100,4,2,2,75,0,1
77365,-100,4,2,1,75,0,1
77980,-100,4,2,3,75,0,1
78595,-100,4,2,1,75,0,1
79826,-100,4,2,3,75,0,1
80134,-100,4,2,2,75,0,1
80442,-100,4,2,3,75,0,1
80749,-100,4,2,2,75,0,1
81057,-100,4,2,3,65,0,0
82595,-100,4,2,2,65,0,0
82903,-100,4,2,1,65,0,0
83211,-100,4,2,2,65,0,0
83826,-100,4,2,3,65,0,0
85057,-100,4,2,2,65,0,0
85365,-100,4,2,1,65,0,0
85672,-100,4,2,2,65,0,0
85980,-100,4,2,3,65,0,0
89365,-100,4,2,2,65,0,0
90288,-100,4,2,3,65,0,0
100749,-100,4,2,1,65,0,0

[Colours]
Combo1 : 89,92,217
Combo2 : 28,217,155
Combo3 : 33,118,222
Combo4 : 233,222,22

[HitObjects]
98,169,442,6,0,P|142:129|238:153,1,160,2|2,0:0|0:0,0:0:0:0:
414,217,1672,2,0,P|370:257|274:233,1,160,2|2,0:0|0:0,0:0:0:0:
145,98,2903,6,0,L|154:4,1,79.9999999999999,2|2,0:0|0:0,0:0:0:0:
248,29,3518,2,0,L|239:123,1,79.9999999999999,2|2,0:0|0:0,0:0:0:0:
284,194,4134,2,0,B|450:213,2,160,2|2|4,0:0|0:0|0:0,0:0:0:0:
194,159,5672,5,8,0:0:0:0:
219,66,5980,2,0,P|254:52|302:40,1,79.9999999999999,0|8,0:0|0:0,0:0:0:0:
373,96,6595,2,0,B|364:189|364:189|390:247|390:247|381:339,1,240,0|8,0:0|0:0,0:0:0:0:
286,334,7826,6,0,B|228:316|228:316|184:320|136:364,2,160,0|0|0,0:0|0:0|0:0,0:0:0:0:
382,329,9365,1,8,0:0:0:0:
396,234,9672,2,0,L|408:151,1,79.9999999999999,0|8,0:0|0:0,0:0:0:0:
356,73,10288,6,0,B|286:64|286:64|242:73|194:118,1,160,4|0,0:0|0:0,0:0:0:0:
141,175,11211,1,8,0:0:0:0:
215,235,11518,2,0,L|389:242,2,160,0|0|0,0:0|0:0|0:0,0:0:0:0:
118,231,13057,5,8,0:0:0:0:
146,322,13365,2,0,L|237:326,1,79.9999999999999,0|8,0:0|0:0,0:0:0:0:
260,236,13980,2,0,L|351:240,1,79.9999999999999,0|8,0:0|0:0,0:0:0:0:
364,148,14595,2,0,L|455:152,1,79.9999999999999,0|8,0:0|0:0,0:0:0:0:
410,61,15211,6,0,L|240:51,1,160,4|2,0:0|0:0,0:0:0:0:
154,40,16134,1,10,0:0:0:0:
82,103,16442,2,0,L|88:187,1,79.9999999999999,4|4,0:3|0:3,0:0:0:0:
183,180,17057,2,0,L|179:275,1,79.9999999999999,8|8,0:3|0:3,0:0:0:0:
246,328,17672,6,0,P|288:313|413:312,1,160,4|2,0:0|0:0,0:0:0:0:
494,338,18595,1,10,0:0:0:0:
468,245,18903,2,0,L|396:203,1,79.9999999999999,4|4,0:3|0:3,0:0:0:0:
306,230,19518,2,0,L|258:147,1,79.9999999999999,8|8,0:3|0:3,0:0:0:0:
304,72,20134,6,0,B|361:63|361:63|409:74|409:74|463:64,1,160,4|2,0:0|0:0,0:0:0:0:
508,148,21057,1,10,0:0:0:0:
445,220,21365,2,0,P|390:235|350:237,1,79.9999999999999,4|4,0:3|0:3,0:0:0:0:
288,182,21980,2,0,P|248:187|210:199,1,79.9999999999999,8|8,0:3|0:3,0:0:0:0:
153,276,22595,6,0,P|80:276|-15:233,1,160,4|2,0:0|0:0,0:0:0:0:
0,147,23518,1,10,0:0:0:0:
86,104,23826,2,0,L|96:195,1,79.9999999999999,4|4,0:3|0:3,0:0:0:0:
180,140,24442,6,0,L|170:49,1,79.9999999999999,8|4,0:3|0:3,0:0:0:0:
261,26,25057,2,0,L|271:117,1,79.9999999999999,8|4,0:3|0:3,0:0:0:0:
359,138,25672,2,0,L|369:229,1,79.9999999999999,8|4,0:3|0:3,0:0:0:0:
456,254,26288,2,0,L|466:345,1,79.9999999999999,8|4,0:3|0:3,0:0:0:0:
368,324,26903,6,0,L|284:332,1,79.9999999999999,8|8,3:0|3:0,0:0:0:0:
264,240,27518,2,0,L|180:248,1,79.9999999999999,8|8,3:0|3:0,0:0:0:0:
160,340,28134,2,0,L|76:348,1,79.9999999999999,8|8,3:0|3:0,0:0:0:0:
84,252,28749,2,0,L|0:260,1,79.9999999999999,8|4,3:0|0:0,0:0:0:0:
12,164,29365,6,0,P|60:76|112:36,1,160,4|2,0:0|0:0,0:0:0:0:
201,26,30288,1,8,0:0:0:0:
285,71,30595,2,0,P|331:75|379:70,1,79.9999999999999,2|8,0:0|0:0,0:0:0:0:
404,160,31211,2,0,P|400:200|404:252,1,79.9999999999999,2|8,0:0|0:0,0:0:0:0:
316,284,31826,6,0,B|264:276|264:276|211:293|211:293|145:283,1,160,2|2,0:0|0:0,0:0:0:0:
84,224,32749,1,8,0:0:0:0:
104,132,33057,2,0,P|155:77|243:107,2,160,2|2|4,0:0|0:0|0:0,0:0:0:0:
85,225,34595,5,8,0:0:0:0:
151,294,34903,2,0,P|202:296|241:294,1,79.9999999999999,2|8,0:0|0:0,0:0:0:0:
291,220,35518,2,0,P|353:215|454:223,1,160,2|2,0:0|0:0,0:0:0:0:
504,301,36442,1,8,0:0:0:0:
423,353,36749,6,0,P|361:358|260:350,1,160,2|2,0:0|0:0,0:0:0:0:
203,275,37672,1,8,0:0:0:0:
257,195,37980,2,0,P|266:117|255:28,1,160,2|2,0:0|0:0,0:0:0:0:
164,10,38903,1,4,0:0:0:0:
109,89,39211,6,0,B|100:148|100:148|110:194|110:194|102:255,1,160,4|2,0:0|0:0,0:0:0:0:
151,329,40134,1,8,0:0:0:0:
233,279,40442,2,0,P|269:275|318:281,1,79.9999999999999,2|8,0:0|0:0,0:0:0:0:
376,351,41057,2,0,P|412:355|461:349,1,79.9999999999999,2|8,0:0|0:0,0:0:0:0:
493,262,41672,6,0,L|503:89,1,160,2|2,0:0|0:0,0:0:0:0:
426,43,42595,1,8,0:0:0:0:
346,95,42903,2,0,P|343:131|359:187,1,79.9999999999999,2|8,0:0|0:0,0:0:0:0:
346,269,43518,2,0,P|275:311|194:302,1,160,2|4,0:0|0:0,0:0:0:0:
122,247,44442,5,8,0:0:0:0:
190,179,44749,2,0,L|274:175,1,79.9999999999999,2|8,0:0|0:0,0:0:0:0:
227,88,45365,2,0,L|63:98,1,160,2|2,0:0|0:0,0:0:0:0:
24,184,46288,1,8,0:0:0:0:
58,272,46595,6,0,P|120:301|217:265,1,160,2|2,0:0|0:0,0:0:0:0:
256,195,47518,1,8,0:0:0:0:
256,100,47826,2,0,L|256:16,2,79.9999999999999,2|8|2,0:0|0:0|0:0,0:0:0:0:
340,148,48749,6,0,L|340:229,1,79.9999999999999,4|4,0:0|0:0,0:0:0:0:
340,324,49365,1,10,0:0:0:0:
432,292,49672,2,0,L|432:204,1,79.9999999999999,0|10,0:0|0:0,0:0:0:0:
392,124,50288,2,0,B|336:128|336:128|288:152|288:152|224:160,1,160,0|0,0:0|0:0,0:0:0:0:
144,168,51211,1,8,0:0:0:0:
100,84,51518,6,0,P|136:48|248:56,2,160,2|2|2,0:0|0:0|0:0,0:0:0:0:
72,176,53057,1,10,0:0:0:0:
132,252,53365,2,0,L|224:256,1,79.9999999999999,2|10,0:0|0:0,0:0:0:0:
284,192,53980,6,0,L|300:28,1,160,4|2,0:0|0:0,0:0:0:0:
208,4,54903,1,8,0:0:0:0:
136,68,55211,2,0,L|144:160,1,79.9999999999999,2|8,0:0|0:0,0:0:0:0:
48,152,55826,2,0,L|56:244,1,79.9999999999999,2|8,0:0|0:0,0:0:0:0:
112,308,56442,6,0,B|168:296|232:296|232:296|284:336|352:336,1,240,2|8,0:0|0:0,0:0:0:0:
416,272,57672,2,0,B|444:220|392:156|392:156|324:148|316:80,1,240,2|8,0:0|0:0,0:0:0:0:
236,32,58903,6,0,P|191:37|142:53,1,79.9999999999999,4|8,0:0|0:0,0:0:0:0:
136,140,59518,2,0,P|176:136|214:126,1,79.9999999999999,2|8,0:0|0:0,0:0:0:0:
308,100,60134,6,0,P|388:92|480:108,1,160,4|0,0:0|0:0,0:0:0:0:
504,292,61365,2,0,P|424:300|332:284,1,160,4|0,0:0|0:0,0:0:0:0:
152,296,62595,5,4,0:0:0:0:
128,104,63211,2,0,P|120:64|136:12,1,79.9999999999999,2|10,0:0|0:0,0:0:0:0:
226,64,63826,2,0,L|318:60,1,79.9999999999999,2|10,0:0|0:0,0:0:0:0:
399,82,64442,2,0,P|348:148|270:147,1,160,2|2,0:0|0:0,0:0:0:0:
182,130,65365,1,10,0:0:0:0:
98,176,65672,6,0,P|65:233|55:260,1,79.9999999999999,2|8,0:0|0:0,0:0:0:0:
109,330,66288,2,0,L|203:336,1,79.9999999999999,2|10,0:0|0:0,0:0:0:0:
255,265,66903,2,0,L|432:277,1,160,2|4,0:0|0:0,0:0:0:0:
510,285,67826,1,8,0:0:0:0:
488,191,68134,6,0,P|441:185|399:190,1,79.9999999999999,2|10,0:0|0:0,0:0:0:0:
330,131,68749,2,0,L|323:36,1,79.9999999999999,2|10,0:0|0:0,0:0:0:0:
228,37,69365,2,0,L|235:132,1,79.9999999999999,2|8,0:0|0:0,0:0:0:0:
164,183,69980,6,0,B|92:219|92:219|4:217,1,160,2|2,0:0|0:0,0:0:0:0:
5,121,70903,1,8,0:0:0:0:
59,42,71211,2,0,B|138:40|138:40|210:76,1,160,2|2,0:0|0:0,0:0:0:0:
288,133,72134,1,4,0:0:0:0:
232,211,72442,6,0,B|179:206|179:206|128:221|128:221|65:216,1,160,4|2,0:0|0:0,0:0:0:0:
17,294,73365,1,10,0:0:0:0:
89,357,73672,2,0,P|148:366|173:367,1,79.9999999999999,2|10,0:0|0:0,0:0:0:0:
241,305,74288,2,0,P|280:307|320:314,1,79.9999999999999,2|8,0:0|0:0,0:0:0:0:
397,371,74903,6,0,P|441:358|479:245,2,160,2|2|2,0:0|0:0|0:0,0:0:0:0:
335,296,76442,1,10,0:0:0:0:
246,257,76749,6,0,B|188:257|144:285|144:285|113:338,1,160,2|4,0:0|0:0,0:0:0:0:
202,375,77672,1,8,0:0:0:0:
296,361,77980,2,0,L|389:348,1,79.9999999999999,2|10,0:0|0:0,0:0:0:0:
405,258,78595,6,0,L|312:271,1,79.9999999999999,2|10,0:0|0:0,0:0:0:0:
256,202,79211,2,0,L|163:215,1,79.9999999999999,2|8,0:0|0:0,0:0:0:0:
90,170,79826,2,0,B|73:118|73:118|88:8,2,160,2|2|4,0:0|0:0|0:0,0:0:0:0:
178,208,81365,6,0,L|186:299,2,79.9999999999999,10|2|10,0:0|0:0|0:0,0:0:0:0:
249,143,82288,2,0,P|295:127|405:165,2,160,2|2|4,0:0|0:0|0:0,0:0:0:0:
178,208,83826,6,0,L|95:216,2,79.9999999999999,10|2|10,0:0|0:0|0:0,0:0:0:0:
249,143,84749,2,0,L|420:130,2,160,2|2|6,0:0|0:0|0:1,0:0:0:0:
71,177,86595,6,0,L|78:256,1,79.9999999999999,2|8,0:0|0:0,0:0:0:0:
167,217,87211,2,0,L|174:296,1,79.9999999999999,6|8,0:0|0:0,0:0:0:0:
263,257,87826,2,0,L|270:336,1,79.9999999999999,2|8,0:0|0:0,0:0:0:0:
359,297,88442,2,0,L|366:376,1,79.9999999999999,6|8,0:1|0:0,0:0:0:0:
455,336,89057,6,0,L|440:148,2,160,2|4|0,0:0|0:0|0:0,0:0:0:0:
256,192,90903,12,4,94595,0:0:0:0:
180,96,95826,6,0,L|176:184,1,79.9999999999999,6|6,0:1|0:1,0:0:0:0:
272,172,96442,2,0,L|268:260,1,79.9999999999999,6|6,0:1|0:1,0:0:0:0:
262,347,97057,5,6,0:1:0:0:
147,193,97672,1,6,0:1:0:0:
306,86,98288,1,6,0:1:0:0:
421,240,98903,1,6,0:1:0:0:
256,192,99518,12,6,100749,0:0:0:0:
