osu file format v9

[General]
AudioFilename: Snow Goose [jubeat].mp3
AudioLeadIn: 0
PreviewTime: 52732
Countdown: 0
SampleSet: Normal
StackLeniency: 0.7
Mode: 1
LetterboxInBreaks: 1

[Editor]
DistanceSpacing: 0.6
BeatDivisor: 4
GridSize: 8

[Metadata]
Title:Snow Goose
Artist:Mutsuhiko Izumi
Creator:wmfchris
Version:Taiko
Source:jubeat
Tags:Saturio ignorethis eggpain

[Difficulty]
HPDrainRate:6
CircleSize:5
OverallDifficulty:6
ApproachRate:5
SliderMultiplier:1.5
SliderTickRate:1

[Events]
//Background and Video events
0,0,"snow.jpg"
//Break Periods
//Storyboard Layer 0 (Background)
//Storyboard Layer 1 (Fail)
//Storyboard Layer 2 (Pass)
//Storyboard Layer 3 (Foreground)
//Storyboard Sound Samples
//Background Colour Transformations
3,100,163,162,255

[TimingPoints]
2498,300,4,1,0,70,1,0
52898,-100,4,1,0,70,0,1
72098,-100,4,1,0,70,0,0

[Colours]
Combo1 : 40,148,255
Combo2 : 20,96,222
Combo3 : 184,225,237
Combo4 : 87,197,255

[HitObjects]
256,192,2498,12,4,8198
480,80,8498,5,0
480,80,8648,5,0
480,80,8798,1,2
480,80,8948,1,2
480,80,9098,1,0
480,80,9248,1,2
480,80,9323,1,0
480,80,9398,1,0
480,80,9548,1,2
480,80,9698,1,0
480,80,9848,1,2
480,80,9998,1,2
480,80,10148,1,0
480,80,10298,1,2
480,80,10373,1,0
480,80,10448,1,0
480,80,10523,1,0
480,80,10598,1,0
480,80,10748,1,2
480,80,10898,1,0
480,80,11048,1,2
480,80,11123,1,2
480,80,11198,1,2
480,80,11348,1,0
480,80,11498,1,2
480,80,11648,1,2
480,80,11798,1,0
480,80,11948,1,2
480,80,12098,1,0
480,80,12173,1,0
480,80,12248,1,0
480,80,12323,1,0
480,80,12398,1,0
480,80,12548,1,0
480,80,12623,1,0
480,80,12698,1,2
480,80,12848,1,2
480,80,12923,1,2
480,80,12998,1,2
480,80,13073,1,2
480,80,13148,1,2
480,80,13223,1,2
480,80,13298,1,2
480,80,13448,1,0
480,80,13523,1,0
480,80,13598,1,0
480,80,13673,1,0
480,80,13748,1,0
480,80,13823,1,0
480,80,13898,1,2
480,80,13973,1,0
480,80,14048,1,0
480,80,14123,1,0
480,80,14198,1,2
480,80,14273,1,0
480,80,14348,1,0
480,80,14423,1,0
480,80,14498,1,2
480,80,14648,1,0
480,80,14798,1,0
480,80,14948,1,2
480,80,15098,1,0
480,80,15173,1,0
480,80,15248,1,0
480,80,15398,1,2
480,80,15548,1,2
480,80,15698,1,0
480,80,15848,1,0
480,80,15998,1,0
480,80,16148,1,2
480,80,16298,1,0
480,80,16373,1,0
480,80,16448,1,0
480,80,16598,1,2
480,80,16748,1,2
480,80,16898,1,0
480,80,17048,1,0
480,80,17198,1,0
480,80,17348,1,2
480,80,17498,1,0
480,80,17573,1,0
480,80,17648,1,2
480,80,17798,1,0
480,80,17948,1,2
480,80,18098,1,0
480,80,18248,1,0
480,80,18398,1,0
480,80,18548,1,0
480,80,18698,1,2
480,80,18773,1,0
480,80,18848,1,0
480,80,18998,1,2
480,80,19073,1,2
480,80,19148,1,2
480,80,19223,1,2
480,80,19298,1,0
480,80,19448,1,0
480,80,19598,1,0
480,80,19748,1,2
480,80,19898,1,0
480,80,19973,1,0
480,80,20048,1,0
480,80,20198,1,2
480,80,20348,1,2
480,80,20498,1,0
480,80,20648,1,0
480,80,20798,1,0
480,80,20948,1,2
480,80,21023,1,2
480,80,21098,1,0
480,80,21173,1,0
480,80,21248,1,0
480,80,21398,1,0
480,80,21473,1,0
480,80,21548,1,2
480,80,21698,1,2
480,80,21848,1,2
480,80,21998,1,0
480,80,22148,1,0
480,80,22298,1,0
480,80,22373,1,0
480,80,22448,1,2
480,80,22598,1,0
480,80,22748,1,0
480,80,22898,1,0
480,80,23048,1,0
480,80,23123,1,0
480,80,23198,1,0
480,80,23348,1,0
480,80,23498,1,2
480,80,23573,1,2
480,80,23648,1,2
480,80,23798,1,2
480,80,23873,1,2
480,80,23948,1,2
480,80,24023,1,2
480,80,24098,1,2
480,80,24248,1,0
480,80,24398,1,2
480,80,24473,1,2
480,80,24548,1,2
480,80,24623,1,2
480,80,24698,1,0
480,80,24848,1,0
480,80,24923,1,0
480,80,24998,1,2
480,80,25148,1,2
480,80,25298,1,0
480,80,25448,1,2
480,80,25598,1,2
480,80,25748,1,2
480,80,25823,1,2
480,80,25898,1,0
480,80,26048,1,0
480,80,26123,1,0
480,80,26198,1,0
480,80,26273,1,0
480,80,26348,1,2
480,80,26498,1,2
480,80,26648,1,0
480,80,26723,1,0
480,80,26798,1,2
480,80,26948,1,2
480,80,27023,1,2
480,80,27098,1,2
480,80,27173,1,2
480,80,27248,1,0
480,80,27323,1,0
480,80,27398,1,0
480,80,27548,1,0
480,80,27698,1,2
480,80,27848,1,0
480,80,27998,1,2
480,80,28148,1,0
480,80,28298,1,2
480,80,28448,1,2
480,80,28598,1,0
480,80,28673,1,0
480,80,28748,1,0
480,80,28823,1,0
480,80,28898,1,2
480,80,29048,1,2
480,80,29123,1,0
480,80,29198,1,0
480,80,29348,1,0
480,80,29498,1,2
480,80,29648,1,2
480,80,29798,1,0
480,80,29873,1,0
480,80,29948,1,0
480,80,30023,1,0
480,80,30098,1,2
480,80,30248,1,2
480,80,30323,1,0
480,80,30398,1,0
480,80,30548,1,0
480,80,30698,1,2
480,80,30848,1,2
480,80,30998,1,2
480,80,31073,1,2
480,80,31148,1,2
480,80,31223,1,2
480,80,31298,1,0
480,80,31448,1,0
480,80,31598,1,2
480,80,31748,1,0
480,80,31898,1,2
480,80,32048,1,0
480,80,32123,1,0
480,80,32198,1,2
480,80,32348,1,2
480,80,32498,1,4
480,80,32798,1,4
480,80,33098,1,4
480,80,33398,1,6
480,80,33698,1,0
480,80,33848,1,0
480,80,33923,1,0
480,80,33998,1,2
480,80,34148,1,2
480,80,34298,1,2
480,80,34448,1,2
480,80,34598,1,0
480,80,34748,1,2
480,80,34898,1,0
480,80,35048,1,2
480,80,35123,1,0
480,80,35198,1,0
480,80,35348,1,2
480,80,35498,1,2
480,80,35573,1,2
480,80,35648,1,2
480,80,35798,1,0
480,80,35948,1,2
480,80,36098,1,2
480,80,36173,1,2
480,80,36248,1,2
480,80,36323,1,2
480,80,36398,1,2
480,80,36548,1,2
480,80,36623,1,0
480,80,36698,1,0
480,80,36848,1,0
480,80,36998,1,2
480,80,37148,1,0
480,80,37298,1,2
480,80,37448,1,2
480,80,37523,1,2
480,80,37598,1,2
480,80,37748,1,0
480,80,37898,1,2
480,80,38048,1,0
480,80,38198,1,0
480,80,38273,1,0
480,80,38348,1,0
480,80,38423,1,0
480,80,38498,1,2
480,80,38648,1,2
480,80,38798,1,0
480,80,38948,1,0
480,80,39098,1,0
480,80,39173,1,0
480,80,39248,1,0
480,80,39323,1,0
480,80,39398,1,2
480,80,39548,1,0
480,80,39698,1,0
480,80,39848,1,0
480,80,39923,1,0
480,80,39998,1,2
480,80,40148,1,2
480,80,40298,1,2
480,80,40373,1,2
480,80,40448,1,2
480,80,40598,1,2
480,80,40748,1,0
480,80,40898,1,0
480,80,40973,1,0
480,80,41048,1,2
480,80,41198,1,0
480,80,41273,1,0
480,80,41348,1,2
480,80,41423,1,0
480,80,41498,1,0
480,80,41573,1,0
480,80,41648,1,2
480,80,41798,1,2
480,80,41948,1,0
480,80,42098,1,0
480,80,42248,1,2
480,80,42548,1,2
480,80,42698,1,2
480,80,42848,1,0
480,80,42998,1,2
480,80,43073,1,2
480,80,43148,1,2
480,80,43298,1,0
480,80,43448,1,2
480,80,43598,1,0
480,80,43748,1,0
480,80,43823,1,0
480,80,43898,1,2
480,80,44048,1,2
480,80,44198,1,2
480,80,44348,1,0
480,80,44498,1,2
480,80,44648,1,2
480,80,44723,1,0
480,80,44798,1,0
480,80,44873,1,0
480,80,44948,1,0
480,80,45098,1,0
480,80,45248,1,0
480,80,45398,1,2
480,80,45548,1,0
480,80,45698,1,2
480,80,45848,1,2
480,80,45923,1,2
480,80,45998,1,2
480,80,46148,1,2
480,80,46298,1,0
480,80,46448,1,0
480,80,46523,1,0
480,80,46598,1,0
480,80,46748,1,2
480,80,46898,1,2
480,80,47048,1,0
480,80,47198,1,0
480,80,47273,1,0
480,80,47348,1,2
480,80,47423,1,0
480,80,47498,1,0
480,80,47648,1,2
480,80,47798,1,0
480,80,47948,1,2
480,80,48098,1,2
480,80,48248,1,2
480,80,48398,1,0
480,80,48548,1,0
480,80,48623,1,0
480,80,48698,1,2
480,80,48848,1,0
480,80,48923,1,0
480,80,48998,1,2
480,80,49073,1,2
480,80,49148,1,2
480,80,49298,1,2
480,80,49448,1,2
480,80,49598,1,0
480,80,49748,1,2
480,80,49898,1,0
480,80,49973,1,0
480,80,50048,1,0
480,80,50123,1,0
480,80,50198,1,2
480,80,50348,1,0
480,80,50498,1,0
480,80,50648,1,0
480,80,50798,1,2
480,80,50948,1,2
480,80,51098,1,0
480,80,51248,1,2
480,80,51398,1,0
480,80,51548,1,2
480,80,51698,1,0
480,80,51773,1,0
480,80,51848,1,0
480,80,51923,1,0
480,80,51998,1,2
480,80,52073,1,0
480,80,52148,1,0
480,80,52223,1,0
480,80,52298,1,2
480,80,52448,1,0
480,80,52598,1,0
480,80,52748,1,0
480,80,52898,1,0
480,80,53048,1,2
480,80,53198,1,0
480,80,53348,1,0
480,80,53498,1,2
480,80,53648,1,0
480,80,53798,1,0
480,80,53873,1,0
480,80,53948,1,2
480,80,54023,1,2
480,80,54098,1,2
480,80,54248,1,2
480,80,54323,1,2
480,80,54398,1,2
480,80,54548,1,2
480,80,54698,1,0
480,80,54848,1,0
480,80,54998,1,0
480,80,55073,1,0
480,80,55148,1,2
480,80,55223,1,0
480,80,55298,1,0
480,80,55448,1,0
480,80,55523,1,0
480,80,55598,1,2
480,80,55748,1,0
480,80,55898,1,2
480,80,56048,1,2
480,80,56198,1,0
480,80,56348,1,0
480,80,56423,1,0
480,80,56498,1,2
480,80,56648,1,2
480,80,56723,1,2
480,80,56798,1,2
480,80,56948,1,2
480,80,57023,1,2
480,80,57098,1,2
480,80,57173,1,2
480,80,57248,1,0
480,80,57323,1,0
480,80,57398,1,0
480,80,57473,1,0
480,80,57548,1,0
480,80,57698,1,2
480,80,57848,1,0
480,80,57998,1,2
480,80,58148,1,2
480,80,58223,1,2
480,80,58298,1,2
480,80,58448,1,2
480,80,58598,1,2
480,80,58673,1,0
480,80,58748,1,0
480,80,58823,1,0
480,80,58898,1,2
480,80,59048,1,0
480,80,59198,1,2
480,80,59348,1,2
480,80,59498,1,0
480,80,59648,1,0
480,80,59798,1,0
480,80,59873,1,0
480,80,59948,1,0
480,80,60023,1,0
480,80,60098,1,2
480,80,60248,1,2
480,80,60398,1,2
480,80,60473,1,2
480,80,60548,1,2
480,80,60698,1,2
480,80,60848,1,0
480,80,60998,1,0
480,80,61073,1,0
480,80,61148,1,0
480,80,61298,1,0
480,80,61373,1,0
480,80,61448,1,2
480,80,61523,1,0
480,80,61598,1,0
480,80,61748,1,2
480,80,61823,1,0
480,80,61898,1,0
480,80,61973,1,0
480,80,62048,1,0
480,80,62198,1,0
480,80,62273,1,0
480,80,62348,1,0
480,80,62423,1,0
480,80,62498,1,0
480,80,62648,1,0
480,80,62798,1,2
480,80,62873,1,2
480,80,62948,1,0
480,80,63023,1,0
480,80,63098,1,0
480,80,63248,1,0
480,80,63398,1,0
480,80,63473,1,0
480,80,63548,1,0
480,80,63623,1,0
480,80,63698,1,2
480,80,63848,1,2
480,80,63923,1,2
480,80,63998,1,2
480,80,64148,1,0
480,80,64298,1,2
480,80,64448,1,0
480,80,64598,1,0
480,80,64673,1,0
480,80,64748,1,2
480,80,64823,1,2
480,80,64898,1,0
480,80,65048,1,0
480,80,65198,1,2
480,80,65348,1,2
480,80,65423,1,0
480,80,65498,1,0
480,80,65648,1,0
480,80,65723,1,0
480,80,65798,1,0
480,80,65873,1,0
480,80,65948,1,2
480,80,66023,1,2
480,80,66098,1,2
480,80,66248,1,2
480,80,66323,1,2
480,80,66398,1,0
480,80,66548,1,0
480,80,66698,1,2
480,80,66848,1,0
480,80,66923,1,0
480,80,66998,1,2
480,80,67148,1,0
480,80,67298,1,0
480,80,67448,1,0
480,80,67523,1,0
480,80,67598,1,2
480,80,67748,1,2
480,80,67898,1,2
480,80,68048,1,2
480,80,68198,1,0
480,80,68273,1,0
480,80,68348,1,0
480,80,68423,1,0
480,80,68498,1,2
480,80,68648,1,2
480,80,68723,1,0
480,80,68798,1,0
480,80,68873,1,0
480,80,68948,1,2
480,80,69098,1,0
480,80,69248,1,2
480,80,69398,1,0
480,80,69473,1,0
480,80,69548,1,2
480,80,69623,1,0
480,80,69698,1,0
480,80,69848,1,2
480,80,69998,1,2
480,80,70073,1,2
480,80,70148,1,2
480,80,70298,1,0
480,80,70448,1,2
480,80,70598,1,0
480,80,70673,1,0
480,80,70748,1,0
480,80,70898,1,2
480,80,71048,1,0
480,80,71123,1,0
480,80,71198,1,0
480,80,71273,1,0
480,80,71348,1,2
480,80,71423,1,2
480,80,71498,1,2
480,80,71573,1,2
480,80,71648,1,2
480,80,71798,1,0
480,80,71873,1,0
480,80,71948,1,0
480,80,72098,1,0
480,80,72248,1,2
480,80,72398,1,0
480,80,72548,1,0
480,80,72623,1,0
480,80,72698,1,0
480,80,72848,1,0
480,80,72998,1,2
480,80,73073,1,2
480,80,73148,1,2
480,80,73223,1,2
480,80,73298,1,2
480,80,73448,1,0
480,80,73598,1,2
480,80,73673,1,0
480,80,73748,1,0
480,80,73823,1,0
480,80,73898,1,0
480,80,74048,1,0
480,80,74123,1,0
480,80,74198,1,2
480,80,74348,1,0
480,80,74498,1,0
480,80,74648,1,2
480,80,74798,1,2
480,80,74948,1,0
480,80,75023,1,0
480,80,75098,1,0
480,80,75248,1,0
480,80,75398,1,0
480,80,75473,1,0
480,80,75548,1,2
480,80,75623,1,2
480,80,75698,1,2
480,80,75848,1,0
480,80,75998,1,2
480,80,76073,1,0
480,80,76148,1,0
480,80,76223,1,0
480,80,76298,1,0
480,80,76448,1,0
480,80,76598,1,2
480,80,76748,1,0
480,80,76898,1,2
480,80,77048,1,2
480,80,77123,1,2
480,80,77198,1,2
480,80,77348,1,2
480,80,77498,1,0
480,80,77648,1,0
480,80,77723,1,0
480,80,77798,1,0
480,80,77873,1,0
480,80,77948,1,0
480,80,78023,1,0
480,80,78098,1,2
480,80,78248,1,2
480,80,78398,1,2
480,80,78473,1,0
480,80,78548,1,0
480,80,78623,1,0
480,80,78698,1,0
480,80,78848,1,0
480,80,78998,1,2
480,80,79148,1,0
480,80,79298,1,0
480,80,79448,1,0
480,80,79598,1,2
480,80,79748,1,2
480,80,79898,1,0
480,80,80048,1,2
480,80,80198,1,0
480,80,80348,1,2
480,80,80498,1,0
480,80,80648,1,2
480,80,80723,1,2
480,80,80798,1,2
480,80,80948,1,0
480,80,81098,1,2
480,80,81248,1,0
480,80,81398,1,2
480,80,81473,1,2
480,80,81548,1,2
480,80,81623,1,2
480,80,81698,1,2
480,88,84098,1,0
480,88,85298,1,2
480,88,86498,1,0
480,88,87698,1,2
480,88,88298,1,0
480,88,88598,1,2
480,88,88898,1,2
480,88,89048,1,2
480,88,89198,1,0
480,88,89348,1,2
480,88,89498,1,0
480,88,89648,1,0
480,88,89798,1,2
480,88,89948,1,2
480,88,90098,1,2
480,88,90173,1,2
480,88,90248,1,2
480,88,90323,1,2
480,88,90398,1,0
480,88,90473,1,0
480,88,90548,1,0
480,88,90698,1,0
480,88,90773,1,0
480,88,90848,1,2
480,88,90923,1,0
480,88,90998,1,0
480,88,91073,1,0
480,88,91148,1,0
480,88,91298,1,2
480,88,91373,1,0
480,88,91448,1,0
480,88,91523,1,0
480,88,91598,1,2
480,88,91673,1,0
480,88,91748,1,0
480,88,91898,1,0
480,88,91973,1,0
480,88,92048,1,2
480,88,92123,1,0
480,88,92198,1,0
480,88,92273,1,0
480,88,92348,1,0
480,88,92498,1,0
480,88,92573,1,0
480,88,92648,1,2
480,88,92723,1,0
480,88,92798,1,0
480,88,92948,1,2
480,88,93098,1,2
480,88,93173,1,2
480,88,93248,1,0
480,88,93323,1,0
480,88,93398,1,0
480,88,93548,1,2
480,88,93698,1,0
480,88,93773,1,0
480,88,93848,1,0
480,88,93998,1,0
480,88,94073,1,0
480,88,94148,1,0
480,88,94298,1,0
480,88,94373,1,0
480,88,94448,1,2
480,88,94598,1,0
480,88,94673,1,0
480,88,94748,1,2
480,88,94898,1,2
480,88,94973,1,2
480,88,95048,1,2
480,88,95198,1,2
480,88,95348,1,2
480,88,95423,1,2
480,88,95498,1,2
480,88,95573,1,2
480,88,95648,1,2
480,88,95798,1,0
480,88,95873,1,0
480,88,95948,1,0
480,88,96023,1,0
480,88,96098,1,0
480,88,96698,1,2
480,88,96773,1,2
480,88,96848,1,2
480,88,96923,1,2
480,88,96998,1,2
480,88,97148,1,0
480,88,97223,1,2
480,88,97598,1,4
