osu file format v9

[General]
AudioFilename: Snow Goose [jubeat].mp3
AudioLeadIn: 0
PreviewTime: 52732
Countdown: 0
SampleSet: Normal
StackLeniency: 0.7
Mode: 0
LetterboxInBreaks: 1

[Editor]
DistanceSpacing: 0.8
BeatDivisor: 2
GridSize: 8

[Metadata]
Title:Snow Goose
Artist:Mutsuhiko Izumi
Creator:wmfchris
Version:Hard
Source:jubeat
Tags:Saturio ignorethis eggpain

[Difficulty]
HPDrainRate:5
CircleSize:4
OverallDifficulty:6
ApproachRate:6
SliderMultiplier:1.2
SliderTickRate:1

[Events]
//Background and Video events
0,0,"snow.jpg"
//Break Periods
//Storyboard Layer 0 (Background)
//Storyboard Layer 1 (Fail)
//Storyboard Layer 2 (Pass)
//Storyboard Layer 3 (Foreground)
//Storyboard Sound Samples
//Background Colour Transformations
3,100,163,162,255

[TimingPoints]
2498,300,4,1,1,70,1,0
52898,-100,4,1,1,70,0,1
72098,-100,4,1,1,70,0,0

[Colours]
Combo1 : 40,148,255
Combo2 : 20,96,222
Combo3 : 184,225,237
Combo4 : 87,197,255

[HitObjects]
256,192,2498,12,4,8498
256,192,9098,5,8
64,192,9698,2,0,B|64:336,2,120,0|0|8
200,64,10898,5,0
272,128,11198,1,0
344,64,11498,1,8
464,216,12098,6,0,B|448:296|368:312,1,120,0|8
344,304,12548,2,0,B|256:304,4,60,8|0|8|8|0
344,256,13298,2,0,B|344:48,2,180,0|0|0
248,264,14498,6,0,B|248:176,2,60
248,264,14948,1,4
104,264,15398,1,8
104,168,15698,6,0,B|208:168,2,60
104,168,16148,1,4
104,24,16598,1,8
200,24,16898,6,0,B|200:128,2,60
200,24,17348,1,4
344,24,17798,1,8
440,24,18098,6,0,B|440:128,1,60
400,112,18398,2,0,B|304:152,1,60
344,184,18698,2,0,B|344:240,8,30
440,176,19598,6,0,B|440:264,1,60,0|8
352,272,20048,2,0,B|264:336,1,60
256,312,20348,2,0,B|144:312,1,60
104,312,20798,6,0,B|104:208,1,60,0|8
104,160,21248,1,0
72,120,21398,1,0
112,88,21548,1,0
144,128,21698,1,0
240,128,21998,6,0,B|344:128,1,60,0|8
392,128,22448,1,0
424,88,22598,1,0
464,120,22748,1,0
432,160,22898,5,0
432,256,23198,1,8
360,320,23498,2,0,B|248:320,4,60,0|0|8|8|4
216,320,24548,5,0
288,192,24998,1,0
192,192,25298,2,0,B|96:192|72:128|64:40,2,180,0|0|0
192,144,26348,1,0
192,96,26498,6,0,B|424:96,2,180
272,144,27698,1,0
368,144,27998,1,8
368,240,28298,1,0
272,240,28598,2,0,B|160:240,2,60,8|8|0
256,96,29348,5,0
352,200,29798,1,0
256,200,30098,1,0
112,200,30548,1,0
208,304,30998,1,0
304,304,31298,6,0,B|472:304,1,120,0|8
424,256,31748,2,0,B|424:152,1,60
424,152,32048,1,8
424,104,32198,2,0,B|248:104,1,120,8|0
208,104,32798,2,0,B|48:104,3,120,0|0|0|4
56,240,34148,6,0,B|104:288|176:288|240:224,1,180
224,152,34898,2,0,B|288:112|352:104|416:112|496:176,1,240
448,240,35798,2,0,B|448:352,2,60,0|0|0
304,240,36548,2,0,B|192:240,1,60
152,240,36998,1,2
232,184,37298,6,0,B|80:184,2,120,8|0|8
232,88,38198,2,0,B|232:40,4,30,0|0|0|0|8
328,88,38798,2,0,B|416:88,1,60,0|2
464,152,39248,2,0,B|368:152,1,60,0|2
408,248,39698,5,8
328,296,39998,1,0
248,248,40298,1,8
328,200,40598,1,8
328,104,40898,6,0,L|144:104|144:336,1,360
216,216,42098,2,0,L|216:280|400:280|400:104|296:104,1,480
200,104,43748,5,0
200,200,44048,2,0,L|200:312,3,60,0|0|0|8
280,200,44798,2,0,L|336:200,4,30,0|2|0|2|8
376,200,45398,1,8
376,296,45698,5,0
328,296,45848,1,0
232,296,46148,1,8
136,296,46448,2,0,L|32:296,3,60,0|0|0|4
80,200,47198,2,0,B|40:120|112:48,3,120,8|0|8|0
224,72,48548,5,0
320,72,48848,1,0
368,72,48998,1,0
344,112,49148,1,0
344,160,49298,1,8
344,256,49598,2,0,B|176:256,1,120,0|8
128,256,50198,1,0
128,160,50498,6,0,B|24:160,7,60,2|0|2|0|2|0|2|0
128,160,51698,2,0,B|184:160,13,30
128,96,52898,5,6
224,96,53198,2,0,B|224:200,3,60
272,152,53798,1,2
280,152,53873,1,0
288,152,53948,1,0
296,152,54023,1,0
304,152,54098,1,2
400,152,54398,6,0,B|488:152,3,60
456,200,54998,1,2
456,208,55073,1,0
456,216,55148,1,0
456,224,55223,1,0
456,232,55298,1,0
408,312,55598,6,0,B|320:312,1,60,8|0
300,312,55898,2,0,B|212:312,1,60
192,312,56198,2,0,B|88:312,2,60
192,264,56648,1,8
192,216,56798,2,0,B|288:216,2,60
192,168,57248,1,8
208,120,57398,2,0,B|296:40,1,60,8|8
296,64,57698,5,4
360,136,57998,2,0,B|464:136,1,60,8|0
392,176,58298,2,0,B|480:240,1,60
392,224,58598,2,0,B|392:336,1,60,8|0
344,288,58898,5,4
248,288,59198,2,0,B|144:288,1,60,8|0
216,248,59498,2,0,B|128:184,1,60
216,200,59798,2,0,B|216:88,1,60,8|0
264,136,60098,5,4
168,136,60398,1,8
168,232,60698,1,0
128,264,60848,1,0
168,296,60998,1,8
208,264,61148,1,8
256,192,61298,12,4,62498
144,96,62798,5,0
64,152,63098,1,0
64,248,63398,2,0,B|64:360,2,60,2|2|2
144,192,63998,1,0
224,248,64298,1,0
320,248,64598,2,0,B|320:352,2,60,2|2|2
416,248,65198,6,0,B|416:144,1,60,8|0
416,144,65498,2,0,B|416:40,1,60,8|0
416,40,65798,2,0,B|472:40,4,30
368,40,66248,1,8
320,40,66398,2,0,B|248:40|184:72|184:72,3,120
320,136,67598,6,0,B|216:136,1,60
320,136,67898,2,0,B|424:136,1,60
320,136,68198,2,0,B|320:240,1,60
320,248,68498,2,0,B|248:304|176:216,1,120
160,248,68948,5,0
112,240,69098,2,0,B|24:168,1,60
64,152,69398,1,0
64,104,69548,1,0
112,104,69698,5,2
208,104,69998,1,0
304,104,70298,1,2
280,144,70448,1,2
320,168,70598,1,2
344,128,70748,1,2
256,192,70898,12,4,72098
408,192,72548,5,8
312,200,72848,2,0,L|312:312,3,60
232,200,73598,2,0,L|176:200,4,30
136,200,74198,1,0
136,296,74498,5,0
184,296,74648,1,0
280,296,74948,1,8
376,296,75248,2,0,L|480:296,3,60,0|0|0|0
432,200,75998,2,0,B|472:120|400:48,3,120,0|0|0|4
288,88,77348,5,8
192,88,77648,2,0,B|192:192,3,60
120,88,78398,2,0,B|56:184|136:288,2,180,0|0|2
192,152,79598,1,0
264,216,79898,1,2
336,280,80198,1,0
432,280,80498,5,2
432,280,80648,1,2
456,240,80798,1,0
456,240,80948,1,0
456,192,81098,2,0,B|456:136,8,30,0|0|0|0|0|0|0|0|2
256,184,84098,6,0,B|376:184|480:40,1,240
360,72,84998,1,8
264,72,85298,6,0,B|144:72|40:216,1,240
160,192,86198,1,8
160,288,86498,6,0,B|232:328|320:256,1,120
272,192,87098,2,0,B|352:144|416:224,1,120,0|8
392,96,87698,5,0
296,104,87998,2,0,B|192:104,1,60
264,144,88298,2,0,B|176:208,1,60
264,192,88598,2,8,B|264:304,1,60
256,192,88898,12,4,90098
56,72,90398,6,0,B|56:240,1,120
152,192,90998,1,2
248,192,91298,2,0,B|248:16,1,120
296,72,91748,1,2
344,72,91898,2,0,B|344:240,1,120
440,192,92498,6,0,B|440:368,1,120
392,312,92948,1,2
344,312,93098,2,0,B|208:312,1,120,0|2
176,312,93548,2,0,B|72:312,1,60,0|4
24,312,93998,1,8
40,216,94298,2,0,B|144:216,1,60
96,168,94598,2,0,B|208:168,1,60
208,168,94898,6,0,B|208:112,7,30
208,168,95498,2,0,B|208:224,8,30
400,168,96698,6,0,B|456:168,4,30
352,168,97148,2,2,B|296:168,1,30
352,288,97598,1,4
