osu file format v13

[General]
AudioFilename: Mutsuhiko Izumi - Snow Goose.mp3
AudioLeadIn: 0
PreviewTime: 52887
Countdown: 0
SampleSet: Normal
StackLeniency: 0.7
Mode: 2
LetterboxInBreaks: 0
WidescreenStoryboard: 0

[Editor]
DistanceSpacing: 1.1
BeatDivisor: 4
GridSize: 8
TimelineZoom: 2.4

[Metadata]
Title:Snow Goose
TitleUnicode:Snow Goose
Artist:Mutsuhiko Izumi
ArtistUnicode:泉 陸奥彦
Creator:ZiRoX
Version:Rain
Source:jubeat
Tags:
BeatmapID:371597
BeatmapSetID:150615

[Difficulty]
HPDrainRate:6.5
CircleSize:4
OverallDifficulty:9
ApproachRate:9
SliderMultiplier:1.9
SliderTickRate:1

[Events]
//Background and Video events
0,0,"bg.jpg",0,0
//Break Periods
//Storyboard Layer 0 (Background)
//Storyboard Layer 1 (Fail)
//Storyboard Layer 2 (Pass)
//Storyboard Layer 3 (Foreground)
//Storyboard Sound Samples
//Background Colour Transformations
3,100,163,162,255

[TimingPoints]
2562,300,4,2,1,50,1,0
6162,-100,4,2,0,25,0,0
7362,-100,4,1,1,25,0,0
7662,-100,4,1,1,30,0,0
7962,-100,4,1,1,36,0,0
8262,-100,4,1,1,43,0,0
8562,-100,4,1,1,50,0,0
23037,-100,4,2,0,50,0,0
23262,-100,4,1,1,50,0,0
23337,-100,4,2,0,50,0,0
23562,-100,4,1,1,50,0,0
23637,-100,4,2,0,50,0,0
23862,-100,4,1,1,50,0,0
23937,-100,4,2,0,50,0,0
24162,-100,4,1,1,50,0,0
52962,-100,4,1,1,60,0,1
56562,-100,4,1,1,60,0,1
56637,-100,4,2,0,60,0,1
56862,-100,4,1,1,60,0,1
56937,-100,4,2,0,60,0,1
57162,-100,4,1,1,60,0,1
57237,-100,4,2,0,60,0,1
57462,-100,4,1,1,60,0,1
57537,-100,4,2,0,60,0,1
57762,-100,4,1,1,60,0,1
61437,-100,4,2,0,50,0,0
61662,-100,4,1,1,50,0,0
61737,-100,4,2,0,50,0,0
61962,-100,4,1,1,50,0,0
62037,-100,4,2,0,50,0,0
62262,-100,4,1,1,50,0,0
62337,-100,4,2,0,50,0,0
62562,-100,4,1,1,60,0,1
62637,-100,4,2,0,60,0,1
62862,-100,4,1,1,60,0,1
62937,-100,4,2,0,60,0,1
63162,-100,4,1,1,60,0,1
63237,-100,4,2,0,60,0,1
63462,-100,4,1,1,60,0,1
63537,-100,4,2,0,60,0,1
63762,-100,4,1,1,60,0,1
63837,-100,4,2,0,60,0,1
64062,-100,4,1,1,60,0,1
64137,-100,4,2,0,60,0,1
64362,-100,4,1,1,60,0,1
64437,-100,4,2,0,60,0,1
64662,-100,4,1,1,60,0,1
64737,-100,4,2,0,60,0,1
64962,-100,4,1,1,60,0,1
65037,-100,4,2,0,60,0,1
65262,-100,4,1,1,60,0,1
65337,-100,4,2,0,60,0,1
65562,-100,4,1,1,60,0,1
65637,-100,4,2,0,60,0,1
65862,-100,4,1,1,60,0,1
65937,-100,4,2,0,60,0,1
66162,-100,4,1,1,60,0,1
66237,-100,4,2,0,60,0,1
66462,-100,4,1,1,60,0,1
66537,-100,4,2,0,60,0,1
66762,-100,4,1,1,60,0,1
66837,-100,4,2,0,60,0,1
67062,-100,4,1,1,60,0,1
67137,-100,4,2,0,60,0,1
67362,-100,4,1,1,60,0,1
67437,-100,4,2,0,60,0,1
67662,-100,4,1,1,60,0,1
67737,-100,4,2,0,60,0,1
67962,-100,4,1,1,60,0,1
68037,-100,4,2,0,60,0,1
68262,-100,4,1,1,60,0,1
68337,-100,4,2,0,60,0,1
68562,-100,4,1,1,60,0,1
68637,-100,4,2,0,60,0,1
68862,-100,4,1,1,60,0,1
68937,-100,4,2,0,60,0,1
69162,-100,4,1,1,60,0,1
69237,-100,4,2,0,60,0,1
69462,-100,4,1,1,60,0,1
69537,-100,4,2,0,60,0,1
69762,-100,4,1,1,60,0,1
69837,-100,4,2,0,60,0,1
70062,-100,4,1,1,60,0,1
70137,-100,4,2,0,60,0,1
70362,-100,4,1,1,60,0,1
70437,-100,4,2,0,60,0,1
70662,-100,4,1,1,60,0,1
70737,-100,4,2,0,60,0,1
70962,-100,4,1,1,60,0,1
71037,-100,4,2,0,60,0,1
71262,-100,4,1,1,60,0,1
71337,-100,4,2,0,60,0,1
71562,-100,4,1,1,60,0,1
71637,-100,4,2,0,60,0,1
71862,-100,4,1,1,60,0,1
71937,-100,4,2,0,60,0,1
72162,-100,4,1,1,50,0,0
80262,-100,4,1,1,55,0,0
80562,-100,4,1,1,60,0,0
81462,-100,4,1,1,65,0,0
82962,-100,4,2,0,15,0,0
84162,-100,4,1,1,35,0,0
87762,-100,4,1,1,50,0,0
90162,-100,4,1,1,60,0,1
90237,-100,4,2,0,60,0,1
90462,-100,4,1,1,60,0,1
90537,-100,4,2,0,60,0,1
90762,-100,4,1,1,60,0,1
90837,-100,4,2,0,60,0,1
91062,-100,4,1,1,60,0,1
91137,-100,4,2,0,60,0,1
91362,-100,4,1,1,60,0,1
91437,-100,4,2,0,60,0,1
91662,-100,4,1,1,60,0,1
91737,-100,4,2,0,60,0,1
91962,-100,4,1,1,60,0,1
92037,-100,4,2,0,60,0,1
92262,-100,4,1,1,60,0,1
92337,-100,4,2,0,60,0,1
92562,-100,4,1,1,60,0,1
92637,-100,4,2,0,60,0,1
92862,-100,4,1,1,60,0,1
92937,-100,4,2,0,60,0,1
93162,-100,4,1,1,60,0,1
93237,-100,4,2,0,60,0,1
93462,-100,4,1,1,60,0,1
93537,-100,4,2,0,60,0,1
93762,-100,4,1,1,60,0,1
93837,-100,4,2,0,60,0,1
94062,-100,4,1,1,60,0,1
94137,-100,4,2,0,60,0,1
94362,-100,4,1,1,60,0,1
94437,-100,4,2,0,60,0,1
94662,-100,4,1,1,60,0,1
94737,-100,4,2,0,60,0,1
94962,-100,4,1,1,60,0,1
95037,-100,4,2,0,60,0,1
95262,-100,4,1,1,60,0,1
95337,-100,4,2,0,60,0,1
95562,-100,4,1,1,60,0,1
95637,-100,4,2,0,60,0,1
95862,-100,4,1,1,60,0,1
95937,-100,4,2,0,60,0,1
96162,-100,4,1,1,50,0,0

[Colours]
Combo1 : 40,148,255
Combo2 : 20,96,222
Combo3 : 184,225,237
Combo4 : 87,197,255

[HitObjects]
424,288,2562,6,0,L|376:176,1,95,2|0,0:0|0:0,0:0:0:0:
248,192,2862,2,0,L|296:80,1,95
424,40,3162,1,0,0:0:0:0:
296,288,3462,6,0,L|352:288,2,47.5,2|0|0,0:0|0:0|0:0,0:0:0:0:
200,288,3762,1,0,0:0:0:0:
104,232,3912,2,0,L|184:152,1,95
272,232,4212,2,0,L|192:152,1,95
312,56,4662,6,0,L|362:56,2,47.5,2|0|0,0:0|0:0|0:0,0:0:0:0:
176,80,4962,2,0,L|296:144,1,95
416,128,5262,2,0,L|296:176,1,95
176,272,5562,1,0,0:0:0:0:
384,160,5862,6,0,L|456:160,2,47.5,2|0|0,0:0|0:0|0:0,0:0:0:0:
280,160,6162,1,6,0:0:0:0:
216,160,6237,1,0,0:0:0:0:
152,160,6312,1,0,0:0:0:0:
88,160,6387,1,0,0:0:0:0:
24,232,6462,1,8,0:0:0:0:
88,232,6537,1,0,0:0:0:0:
152,232,6612,1,0,0:0:0:0:
216,232,6687,1,0,0:0:0:0:
264,288,6762,5,6,0:0:0:0:
328,288,6837,1,0,0:0:0:0:
384,288,6912,1,0,0:0:0:0:
440,288,6987,1,0,0:0:0:0:
496,224,7062,1,8,0:0:0:0:
432,224,7137,1,0,0:0:0:0:
368,224,7212,1,0,0:0:0:0:
304,224,7287,1,0,0:0:0:0:
256,200,7362,6,0,L|216:136,3,47.5,6|0|0|0,0:0|0:0|0:0|0:0,0:0:0:0:
328,152,7662,6,0,L|352:80,3,47.5,8|0|0|0,0:0|0:0|0:0|0:0,0:0:0:0:
200,120,7962,6,0,L|168:64,3,47.5,6|0|0|0,0:0|0:0|0:0|0:0,0:0:0:0:
352,88,8262,6,0,L|376:8,3,47.5,8|0|0|0,0:0|0:0|0:0|0:0,0:0:0:0:
336,40,8562,6,0,L|416:104,1,95,4|0,0:0|0:0,0:0:0:0:
504,176,8862,2,0,L|400:208,1,95,8|0,0:0|0:0,0:0:0:0:
304,192,9162,1,2,0:0:0:0:
176,216,9312,1,0,0:0:0:0:
368,312,9462,1,8,0:0:0:0:
120,128,9762,6,0,L|208:208,1,95,2|0,0:0|0:0,0:0:0:0:
344,88,10062,1,0,0:0:0:0:
488,88,10212,1,0,0:0:0:0:
344,176,10362,2,0,L|384:264,1,95,2|0,0:0|0:0,0:0:0:0:
136,280,10662,1,8,0:0:0:0:
384,96,10962,6,0,L|466:48,2,95,2|0|8,0:0|0:0|0:0,0:0:0:0:
232,96,11412,2,0,L|314:47,1,95,0|2,0:0|0:0,0:0:0:0:
152,248,11862,6,0,P|216:304|272:232,1,190,8|2,0:0|0:0,0:0:0:0:
464,224,12462,2,0,P|392:168|340:241,1,190,8|2,0:0|0:0,0:0:0:0:
80,224,13062,2,0,P|128:168|204:241,1,190,8|2,0:0|0:0,0:0:0:0:
128,152,13512,1,0,0:0:0:0:
248,152,13662,1,8,0:0:0:0:
96,152,13812,1,0,0:0:0:0:
248,152,13962,1,2,0:0:0:0:
400,152,14112,1,0,0:0:0:0:
248,152,14262,1,8,0:0:0:0:
360,152,14412,1,0,0:0:0:0:
464,304,14562,5,2,0:0:0:0:
256,304,14712,1,0,0:0:0:0:
48,304,14862,1,8,0:0:0:0:
128,200,15012,2,0,L|352:8,1,285,0|8,0:0|0:0,0:0:0:0:
48,304,15762,5,2,0:0:0:0:
256,304,15912,1,0,0:0:0:0:
464,304,16062,1,8,0:0:0:0:
384,200,16212,2,0,L|152:0,1,285,0|8,0:0|0:0,0:0:0:0:
256,304,16962,5,2,0:0:0:0:
368,304,17112,1,0,0:0:0:0:
120,304,17262,1,8,0:0:0:0:
256,192,17412,12,0,17862,0:0:0:0:
256,192,18162,5,2,0:0:0:0:
392,192,18312,1,0,0:0:0:0:
256,192,18462,1,8,0:0:0:0:
120,192,18612,1,0,0:0:0:0:
256,192,18762,1,2,0:0:0:0:
328,192,18837,1,0,0:0:0:0:
392,192,18912,1,0,0:0:0:0:
328,192,18987,1,0,0:0:0:0:
256,192,19062,1,8,0:0:0:0:
184,192,19137,1,0,0:0:0:0:
120,192,19212,1,0,0:0:0:0:
184,192,19287,1,0,0:0:0:0:
416,304,19362,5,2,0:0:0:0:
296,304,19512,1,0,0:0:0:0:
416,304,19662,1,8,0:0:0:0:
208,192,19812,2,0,B|32:112|32:112|136:48,1,285,0|8,0:0|0:0,0:0:0:0:
96,304,20562,5,2,0:0:0:0:
248,304,20712,1,0,0:0:0:0:
96,304,20862,1,8,0:0:0:0:
304,192,21012,2,0,B|480:112|480:112|376:48,1,285,0|8,0:0|0:0,0:0:0:0:
256,304,21762,5,2,0:0:0:0:
144,304,21912,1,0,0:0:0:0:
392,304,22062,1,8,0:0:0:0:
256,192,22212,12,0,22662,0:0:0:0:
112,312,22962,5,6,0:0:0:0:
88,272,23037,1,0,0:0:0:0:
64,232,23112,1,0,0:0:0:0:
48,192,23187,1,0,0:0:0:0:
104,200,23262,1,8,0:0:0:0:
88,160,23337,1,0,0:0:0:0:
72,120,23412,1,0,0:0:0:0:
56,80,23487,1,0,0:0:0:0:
120,48,23562,6,0,L|136:104,1,47.5,6|0,0:0|0:0,0:0:0:0:
208,112,23712,2,0,L|232:176,1,47.5
296,160,23862,2,0,L|312:224,1,47.5,8|0,0:0|0:0,0:0:0:0:
384,224,24012,2,0,L|400:288,1,47.5
464,224,24162,6,0,P|471:301|368:328,1,190,2|8,0:0|0:0,0:0:0:0:
48,224,24612,2,0,P|42:301|144:328,1,190,0|0,0:0|0:0,0:0:0:0:
216,312,25062,2,0,L|336:288,1,95,8|0,0:0|0:0,0:0:0:0:
168,240,25362,6,0,L|264:184,1,95,2|0,0:0|0:0,0:0:0:0:
112,184,25662,2,0,L|184:104,1,95,8|0,0:0|0:0,0:0:0:0:
344,184,25962,2,0,L|272:104,1,95,2|0,0:0|0:0,0:0:0:0:
104,40,26262,2,0,L|176:120,1,95,8|0,0:0|0:0,0:0:0:0:
192,320,26562,6,0,L|72:160,1,190,2|8,0:0|0:0,0:0:0:0:
320,320,27012,2,0,L|448:144,1,190
216,312,27462,2,0,L|280:224,1,95,8|0,0:0|0:0,0:0:0:0:
136,208,27762,6,0,L|96:104,1,95,2|0,0:0|0:0,0:0:0:0:
304,112,28062,2,0,L|265:204,1,95,8|0,0:0|0:0,0:0:0:0:
112,208,28362,2,0,L|152:120,1,95,2|0,0:0|0:0,0:0:0:0:
312,120,28662,2,0,L|352:240,1,95,8|0,0:0|0:0,0:0:0:0:
64,224,28962,6,0,L|224:328,1,190,2|8,0:0|0:0,0:0:0:0:
336,328,29412,2,0,L|168:216,1,190
432,176,29862,1,8,0:0:0:0:
222,329,30162,6,0,L|64:224,1,190,2|8,0:0|0:0,0:0:0:0:
176,224,30612,2,0,L|344:336,1,190
80,176,31062,1,8,0:0:0:0:
216,192,31362,5,2,0:0:0:0:
280,120,31512,1,0,0:0:0:0:
136,192,31662,1,8,0:0:0:0:
72,120,31812,1,0,0:0:0:0:
216,192,31962,1,2,0:0:0:0:
296,128,32112,1,0,0:0:0:0:
136,192,32262,1,8,0:0:0:0:
56,128,32412,1,0,0:0:0:0:
376,192,32562,5,2,0:0:0:0:
440,120,32712,1,0,0:0:0:0:
296,192,32862,1,8,0:0:0:0:
232,120,33012,1,0,0:0:0:0:
376,192,33162,1,2,0:0:0:0:
456,128,33312,1,0,0:0:0:0:
296,192,33462,1,8,0:0:0:0:
216,128,33612,1,0,0:0:0:0:
400,208,33762,6,0,P|438:292|358:340,1,190,2|8,0:0|0:0,0:0:0:0:
112,176,34212,2,0,P|74:92|154:44,1,190,2|0,0:0|0:0,0:0:0:0:
304,48,34662,2,0,L|400:64,1,95,8|0,0:0|0:0,0:0:0:0:
512,120,34962,2,0,L|408:144,1,95,2|0,0:0|0:0,0:0:0:0:
272,192,35262,2,0,L|376:216,1,95,8|0,0:0|0:0,0:0:0:0:
512,264,35562,2,0,L|408:288,1,95,2|0,0:0|0:0,0:0:0:0:
240,328,35862,2,0,L|336:304,1,95,8|0,0:0|0:0,0:0:0:0:
512,264,36162,6,0,L|328:144,1,190,2|8,0:0|0:0,0:0:0:0:
0,264,36612,2,0,L|184:144,1,190
256,96,37062,1,8,0:0:0:0:
432,240,37362,2,0,L|464:136,1,95,2|0,0:0|0:0,0:0:0:0:
288,136,37662,2,0,L|328:248,1,95,8|0,0:0|0:0,0:0:0:0:
144,232,37962,2,0,L|184:104,1,95,2|0,0:0|0:0,0:0:0:0:
256,128,38262,2,0,L|164:107,1,95,8|0,0:0|0:0,0:0:0:0:
440,96,38562,6,0,P|492:186|360:328,1,285,2|0,0:0|0:0,0:0:0:0:
256,128,39462,2,0,L|348:107,1,95,8|0,0:0|0:0,0:0:0:0:
72,96,39762,2,0,P|20:186|152:328,1,285,2|0,0:0|0:0,0:0:0:0:
320,80,40662,1,8,0:0:0:0:
256,192,40962,12,0,42762,0:0:0:0:
216,192,43362,5,2,0:0:0:0:
0,192,43512,1,0,0:0:0:0:
248,112,43812,1,0,0:0:0:0:
360,120,44112,2,0,L|312:208,1,95,0|8,0:0|0:0,0:0:0:0:
144,320,44412,2,0,L|272:344,1,95,0|2,0:0|0:0,0:0:0:0:
496,352,44862,1,8,0:0:0:0:
256,224,45162,1,2,0:0:0:0:
480,152,45462,1,8,0:0:0:0:
296,192,45762,5,2,0:0:0:0:
512,192,45912,1,0,0:0:0:0:
264,112,46212,1,0,0:0:0:0:
152,120,46512,2,0,L|200:208,1,95,0|8,0:0|0:0,0:0:0:0:
368,320,46812,2,0,L|240:344,1,95,0|2,0:0|0:0,0:0:0:0:
16,352,47262,1,8,0:0:0:0:
256,224,47562,1,2,0:0:0:0:
32,152,47862,1,8,0:0:0:0:
168,192,48162,5,2,0:0:0:0:
384,192,48312,1,0,0:0:0:0:
256,104,48612,1,0,0:0:0:0:
176,192,48912,2,0,L|176:80,1,95,0|8,0:0|0:0,0:0:0:0:
344,192,49212,2,0,L|344:96,1,95,0|2,0:0|0:0,0:0:0:0:
128,80,49662,1,8,0:0:0:0:
280,192,49962,1,2,0:0:0:0:
56,256,50262,1,8,0:0:0:0:
304,320,50562,5,2,0:0:0:0:
336,272,50637,1,0,0:0:0:0:
360,232,50712,1,0,0:0:0:0:
224,240,50862,5,8,0:0:0:0:
192,200,50937,1,0,0:0:0:0:
160,152,51012,1,0,0:0:0:0:
256,144,51162,5,2,0:0:0:0:
224,192,51237,1,0,0:0:0:0:
192,232,51312,1,0,0:0:0:0:
104,264,51462,6,0,L|32:216,2,47.5,8|0|0,0:0|0:0|0:0,0:0:0:0:
256,304,51762,5,2,0:0:0:0:
288,256,51837,1,0,0:0:0:0:
312,216,51912,1,0,0:0:0:0:
456,176,52062,6,0,L|520:128,2,47.5,8|0|0,0:0|0:0|0:0,0:0:0:0:
352,56,52362,5,2,0:0:0:0:
392,104,52437,1,0,0:0:0:0:
432,152,52512,1,0,0:0:0:0:
200,144,52662,5,8,0:0:0:0:
248,184,52962,6,0,P|272:104|376:56,1,190,4|8,0:0|0:0,0:0:0:0:
504,64,53412,2,0,L|400:144,1,95,0|2,0:0|0:0,0:0:0:0:
96,136,53712,2,0,L|200:224,1,95,0|8,0:0|0:0,0:0:0:0:
240,256,54012,1,0,0:0:0:0:
72,344,54162,6,0,P|152:320|200:208,1,190,2|8,0:0|0:0,0:0:0:0:
193,88,54612,2,0,L|96:168,1,95,0|2,0:0|0:0,0:0:0:0:
8,216,54912,2,0,L|104:272,1,95,0|8,0:0|0:0,0:0:0:0:
192,200,55212,1,0,0:0:0:0:
56,88,55362,1,2,0:0:0:0:
432,64,55662,5,8,0:0:0:0:
352,128,55812,1,0,0:0:0:0:
432,192,55962,1,2,0:0:0:0:
336,264,56112,1,0,0:0:0:0:
432,328,56262,1,8,0:0:0:0:
304,264,56412,1,0,0:0:0:0:
176,256,56562,5,6,0:0:0:0:
160,216,56637,1,0,0:0:0:0:
144,176,56712,1,0,0:0:0:0:
128,136,56787,1,0,0:0:0:0:
240,128,56862,5,8,0:0:0:0:
256,88,56937,1,0,0:0:0:0:
272,48,57012,1,0,0:0:0:0:
288,8,57087,1,0,0:0:0:0:
400,16,57162,5,6,0:0:0:0:
416,56,57237,1,0,0:0:0:0:
432,96,57312,1,0,0:0:0:0:
448,136,57387,1,0,0:0:0:0:
336,136,57462,5,8,0:0:0:0:
320,176,57537,1,0,0:0:0:0:
304,216,57612,1,0,0:0:0:0:
288,256,57687,1,0,0:0:0:0:
144,288,57762,6,0,P|63:233|35:148,1,190,2|8,0:0|0:0,0:0:0:0:
208,192,58212,1,0,0:0:0:0:
288,128,58362,1,2,0:0:0:0:
168,104,58512,1,0,0:0:0:0:
56,88,58662,1,8,0:0:0:0:
168,32,58812,1,0,0:0:0:0:
376,280,58962,6,0,P|457:225|486:132,1,190,2|8,0:0|0:0,0:0:0:0:
304,192,59412,1,0,0:0:0:0:
232,120,59562,1,2,0:0:0:0:
360,112,59712,1,0,0:0:0:0:
416,32,59862,1,8,0:0:0:0:
288,16,60012,1,0,0:0:0:0:
184,48,60162,5,2,0:0:0:0:
280,64,60312,2,0,L|408:120,1,95,0|8,0:0|0:0,0:0:0:0:
504,120,60612,2,0,L|384:176,1,95,0|2,0:0|0:0,0:0:0:0:
280,168,60912,2,0,L|392:224,1,95,0|8,0:0|0:0,0:0:0:0:
184,168,61212,6,0,L|72:224,1,95,0|8,0:0|0:0,0:0:0:0:
128,288,61437,1,0,0:0:0:0:
176,296,61512,1,0,0:0:0:0:
224,272,61587,1,0,0:0:0:0:
240,216,61662,5,8,0:0:0:0:
216,168,61737,1,0,0:0:0:0:
176,136,61812,1,0,0:0:0:0:
128,120,61887,1,0,0:0:0:0:
88,128,61962,5,6,0:0:0:0:
48,144,62037,1,0,0:0:0:0:
16,176,62112,1,0,0:0:0:0:
0,216,62187,1,0,0:0:0:0:
8,264,62262,5,8,0:0:0:0:
24,304,62337,1,0,0:0:0:0:
56,336,62412,1,0,0:0:0:0:
96,360,62487,1,0,0:0:0:0:
304,296,62562,5,6,0:0:0:0:
360,288,62637,1,0,0:0:0:0:
408,272,62712,1,0,0:0:0:0:
456,248,62787,1,0,0:0:0:0:
488,208,62862,1,8,0:0:0:0:
456,168,62937,1,0,0:0:0:0:
416,144,63012,1,0,0:0:0:0:
368,120,63087,1,0,0:0:0:0:
320,104,63162,5,2,0:0:0:0:
184,104,63312,1,0,0:0:0:0:
64,168,63462,1,8,0:0:0:0:
184,248,63612,1,0,0:0:0:0:
320,208,63762,5,6,0:0:0:0:
368,200,63837,1,0,0:0:0:0:
416,216,63912,1,0,0:0:0:0:
440,264,63987,1,0,0:0:0:0:
416,312,64062,1,8,0:0:0:0:
368,336,64137,1,0,0:0:0:0:
320,328,64212,1,0,0:0:0:0:
280,304,64287,1,0,0:0:0:0:
224,280,64362,5,2,0:0:0:0:
56,168,64512,1,0,0:0:0:0:
152,272,64662,1,8,0:0:0:0:
24,144,64812,1,0,0:0:0:0:
168,288,64962,6,0,L|192:232,1,47.5,6|0,0:0|0:0,0:0:0:0:
240,288,65112,2,0,L|264:232,1,47.5
328,288,65262,6,0,L|312:224,1,47.5,8|0,0:0|0:0,0:0:0:0:
392,240,65412,2,0,L|408:304,1,47.5
480,288,65562,6,0,L|464:224,1,47.5,6|0,0:0|0:0,0:0:0:0:
408,288,65712,2,0,L|392:232,1,47.5
328,288,65862,6,0,L|312:232,1,47.5,8|0,0:0|0:0,0:0:0:0:
400,192,66012,2,0,L|416:128,1,47.5
352,120,66162,5,6,0:0:0:0:
312,88,66237,1,0,0:0:0:0:
272,56,66312,1,0,0:0:0:0:
240,24,66387,1,0,0:0:0:0:
336,120,66462,5,8,0:0:0:0:
376,88,66537,1,0,0:0:0:0:
416,56,66612,1,0,0:0:0:0:
448,24,66687,1,0,0:0:0:0:
352,120,66762,5,6,0:0:0:0:
312,88,66837,1,0,0:0:0:0:
272,56,66912,1,0,0:0:0:0:
240,24,66987,1,0,0:0:0:0:
336,120,67062,5,8,0:0:0:0:
376,88,67137,1,0,0:0:0:0:
416,56,67212,1,0,0:0:0:0:
456,24,67287,1,0,0:0:0:0:
224,344,67362,5,6,0:0:0:0:
176,320,67437,1,0,0:0:0:0:
144,280,67512,1,0,0:0:0:0:
168,232,67587,1,0,0:0:0:0:
208,200,67662,1,8,0:0:0:0:
264,200,67737,1,0,0:0:0:0:
312,216,67812,1,0,0:0:0:0:
360,240,67887,1,0,0:0:0:0:
408,232,67962,6,0,L|472:200,1,47.5,6|0,0:0|0:0,0:0:0:0:
496,192,68112,2,0,L|416:144,1,47.5
400,160,68262,6,0,L|464:128,1,47.5,8|0,0:0|0:0,0:0:0:0:
488,120,68412,2,0,L|416:72,1,47.5
280,80,68562,5,6,0:0:0:0:
232,112,68637,1,0,0:0:0:0:
216,168,68712,1,0,0:0:0:0:
256,208,68787,1,0,0:0:0:0:
304,232,68862,1,8,0:0:0:0:
360,216,68937,1,0,0:0:0:0:
400,176,69012,1,0,0:0:0:0:
384,120,69087,1,0,0:0:0:0:
328,80,69162,5,2,0:0:0:0:
192,120,69312,1,0,0:0:0:0:
312,192,69462,1,8,0:0:0:0:
240,256,69612,1,0,0:0:0:0:
184,168,69762,6,0,L|304:208,1,95,6|0,0:0|0:0,0:0:0:0:
408,224,70062,2,0,L|272:256,1,95,6|0,0:0|0:0,0:0:0:0:
168,272,70362,6,0,L|296:304,1,95,6|0,0:0|0:0,0:0:0:0:
416,328,70662,2,0,L|280:360,1,95,6|0,0:0|0:0,0:0:0:0:
176,192,70962,5,6,0:0:0:0:
120,224,71037,1,0,0:0:0:0:
88,272,71112,1,0,0:0:0:0:
104,328,71187,1,0,0:0:0:0:
160,344,71262,1,8,0:0:0:0:
216,328,71337,1,0,0:0:0:0:
264,288,71412,1,0,0:0:0:0:
296,232,71487,1,0,0:0:0:0:
320,184,71562,5,6,0:0:0:0:
344,136,71637,1,0,0:0:0:0:
368,88,71712,1,0,0:0:0:0:
408,64,71787,1,0,0:0:0:0:
456,72,71862,1,8,0:0:0:0:
480,120,71937,1,0,0:0:0:0:
464,168,72012,1,0,0:0:0:0:
424,200,72087,1,0,0:0:0:0:
376,192,72162,5,4,0:0:0:0:
136,192,72312,1,0,0:0:0:0:
256,120,72612,1,0,0:0:0:0:
112,320,72912,2,0,L|160:232,1,95,0|8,0:0|0:0,0:0:0:0:
400,320,73212,2,0,L|344:224,1,95,0|2,0:0|0:0,0:0:0:0:
136,128,73662,1,8,0:0:0:0:
416,128,73962,1,2,0:0:0:0:
88,128,74262,1,8,0:0:0:0:
392,192,74562,6,0,L|296:128,1,95,2|0,0:0|0:0,0:0:0:0:
64,48,75012,1,0,0:0:0:0:
208,120,75312,2,0,L|104:168,1,95,0|8,0:0|0:0,0:0:0:0:
288,176,75612,2,0,L|184:216,1,95,0|2,0:0|0:0,0:0:0:0:
312,360,76062,1,8,0:0:0:0:
120,272,76362,1,2,0:0:0:0:
448,240,76662,1,8,0:0:0:0:
120,192,76962,6,0,L|224:128,1,95,2|0,0:0|0:0,0:0:0:0:
448,48,77412,1,0,0:0:0:0:
304,120,77712,2,0,L|408:160,1,95,0|8,0:0|0:0,0:0:0:0:
224,176,78012,2,0,L|336:224,1,95,0|2,0:0|0:0,0:0:0:0:
200,360,78462,1,8,0:0:0:0:
392,272,78762,1,2,0:0:0:0:
64,240,79062,1,8,0:0:0:0:
336,264,79362,6,0,L|400:264,2,47.5,2|0|0,0:0|0:0|0:0,0:0:0:0:
176,264,79662,2,0,L|120:264,2,47.5,8|0|0,0:0|0:0|0:0,0:0:0:0:
360,192,79962,6,0,L|416:192,2,47.5,2|0|0,0:0|0:0|0:0,0:0:0:0:
152,192,80262,2,0,L|88:192,2,47.5,8|0|0,0:0|0:0|0:0,0:0:0:0:
384,120,80562,6,0,L|432:120,2,47.5,2|0|0,0:0|0:0|0:0,0:0:0:0:
128,120,80862,2,0,L|64:120,2,47.5,8|0|0,0:0|0:0|0:0,0:0:0:0:
408,48,81162,6,0,L|472:48,2,47.5,2|0|0,0:0|0:0|0:0,0:0:0:0:
104,48,81462,2,0,L|48:48,2,47.5,8|0|0,0:0|0:0|0:0,0:0:0:0:
256,192,81762,12,0,83862,0:0:0:0:
184,256,84162,6,0,L|120:232,2,47.5,2|0|0,0:0|0:0|0:0,0:0:0:0:
352,256,84462,1,8,0:0:0:0:
144,160,84762,1,2,0:0:0:0:
376,120,85062,1,8,0:0:0:0:
419,263,85362,6,0,L|464:280,2,47.5,2|0|0,0:0|0:0|0:0,0:0:0:0:
376,336,85662,1,8,0:0:0:0:
208,248,85962,1,2,0:0:0:0:
352,176,86262,1,8,0:0:0:0:
176,104,86562,6,0,L|104:64,2,47.5,2|0|0,0:0|0:0|0:0,0:0:0:0:
352,176,86862,1,8,0:0:0:0:
104,240,87162,1,2,0:0:0:0:
352,320,87462,1,8,0:0:0:0:
224,184,87762,5,2,0:0:0:0:
48,136,88062,1,2,0:0:0:0:
224,56,88362,1,2,0:0:0:0:
400,144,88662,1,2,0:0:0:0:
288,192,88962,5,2,0:0:0:0:
200,128,89112,1,0,0:0:0:0:
320,128,89262,1,8,0:0:0:0:
176,64,89412,1,0,0:0:0:0:
336,64,89562,1,2,0:0:0:0:
136,128,89712,1,0,0:0:0:0:
376,128,89862,1,8,0:0:0:0:
176,272,90162,6,0,L|240:152,1,95,2|0,0:0|0:0,0:0:0:0:
336,272,90462,2,0,L|272:152,1,95,8|0,0:0|0:0,0:0:0:0:
136,248,90762,2,0,L|224:152,1,95,2|0,0:0|0:0,0:0:0:0:
376,248,91062,2,0,L|288:152,1,95,8|0,0:0|0:0,0:0:0:0:
176,272,91362,6,0,L|176:160,1,95,2|0,0:0|0:0,0:0:0:0:
336,272,91662,2,0,L|336:152,1,95,8|0,0:0|0:0,0:0:0:0:
104,216,91962,2,0,L|216:144,1,95,2|0,0:0|0:0,0:0:0:0:
408,216,92262,2,0,L|296:144,1,95,8|0,0:0|0:0,0:0:0:0:
176,272,92562,6,0,L|176:152,1,95,2|0,0:0|0:0,0:0:0:0:
336,272,92862,2,0,L|336:152,1,95,8|0,0:0|0:0,0:0:0:0:
72,176,93162,2,0,L|200:136,1,95,2|0,0:0|0:0,0:0:0:0:
440,176,93462,2,0,L|312:136,1,95,8|0,0:0|0:0,0:0:0:0:
240,200,93762,5,6,0:0:0:0:
312,200,93837,1,0,0:0:0:0:
384,200,93912,1,0,0:0:0:0:
456,200,93987,1,0,0:0:0:0:
512,240,94062,1,8,0:0:0:0:
456,280,94137,1,0,0:0:0:0:
384,280,94212,1,0,0:0:0:0:
312,280,94287,1,0,0:0:0:0:
256,240,94362,5,6,0:0:0:0:
312,200,94437,1,0,0:0:0:0:
384,200,94512,1,0,0:0:0:0:
456,200,94587,1,0,0:0:0:0:
512,160,94662,1,8,0:0:0:0:
456,120,94737,1,0,0:0:0:0:
384,120,94812,1,0,0:0:0:0:
312,120,94887,1,0,0:0:0:0:
256,160,94962,5,6,0:0:0:0:
200,200,95037,1,0,0:0:0:0:
128,200,95112,1,0,0:0:0:0:
56,200,95187,1,0,0:0:0:0:
0,240,95262,1,8,0:0:0:0:
56,280,95337,1,0,0:0:0:0:
128,280,95412,1,0,0:0:0:0:
200,280,95487,1,0,0:0:0:0:
256,240,95562,5,6,0:0:0:0:
200,200,95637,1,0,0:0:0:0:
128,200,95712,1,0,0:0:0:0:
56,200,95787,1,0,0:0:0:0:
0,152,95862,1,8,0:0:0:0:
56,112,95937,1,0,0:0:0:0:
128,112,96012,1,0,0:0:0:0:
256,288,96762,5,2,0:0:0:0:
192,256,96837,1,0,0:0:0:0:
256,216,96912,1,0,0:0:0:0:
320,184,96987,1,0,0:0:0:0:
384,112,97212,1,0,0:0:0:0:
144,112,97287,1,0,0:0:0:0:
432,112,97662,1,4,0:0:0:0:
