osu file format v9

[General]
AudioFilename: Red Goose.mp3
AudioLeadIn: 2000
PreviewTime: 64303
Countdown: 0
SampleSet: Soft
StackLeniency: 0.7
Mode: 0
LetterboxInBreaks: 0

[Editor]
DistanceSpacing: 1
BeatDivisor: 4
GridSize: 4

[Metadata]
Title:Red Goose
Artist:Mutsuhiko Izumi
Creator:nold_1702
Version:Rainbow Beginner
Source:jubeat copious
Tags:ertyukjh010 Sun Rainbow eikkaleyd

[Difficulty]
HPDrainRate:1
CircleSize:3
OverallDifficulty:1
ApproachRate:1
SliderMultiplier:0.6
SliderTickRate:1

[Events]
//Background and Video events
0,0,"Jubeat.jpg"
//Break Periods
2,74199,84319
//Storyboard Layer 0 (Background)
//Storyboard Layer 1 (Fail)
//Storyboard Layer 2 (Pass)
//Storyboard Layer 3 (Foreground)
//Storyboard Sound Samples
//Background Colour Transformations
3,100,0,0,0

[TimingPoints]
-401,300,4,2,0,50,1,0
11599,-100,4,1,1,50,0,0
33199,-100,4,1,0,80,0,0
54799,-100,4,1,1,80,0,0
64249,-100,4,1,2,80,0,0
73999,-100,4,2,2,80,0,0
85999,-100,4,1,0,80,0,0
94399,-100,4,1,2,80,0,0
114349,-100,4,1,0,80,0,0

[Colours]
Combo1 : 64,0,0
Combo2 : 255,0,0
Combo3 : 128,255,128
Combo4 : 255,128,64
Combo5 : 255,255,128
Combo6 : 128,128,128

[HitObjects]
256,60,799,70,0,B|152:60,2,90,2|2|0
312,84,1999,1,2
400,164,2599,2,0,B|448:136|448:64|432:40,2,120,0|2|0
304,236,4399,6,0,B|244:280|176:252,1,120,2|0
232,144,5599,2,0,B|172:116|104:148,2,120,2|0|2
340,192,7399,1,2
256,192,7999,12,2,10399
188,40,11599,6,0,B|108:40|64:88,2,120,4|8|8
244,148,13399,2,8,B|372:148,1,120,8|4
476,104,14599,2,8,B|512:160|484:224,1,120,8|4
360,104,15799,2,8,B|324:160|352:224,1,120,8|4
236,260,16999,5,0
112,244,17599,2,0,B|60:192|120:128,1,120,8|0
224,136,18799,2,0,B|276:192|224:268,3,120,8|0|8|0
352,216,21199,5,8
256,192,21499,12,4,23599
192,52,24799,6,0,B|64:52,2,120,8|0|4
300,264,27199,2,0,B|432:264,2,120,8|0|4
72,192,29599,38,0,B|72:320,1,120
180,256,30799,2,0,B|248:248|288:196,1,120,4|0
284,80,31999,2,0,B|216:88|176:140,1,120,0|0
88,56,33199,5,4
328,56,34399,2,0,B|452:56,1,120
452,176,35599,5,4
256,316,36799,2,0,B|256:188,2,120,0|0|4
52,196,39199,54,0,B|20:136|56:72,1,120
160,128,40399,2,0,B|184:64|248:24,1,120
284,144,41599,2,0,B|328:96|400:92,1,120
360,208,42799,69,0
136,300,43999,1,4
256,92,45199,1,4
372,304,46399,2,0,B|328:228|428:192|368:60,1,240,4|0
172,204,48799,69,4
412,204,49999,1,4
188,288,51199,1,4
428,288,52399,1,4
256,192,52699,12,4,54799
256,32,55999,21,4
76,192,57199,1,4
256,348,58399,1,4
172,124,59599,6,0,B|224:96|296:124,2,120
176,244,61399,2,0,B|316:244,2,120
56,244,63199,2,8,B|20:300|48:364,1,120,8|4
156,312,64399,5,0
156,192,64999,1,0
236,108,65599,2,0,B|488:108,1,240,0|4
248,200,67999,2,0,B|372:200|372:200|400:272|480:268,1,240,0|4
452,148,69799,6,0,B|452:80,2,60,0|0|4
332,164,70999,2,0,B|332:244,2,60,0|0|4
252,76,72199,2,0,B|252:4,2,60,0|0|4
168,164,73399,2,0,B|168:228,2,60,0|0|2
64,52,85999,21,4
448,336,88399,1,4
472,52,90799,69,4
88,340,93199,1,4
256,156,94399,2,0,B|296:204|260:276,2,120,4|0|4
160,228,96199,22,0,B|40:228,2,120,8|0|0
272,184,97999,2,0,B|314:129|266:73,1,120,0|8
200,132,99199,2,0,B|152:188|204:256,2,120,0|0|4
304,188,100999,6,0,B|332:240|332:276|284:308,1,120,0|8
196,240,102199,2,0,B|164:180,2,60,0|0|4
308,200,103399,1,0
360,92,103999,2,0,B|332:52|268:60|252:100,1,120,0|8
220,204,105199,37,0
428,84,106399,1,4
428,324,107599,1,0
216,212,108799,22,0,B|312:212|384:228|448:292,1,240
252,132,111199,2,0,B|324:132|324:132|308:76|336:20|420:20,1,240
412,140,112999,2,0,B|412:284,2,120,0|4|0
256,192,114499,12,4,117799
