osu file format v5

[General]
AudioFilename: Mutsuhiko Izumi - Jet World.mp3
AudioLeadIn: 0
PreviewTime: 3346
Countdown: 1
SampleSet: Normal
StackLeniency: 0.7
Mode: 0
LetterboxInBreaks: 1
EditorBookmarks: 3889,10846,17802,24759,31715,38672,45628,49106,56063,63019,69976,76933

[Metadata]
Title:Jet World
Artist:Mutsuhiko Izumi
Creator:Gens
Version:Practice
Source:Guitar Freaks 2nd Mix
Tags:

[Difficulty]
HPDrainRate:1
CircleSize:3
OverallDifficulty:2
SliderMultiplier:0.799999999999999
SliderTickRate:4

[Events]
//Background and Video events
0,0,"jet.PNG"
//Break Periods
//Storyboard Layer 0 (Background)
//Storyboard Layer 1 (Failing)
//Storyboard Layer 2 (Passing)
//Storyboard Layer 3 (Foreground)
//Storyboard Sound Samples
//Background Colour Transformations
3,100,0,128,255

[TimingPoints]
520,434.782608695652,4,1,0,70,1,0

[Colours]
Combo1 : 255,62,62
Combo2 : 80,251,49
Combo3 : 28,96,255

[HitObjects]
352,192,3998,5,4
160,192,4867,1,6
352,192,5737,5,4
160,192,6606,1,6
352,192,7476,5,4
160,192,8346,1,6
352,192,9215,5,4
160,192,10085,1,6
136,336,10954,6,0,B|256:312|384:336,1,240
376,248,12693,6,2,B|256:224|128:248,1,240
136,160,14433,6,0,B|256:136|384:160,1,240
400,72,16172,5,2
304,80,16606,1,4
208,88,17041,1,0
112,96,17476,1,4
160,192,17911,5,4
352,192,18780,1,6
160,192,19650,5,4
352,192,20519,1,6
160,192,21389,5,4
352,192,22259,1,6
160,192,23128,5,4
352,192,23998,1,6
408,72,24867,6,0,B|432:192|408:320,1,240
320,312,26606,6,2,B|344:192|320:64,1,240
232,72,28346,6,0,B|256:192|232:320,1,240
136,192,30085,5,6
376,192,30954,1,4
256,72,31824,6,2,B|256:328,1,240
168,312,33563,5,4
344,312,34433,1,4
168,312,35302,6,2,B|176:219|256:176|256:72,1,240
168,91,37041,5,4
344,91,37911,1,4
334,193,38780,6,4,B|254:161|161:200,2,160,4|4|2
256,296,41389,1,4
178,193,42259,6,4,B|258:161|351:200,2,160,4|4|2
256,88,44867,1,4
160,192,45737,5,4
352,192,46606,1,4
256,72,47476,5,2
256,72,47911,1,2
256,72,48346,1,2
256,72,48780,1,4
256,72,49215,6,0,B|256:320,1,240,0|2
344,312,50954,6,0,B|344:64,1,240,0|2
256,72,52693,5,0
256,312,53998,1,2
168,312,54433,6,6,B|168:176,1,120,2|6
184,48,56172,5,4
184,48,56606,1,0
184,48,57041,1,4
328,48,57911,5,4
328,48,58346,1,0
328,48,58780,1,4
328,192,59650,5,4
328,192,60085,1,0
328,192,60519,1,4
184,192,61389,5,4
184,192,61824,1,0
184,192,62259,1,4
256,72,63128,6,2,B|256:328,1,240
168,312,64867,5,4
344,312,65737,1,4
168,312,66606,6,2,B|176:219|256:176|256:72,1,240
168,91,68346,5,4
344,91,69216,1,4
336,192,70085,5,2
336,192,70954,2,2,B|160:192,1,160
176,192,72693,5,2
176,192,73563,2,2,B|344:192,1,160
472,192,75302,5,4
472,192,75737,1,0
472,192,76172,1,4
472,192,76606,1,0
448,96,77041,5,2
256,96,77911,1,6
64,96,78780,5,4
64,96,79215,1,6
64,96,79650,1,2
64,96,80085,1,6
160,96,80519,6,0,B|160:256|312:256,1,240,0|2
298,255,82259,6,0,B|437:256|437:96,1,240,0|4
256,192,83998,12,6,86389
