osu file format v9

[General]
AudioFilename: Crash Bandicoot 2 - Hang Eight, Air Crash, Plant Food Music(1).mp3
AudioLeadIn: 1500
PreviewTime: 36120
Countdown: 0
SampleSet: Normal
StackLeniency: 0.7
Mode: 0
LetterboxInBreaks: 1

[Editor]
Bookmarks: 73507
DistanceSpacing: 1
BeatDivisor: 4
GridSize: 8

[Metadata]
Title:River
Artist:Mutato Muzika
Creator:Ain053
Version:Normal
Source:Crash Bandicoot 2: Cortex Strikes Back
Tags:Coco Crystal Gem Naughthy Dog Plant Food Hang Eight Air Josh Mancell

[Difficulty]
HPDrainRate:3
CircleSize:3
OverallDifficulty:2
ApproachRate:4
SliderMultiplier:1.2
SliderTickRate:1

[Events]
//Background and Video events
0,0,"Crash_Bandicoot.png"
//Break Periods
2,9575,11069
2,78887,83394
//Storyboard Layer 0 (Background)
//Storyboard Layer 1 (Fail)
//Storyboard Layer 2 (Pass)
//Storyboard Layer 3 (Foreground)
//Storyboard Sound Samples
//Background Colour Transformations
3,100,163,162,255

[TimingPoints]
335,376.69394558656,4,1,0,40,1,0
60806,-100,4,1,0,38,0,0
61183,-100,4,1,0,35,0,0
61559,-100,4,1,0,33,0,0
61936,-100,4,1,0,30,0,0
63443,-100,4,1,0,40,0,0
84714,-100,4,1,0,40,0,1
84915,-100,4,1,0,38,0,1
85291,-100,4,1,0,35,0,1
85668,-100,4,1,0,33,0,1
86045,-100,4,1,0,30,0,1
87551,-100,4,1,0,40,0,1
87928,-100,4,1,0,38,0,1
88305,-100,4,1,0,35,0,1
88682,-100,4,1,0,33,0,1
89058,-100,4,1,0,30,0,1
90741,-100,4,1,0,40,0,0

[Colours]
Combo1 : 232,139,0
Combo2 : 11,132,221
Combo3 : 191,197,1
Combo4 : 54,0,108

[HitObjects]
376,112,335,6,0,B|120:112,1,240,6|8
40,192,1465,1,0
40,192,1841,2,0,B|176:192,2,120,0|8|0
136,272,3348,6,0,B|392:272,1,240,2|8
472,192,4478,1,0
472,192,4855,2,0,B|352:192,2,120,0|8|0
472,192,6362,5,6
256,192,7115,12,4,9375
312,40,12389,6,0,B|384:40,2,60,4|0|8
200,40,13142,2,0,B|128:40,2,60,0|0|8
200,160,13895,6,0,B|256:199|312:160,2,120,0|8|0
200,280,15026,2,0,B|200:344,1,60,8|0
312,280,15591,2,0,B|312:344,4,60,0|8|0|0|0
436,252,16721,6,8,B|436:188,1,60,8|4
316,192,17286,1,8
196,192,17662,1,4
76,192,18039,1,8
76,192,18416,6,4,B|56:252|76:312,2,120
196,192,19546,5,8
196,192,19923,2,4,B|216:132|196:72,2,120,4|4|4
316,192,21053,5,8
316,192,21429,2,4,B|296:252|316:312,1,120
436,312,22183,1,8
436,312,22371,2,4,B|456:255|436:195,1,120
436,132,22936,5,0
316,132,23313,1,8
196,132,23690,1,0
76,132,24066,1,8
136,236,24443,6,4,B|76:256|16:236,2,120
256,236,25573,1,8
376,236,25950,6,4,B|436:256|496:236,2,120
256,236,27080,1,8
256,236,27268,1,8
256,236,27456,5,2
152,296,27833,1,2
256,360,28210,1,0
256,360,28398,1,2
360,296,28775,1,6
416,128,29717,5,0
416,128,30093,1,8
416,128,30470,6,0,B|244:-32|96:128|96:128,1,360,4|8
96,256,31977,2,0,B|268:416|416:256|416:256,1,360,0|8
256,192,33484,12,4,34802
304,272,36120,5,8
304,272,36497,2,0,B|420:184|320:40|192:40|92:184|208:272,2,480,4|0|6
256,192,40264,12,0,41771
272,64,42524,5,4
152,64,42901,1,0
152,64,43089,1,8
152,64,43278,2,0,B|152:200,1,120,0|8
104,224,43843,2,8,B|140:280|104:336,2,120,0|8|8
64,184,44784,2,0,B|0:184,2,60,0|0|8
64,64,45538,6,0,B|184:64,1,120,0|8
184,184,46291,2,0,B|312:184,1,120,0|8
304,64,47045,2,0,B|424:64,3,120,4|8|0|8
464,168,48551,6,0,B|344:168,1,120,0|8
248,232,49305,2,0,B|128:232,1,120,0|8
72,232,49870,2,0,B|32:176|72:120,2,120,0|8|8
72,296,50811,2,0,B|8:296,2,60,0|0|8
192,296,51565,6,0,B|312:296,1,120,0|8
376,192,52318,2,0,B|248:192,1,120,0|8
256,192,53072,12,4,54578
304,344,55143,5,0
208,344,55332,1,2
256,232,55709,5,0
208,152,55897,1,2
304,152,56085,1,2
256,40,57215,5,2
304,128,57404,1,2
208,128,57592,1,6
208,304,58157,5,0
304,304,58345,1,2
336,192,58722,5,0
256,136,58910,1,2
176,192,59099,1,2
256,344,60229,5,2
256,248,60417,1,2
200,168,60606,6,0,B|160:112|200:56,3,120,6|0|0|0
312,56,62112,2,0,B|352:112|312:168,3,120
256,272,63619,1,6
256,192,64372,12,0,65879
88,312,66633,6,0,B|144:336|208:312,1,120,0|8
256,288,67198,2,0,B|312:264|376:288,1,120,8|0
424,256,67763,1,8
424,128,68139,6,0,B|368:152|304:128,1,120,0|8
256,104,68704,2,0,B|200:80|136:104,1,120,8|0
88,72,69269,1,8
40,192,69646,6,0,B|168:192,1,120,0|8
224,192,70211,2,0,B|352:192,1,120,8|0
344,192,70776,1,8
448,248,71153,5,0
448,136,71530,1,8
344,192,71906,1,0
344,192,72095,1,0
344,192,72283,1,8
255,264,72660,6,0,B|256:264|160:384|48:264,1,240,0|0
152,192,73790,1,8
48,120,74167,6,0,B|160:0|256:120|256:120,1,240,0|0
360,192,75297,1,8
360,192,75673,6,8,B|232:192,1,120,0|8
184,192,76238,2,0,B|64:192,1,120,8|0
64,192,76803,1,8
64,312,77180,5,4
192,312,77557,1,8
320,312,77933,1,4
448,312,78310,1,8
448,312,78687,5,4
88,56,84714,6,0,B|208:56,1,120,4|0
304,128,85467,2,0,B|432:128,1,120
424,256,86221,2,0,B|304:256,1,120
208,328,86974,2,0,B|88:328,2,120,0|0|6
256,192,88481,12,0,89988
136,272,90741,6,0,B|376:272,1,240,4|8
472,192,91871,1,0
472,192,92059,1,0
472,192,92248,2,0,B|352:192,2,120,0|8|0
376,112,93755,6,0,B|136:112,1,240,2|8
40,192,94885,1,0
40,192,95073,1,0
40,192,95261,2,0,B|160:192,2,120,0|8|0
416,272,96768,6,4,B|244:432|96:272|96:272,1,360,4|8
184,192,98275,2,0,B|312:192,2,120,0|8|0
96,112,99782,6,4,B|268:-48|416:112|416:112,1,360,4|8
328,192,101288,2,0,B|200:192,2,120,0|8|2
256,344,102795,5,6
256,192,103549,12,4,105809
