osu file format v9

[General]
AudioFilename: Crash Bandicoot 2 - Hang Eight, Air Crash, Plant Food Music(1).mp3
AudioLeadIn: 1500
PreviewTime: 36120
Countdown: 0
SampleSet: Normal
StackLeniency: 0.7
Mode: 0
LetterboxInBreaks: 1

[Editor]
DistanceSpacing: 1.2
BeatDivisor: 4
GridSize: 8

[Metadata]
Title:River
Artist:Mutato Muzika
Creator:Ain053
Version:Insane
Source:Crash Bandicoot 2: Cortex Strikes Back
Tags:Coco Crystal Gem Naughthy Dog Plant Food Hang Eight Air Josh Mancell

[Difficulty]
HPDrainRate:7
CircleSize:4
OverallDifficulty:6
ApproachRate:8
SliderMultiplier:2
SliderTickRate:1

[Events]
//Background and Video events
0,0,"Crash_Bandicoot.png"
//Break Periods
2,9575,11262
//Storyboard Layer 0 (Background)
//Storyboard Layer 1 (Fail)
//Storyboard Layer 2 (Pass)
//Storyboard Layer 3 (Foreground)
//Storyboard Sound Samples
//Background Colour Transformations
3,100,163,162,255

[TimingPoints]
335,376.692763104199,4,1,0,40,1,0
7115,-66.6666666666667,4,1,0,40,0,0
36698,-66.6666666666667,4,1,0,38,0,0
37074,-66.6666666666667,4,1,0,35,0,0
37451,-66.6666666666667,4,1,0,33,0,0
37828,-66.6666666666667,4,1,0,30,0,0
39334,-66.6666666666667,4,1,0,40,0,0
54579,-100,4,1,0,40,0,0
60606,-66.6666666666667,4,1,0,40,0,0
60806,-66.6666666666667,4,1,0,38,0,0
61183,-66.6666666666667,4,1,0,35,0,0
61559,-66.6666666666667,4,1,0,33,0,0
61936,-66.6666666666667,4,1,0,30,0,0
63443,-66.6666666666667,4,1,0,40,0,0
84714,-66.6666666666667,4,1,0,40,0,1
84915,-66.6666666666667,4,1,0,38,0,1
85291,-66.6666666666667,4,1,0,35,0,1
85668,-66.6666666666667,4,1,0,33,0,1
86045,-66.6666666666667,4,1,0,30,0,1
87551,-66.6666666666667,4,1,0,40,0,1
87928,-66.6666666666667,4,1,0,38,0,1
88305,-66.6666666666667,4,1,0,35,0,1
88682,-66.6666666666667,4,1,0,33,0,1
89058,-66.6666666666667,4,1,0,30,0,1
90741,-100,4,1,0,40,0,0
103454,-66.6666666666667,4,1,0,40,0,0

[Colours]
Combo1 : 232,139,0
Combo2 : 11,132,221
Combo3 : 191,197,1
Combo4 : 54,0,108

[HitObjects]
456,56,335,5,4
408,232,617,2,0,L|344:232,1,50,0|8
312,56,994,2,0,L|262:56,1,50
216,232,1370,2,0,L|152:232,1,50,0|8
120,56,1747,2,0,L|70:56,1,50
72,176,2030,5,8
136,344,2312,1,0
200,176,2595,1,8
48,272,2877,1,0
224,272,3160,1,8
344,272,3348,6,0,L|456:160,1,150,0|0
504,216,3725,2,0,L|392:104,1,150,8|0
448,56,4101,2,0,L|336:168,1,150
288,112,4478,2,0,L|400:224,1,150,8|0
448,272,4855,5,0
344,328,5043,1,8
176,264,5326,1,0
344,200,5608,1,8
248,352,5891,1,0
248,176,6173,1,8
400,128,6362,6,0,B|400:72|368:48|288:48,1,150
216,48,6738,2,0,B|144:47|112:71|112:127,1,150,8|0
112,200,7115,2,0,B|168:256,3,74.9999977648259
144,328,7492,2,0,B|240:328,3,74.9999977648259,8|0|0|0
296,328,7868,2,0,B|371:328,3,74.9999977648259
352,256,8245,2,0,B|406:203,3,74.9999977648259,8|0|0|0
256,192,8622,12,4,9375
336,48,12012,5,0
328,64,12106,1,0
336,80,12200,1,0
344,96,12294,1,0
336,112,12389,6,0,B|360:200|272:256,1,149.999995529652,4|0
216,168,12765,2,0,B|120:216|168:312,1,149.999995529652,8|0
248,344,13142,2,0,B|344:368|400:272,1,149.999995529652
352,200,13519,2,0,B|448:192|488:304,2,149.999995529652,8|0|0
360,96,14084,1,0
272,160,14272,6,0,B|200:216|120:152,1,149.999995529652,8|0
192,72,14649,2,0,B|125:17|53:73,2,149.999995529652,0|0|8
296,40,15214,2,0,B|416:64|464:184|384:288,1,299.999991059304
304,224,15779,6,0,B|272:312|352:360,1,149.999995529652,8|0
448,352,16156,2,0,B|520:308|488:220,1,149.999995529652,0|0
456,120,16532,2,0,B|384:200|304:96,1,149.999995529652,8|0
120,120,17097,6,0,B|136:200|216:232,2,149.999995529652,0|8|0
224,136,17662,2,0,B|328:176|304:272,1,149.999995529652
384,176,18039,2,0,B|384:272|496:304,1,149.999995529652,8|0
480,192,18416,6,0,B|480:96|400:64,1,149.999995529652,0|0
320,24,18792,2,8,L|256:64|192:24,1,149.999995529652,8|0
101,68,19169,2,0,B|32:104|32:192,1,149.999995529652,0|0
120,144,19546,1,8
120,240,19734,1,0
32,192,19923,6,0,B|32:288|112:320,1,149.999995529652,0|0
192,368,20299,2,0,L|256:328|320:368,1,149.999995529652,8|0
410,315,20676,2,0,B|480:288|480:192,1,149.999995529652,0|0
392,240,21053,1,8
392,144,21241,1,8
368,40,21429,6,0,L|245:151,1,149.999995529652,0|0
200,232,21806,1,8
312,232,21994,1,0
255,140,22183,2,0,L|144:40,1,149.999995529652,0|8
48,88,22559,1,0
48,192,22748,1,4
152,192,22936,5,4
152,192,23124,1,0
256,192,23313,1,8
256,192,23501,1,0
360,192,23689,1,0
360,192,23784,1,0
360,192,23878,1,0
360,192,23972,1,0
360,192,24066,1,8
464,192,24254,1,0
462,88,24443,6,0,L|302:88,1,149.999995529652,0|0
200,88,24820,2,0,L|200:240,1,149.999995529652,8|0
312,238,25196,2,0,L|312:86,1,149.999995529652,0|0
200,88,25573,2,0,L|50:88,1,149.999995529652,8|0
50,192,25950,6,0,L|210:192,1,149.999995529652,0|0
312,192,26326,2,0,L|312:40,1,149.999995529652,8|0
200,42,26703,2,0,L|200:194,1,149.999995529652,0|0
312,192,27080,2,0,L|462:192,1,149.999995529652,8|8
464,296,27456,5,2
360,296,27645,1,0
464,296,27833,1,2
360,296,28021,1,0
256,296,28210,1,0
152,296,28398,1,2
256,296,28586,1,8
152,296,28775,1,2
48,296,28963,5,0
48,296,29151,1,0
144,240,29340,1,8
144,240,29528,1,0
48,192,29717,1,0
48,192,29811,1,0
48,192,29905,1,8
48,192,29999,1,8
48,192,30093,1,8
144,144,30282,1,0
48,88,30470,6,0,L|184:8,1,149.999995529652,0|0
256,88,30847,2,0,L|392:8,1,149.999995529652,8|0
464,88,31223,2,0,L|328:168,1,149.999995529652
256,88,31600,2,0,L|120:168,1,149.999995529652,8|0
32,216,31977,5,0
88,304,32165,1,0
144,216,32353,1,8
200,304,32542,1,0
256,216,32730,1,0
312,304,32918,1,0
368,216,33107,1,8
424,304,33295,1,0
480,216,33483,6,0,L|392:72,1,149.999995529652
328,168,33860,2,0,L|160:168,1,149.999995529652,8|0
110,88,34237,2,0,L|32:216,2,149.999995529652,0|0|8
176,168,34802,1,4
256,192,34896,12,8,36120
96,296,36497,5,4
96,88,36874,1,0
176,296,37250,1,0
176,88,37627,1,0
256,296,38004,1,0
256,88,38380,1,0
336,296,38757,1,0
336,88,39134,1,0
416,296,39511,1,6
416,88,39887,1,0
496,296,40264,5,0
416,221,40452,2,0,L|416:301,2,74.9999977648259
344,144,40829,2,0,L|344:224,2,74.9999977648259
272,224,41206,2,0,L|272:304,2,74.9999977648259
200,144,41582,2,0,L|200:224,2,74.9999977648259
128,224,41959,2,0,L|128:304,2,74.9999977648259,0|0|0
136,208,42242,1,0
128,192,42336,1,0
120,176,42430,1,0
128,160,42524,6,0,B|144:48|288:16|352:136,1,299.999991059304,4|8
456,128,43089,1,0
392,40,43277,2,0,B|264:40|192:128|232:264,1,299.999991059304,0|8
328,232,43843,6,0,B|320:144|224:96|136:96|64:136,2,299.999991059304,0|8|0
224,216,44784,2,0,B|152:264|64:216,1,149.999995529652
128,320,45161,2,0,B|216:288|272:368,1,149.999995529652,8|0
360,320,45538,6,0,B|504:192|352:56,1,299.999991059304,0|8
256,88,46103,1,0
151,64,46291,2,0,B|8:192|152:320,1,299.999991059304,0|8
344,232,47044,6,0,B|320:88|192:88|168:232,3,299.999991059304,0|8|0|8
72,56,48551,6,0,B|120:128|208:88,1,149.999995529652
288,32,48928,2,0,B|368:0|432:64,1,149.999995529652,8|0
344,128,49305,2,0,B|288:184|200:176,2,149.999995529652,0|0|8
432,184,49870,2,0,B|344:256|384:336,1,149.999995529652
304,232,50246,6,0,B|288:160|224:104,1,149.999995529652,0|8
120,104,50623,2,0,B|144:32|232:16,2,149.999995529652
48,32,51188,2,0,B|-8:120|80:192,1,149.999995529652,8|0
136,240,51565,6,0,B|184:344|328:344|376:240,1,299.999991059304,0|8
464,192,52130,1,0
376,144,52318,2,0,B|328:40|184:40|136:144,1,299.999991059304,0|8
256,192,53071,12,8,54202
48,328,54578,5,0
96,152,54861,2,0,L|160:152,1,50,0|8
192,328,55237,2,0,L|256:328,1,50
288,152,55614,2,0,L|352:152,1,50,0|8
384,328,55991,2,0,L|448:328,1,50
440,208,56273,5,8
376,40,56556,1,0
312,208,56838,1,8
464,112,57121,1,0
288,112,57403,1,8
168,112,57592,6,0,L|56:224,1,150
8,168,57968,2,0,L|120:280,1,150,8|0
64,328,58345,2,0,L|176:216,1,150
224,272,58722,2,0,L|112:160,1,150,8|0
64,112,59099,5,0
168,56,59287,1,8
336,120,59569,1,0
168,184,59852,1,8
264,32,60134,1,0
264,208,60417,1,8
416,296,60605,5,4
416,88,60982,1,0
336,296,61359,1,0
336,88,61735,1,0
256,296,62112,1,0
256,88,62489,1,0
176,296,62865,1,0
176,88,63242,1,0
96,296,63619,1,6
96,88,63996,1,0
16,296,64372,5,0
96,221,64561,2,0,L|96:301,2,74.9999977648259
168,144,64937,2,0,L|168:224,2,74.9999977648259
240,224,65314,2,0,L|240:304,2,74.9999977648259
312,144,65691,2,0,L|312:224,2,74.9999977648259
384,224,66067,2,0,L|384:304,2,74.9999977648259
376,208,66350,1,0
384,192,66444,1,0
392,176,66538,1,0
384,160,66632,6,0,B|336:80|208:120,1,149.999995529652
296,208,67009,2,0,B|224:256|136:200,1,149.999995529652,8|0
96,128,67386,2,0,B|56:176|56:240|104:288,1,149.999995529652
168,336,67763,2,0,B|256:368|328:296,1,149.999995529652,8|0
400,256,68139,6,0,B|496:320|392:368,2,149.999995529652,0|0|8
312,200,68704,1,0
224,256,68893,2,0,B|128:200|232:144,2,149.999995529652,0|0|8
312,200,69458,1,0
400,136,69646,6,0,B|368:56|272:48,1,149.999995529652
184,48,70023,2,0,B|88:48|64:144,2,149.999995529652,8|0|0
224,144,70588,1,0
136,200,70776,2,0,B|152:296|272:280,1,149.999995529652,8|0
312,208,71153,6,0,B|376:280|304:360,2,149.999995529652,0|0|8
360,112,71718,1,0
432,184,71906,2,0,B|480:112|424:24,1,149.999995529652
434,42,72189,1,0
434,42,72283,2,0,B|354:90|280:17,1,149.999995529652,8|0
200,48,72660,6,0,B|128:8|56:64,1,149.999995529652
152,112,73036,2,0,B|96:200|200:248,1,149.999995529652,8|0
232,144,73413,2,0,B|320:168|360:96,1,149.999995529652
392,200,73790,2,0,B|432:120|528:152,1,149.999995529652,8|0
472,240,74166,6,0,B|424:320|328:264,1,149.999995529652
272,208,74543,2,0,B|168:200|152:304,1,149.999995529652,8|0
48,280,74920,2,0,B|-24:240|16:128,2,149.999995529652,0|0|8
96,184,75485,1,0
64,80,75673,6,0,B|208:8|368:40,1,299.999991059304,0|8
384,136,76238,2,0,B|236:104|91:187,1,299.999991059304
56,280,76803,2,0,B|88:360|192:344,1,149.999995529652,8|0
272,304,77180,6,0,B|360:280|360:192,2,149.999995529652,0|0|8
208,104,77933,1,0
280,32,78122,1,0
384,16,78310,1,8
464,80,78498,1,0
480,192,78687,6,0,B|480:288|400:320,1,149.999995529652
320,368,79063,2,0,L|256:328|192:368,1,149.999995529652,8|0
101,316,79440,2,0,B|32:281|32:192,1,149.999995529652
120,240,79817,1,8
120,144,80005,1,0
32,192,80193,6,0,B|32:96|112:64,1,149.999995529652
192,16,80570,2,0,L|256:56|320:16,1,149.999995529652,8|0
410,69,80947,2,0,B|480:96|480:192,1,149.999995529652,0|2
392,144,81323,1,8
392,240,81512,1,2
367,343,81700,6,0,L|242:232,1,149.999995529652,2|0
200,152,82077,1,8
312,152,82265,1,0
255,244,82454,2,0,L|144:344,1,149.999995529652
48,296,82830,1,8
48,192,83019,1,0
152,192,83207,5,0
152,192,83395,1,0
256,192,83584,1,8
256,192,83772,1,0
360,192,83960,1,0
360,192,84054,1,0
360,192,84149,1,2
360,192,84243,1,0
360,192,84337,1,8
464,192,84525,1,2
416,88,84714,5,6
416,296,85090,1,0
336,88,85467,1,0
336,296,85844,1,0
256,88,86220,1,0
256,296,86597,1,0
176,88,86974,1,0
176,296,87351,1,0
96,88,87727,5,6
96,296,88104,1,0
176,88,88481,1,0
176,296,88857,1,0
256,88,89234,1,0
256,296,89611,1,0
336,88,89987,1,0
336,296,90364,1,0
464,56,90741,5,4
416,232,91023,2,0,L|352:232,1,50,0|8
320,56,91400,2,0,L|256:56,1,50
224,232,91777,2,0,L|160:232,1,50,0|8
128,56,92153,2,0,L|64:56,1,50
72,176,92436,5,8
136,344,92718,1,0
200,176,93001,1,8
48,272,93283,1,0
224,272,93566,1,8
344,272,93754,6,0,L|456:160,1,150
504,216,94131,2,0,L|392:104,1,150,8|0
448,56,94508,2,0,L|336:168,1,150
288,112,94884,2,0,L|400:224,1,150,8|0
448,272,95261,5,0
344,328,95449,1,8
176,264,95732,1,0
344,200,96014,1,8
248,352,96297,1,0
248,176,96580,1,8
256,56,96768,5,0
88,160,97050,2,0,B|160:160,1,50,0|8
256,56,97427,2,0,B|256:120,1,50
424,160,97804,2,0,B|352:160,1,50,0|8
256,296,98180,2,0,B|256:368,1,50
256,346,98463,5,8
320,184,98745,1,0
168,280,99028,1,8
344,280,99311,1,0
192,184,99593,1,8
176,56,99781,6,0,B|336:56,1,150
328,128,100158,2,0,B|168:128,1,150,8|0
176,48,100535,2,0,B|336:48,1,150
328,136,100911,2,0,B|176:136,1,150,8|0
176,56,101288,5,0
176,176,101477,1,8
272,328,101759,1,0
272,152,102042,1,8
176,304,102324,1,0
344,240,102607,1,8
112,128,102795,6,0,B|112:72|144:48|224:48,1,150,4|0
296,48,103172,2,0,B|368:47|400:71|400:127,1,150,8|0
400,200,103548,2,0,B|344:256,3,74.9999977648259
368,328,103925,2,0,B|272:328,3,74.9999977648259,8|0|0|0
216,328,104302,2,0,B|141:328,3,74.9999977648259
160,256,104678,2,0,B|106:203,3,74.9999977648259,8|0|0|0
256,192,105055,12,4,105808
