osu file format v9

[General]
AudioFilename: Crash Bandicoot 2 - Hang Eight, Air Crash, Plant Food Music(1).mp3
AudioLeadIn: 1500
PreviewTime: 36120
Countdown: 0
SampleSet: Normal
StackLeniency: 0.7
Mode: 0
LetterboxInBreaks: 1

[Editor]
DistanceSpacing: 0.9
BeatDivisor: 4
GridSize: 4

[Metadata]
Title:River
Artist:Mutato Muzika
Creator:Ain053
Version:Hard
Source:Crash Bandicoot 2: Cortex Strikes Back
Tags:Coco Crystal Gem Naughthy Dog Plant Food Hang Eight Air Josh Mancell

[Difficulty]
HPDrainRate:5
CircleSize:4
OverallDifficulty:5
ApproachRate:7
SliderMultiplier:1.7
SliderTickRate:2

[Events]
//Background and Video events
0,0,"Crash_Bandicoot.png"
//Break Periods
2,9575,11112
2,78887,83814
//Storyboard Layer 0 (Background)
//Storyboard Layer 1 (Fail)
//Storyboard Layer 2 (Pass)
//Storyboard Layer 3 (Foreground)
//Storyboard Sound Samples
//Background Colour Transformations
3,100,163,162,255

[TimingPoints]
335,376.692763104199,4,1,0,40,1,0
84714,-100,4,1,0,40,0,1
84909,-100,4,1,0,38,0,1
85285,-100,4,1,0,35,0,1
85662,-100,4,1,0,33,0,1
86039,-100,4,1,0,30,0,1
87545,-100,4,1,0,40,0,1
90741,-100,4,1,0,40,0,0

[Colours]
Combo1 : 232,139,0
Combo2 : 11,132,221
Combo3 : 191,197,1
Combo4 : 54,0,108

[HitObjects]
48,56,335,5,4
184,56,711,1,8
328,56,1088,1,0
464,56,1465,1,8
464,192,1841,5,0
464,192,2030,2,0,B|464:328,4,127.5,8|0|8|0|8
464,192,3348,5,0
328,192,3725,1,8
184,192,4101,1,0
48,192,4478,1,8
48,320,4855,5,0
48,320,5043,2,0,B|176:320,4,127.5,8|0|8|0|8
48,320,6362,5,4
256,192,7115,12,4,9375
456,40,12012,6,0,B|400:40,4,42.5
456,192,12765,5,8
456,120,12954,1,0
456,264,13330,1,0
456,344,13519,1,8
320,344,13895,1,0
184,342,14272,6,8,B|112:331|115:258|115:258|115:207|115:207,2,170,8|0|8
184,272,15214,1,0
320,272,15591,6,0,B|416:272,4,85,0|8|0|0|0
184,272,16721,1,8
184,136,17097,5,0
184,136,17286,2,0,B|268:136,2,85,8|0|8
48,136,18039,1,8
48,136,18227,1,0
48,136,18416,6,4,B|48:320,2,170,4|4|4
184,136,19546,1,8
184,136,19734,1,0
184,136,19923,6,0,B|184:320,2,170,4|4|4
328,136,21053,1,8
328,136,21241,1,0
328,136,21429,6,0,B|328:320,1,170,4|4
464,304,22183,1,8
464,304,22371,2,0,B|464:120,1,170,4|4
464,64,22936,5,0
328,64,23313,1,8
184,64,23689,2,0,B|80:64,2,85,0|0|8
184,200,24443,6,4,B|184:296|184:296|164:328|184:368,3,170,4|4|4|8
256,336,25761,1,0
328,366,25950,6,4,B|348:328|328:296|328:296|328:200,3,170,4|4|4|8
256,232,27268,1,0
256,156,27456,5,2
136,96,27833,1,2
256,32,28210,1,0
256,32,28398,1,2
376,96,28775,1,2
332,164,28963,6,0,B|420:164,2,85,0|0|8
180,164,29717,2,0,B|92:164,2,85,0|0|8
88,264,30470,6,0,L|172:264|172:352|340:352|340:264|424:264,1,510,4|8
424,120,31977,2,0,L|340:120|340:32|172:32|172:120|88:120,1,510,0|8
256,192,33483,12,4,34802
136,352,36120,5,8
136,352,36497,2,0,B|248:192|32:192|144:24,1,340
256,128,37627,1,0
376,37,38004,2,0,B|472:192|264:192|376:352,2,340,0|0|6
256,192,40264,12,8,42147
352,64,42524,5,0
208,64,42901,1,8
280,64,43089,2,0,B|200:232,1,170,0|0
280,216,43654,1,8
416,224,44031,6,0,B|480:264|480:320|416:360,1,170,0|8
376,296,44596,2,0,B|320:240|272:384|200:272,1,170
264,240,45161,2,0,B|192:192|128:264|152:328,1,170,8|0
112,152,45914,6,0,B|112:96|56:96,2,85,8|0|0
240,168,46668,2,0,B|296:112|344:256|416:144,1,170,8|0
336,32,47421,5,8
176,32,47798,1,0
216,96,47986,1,0
256,32,48174,1,8
296,96,48363,1,8
256,160,48551,5,0
152,272,48928,1,8
152,344,49116,2,0,B|320:264,1,170,0|0
304,344,49681,1,8
304,344,49870,6,0,B|136:264,2,170,0|8|0
384,344,50811,2,0,B|464:296,1,85
384,264,51188,2,0,B|304:216,1,85,8|0
384,184,51565,5,0
256,132,51941,2,0,B|256:44,2,85,8|0|0
128,184,52695,1,8
256,192,53071,12,8,54202
48,336,54578,6,0,B|152:344|184:240,1,170,4|8
104,224,55143,1,0
160,176,55332,2,0,B|120:104|16:104,1,170,0|8
32,176,55897,1,0
32,176,56085,6,0,B|128:144|112:40,3,170,0|8|0|8
200,40,57403,1,0
216,120,57592,6,0,B|312:160|368:64,1,170,0|8
416,128,58157,1,0
416,208,58345,2,0,B|312:192|264:272,1,170,0|8
240,336,58910,1,0
267,267,59099,6,0,B|193:207|221:96,3,170,0|8|0|8
296,112,60417,1,0
376,112,60605,5,0
376,272,60982,1,0
296,112,61359,1,0
296,272,61735,1,0
216,112,62112,1,0
216,272,62489,1,0
136,112,62865,1,0
136,272,63242,1,0
256,192,63619,5,6
256,192,64372,12,8,66256
160,320,66632,5,4
304,320,67009,1,8
232,320,67197,2,0,B|312:152,1,170,0|0
232,168,67763,1,8
96,160,68139,6,0,B|32:120|32:64|96:24,1,170,0|8
136,88,68704,2,0,B|192:144|240:0|312:112,1,170
248,144,69269,2,0,B|320:192|384:120|360:56,1,170,8|0
400,232,70023,6,0,B|400:288|456:288,2,85,8|0|0
272,216,70776,2,0,B|216:272|168:128|96:240,1,170,8|0
176,352,71529,5,8
336,352,71906,1,0
296,288,72094,1,0
256,352,72283,1,8
216,288,72471,1,8
256,224,72660,5,0
360,112,73036,1,8
360,40,73225,2,0,B|192:120,1,170,0|0
208,40,73790,1,8
56,40,74166,6,0,B|56:224,1,170,0|8
56,288,74731,1,0
56,288,74920,2,0,B|240:288,1,170,0|8
376,288,75673,5,0
496,192,76050,1,8
496,192,76238,1,0
376,96,76615,1,0
376,96,76803,1,8
256,192,77180,12,4,78687
136,272,84714,5,4
136,112,85090,1,0
216,272,85467,1,0
216,112,85844,1,0
296,272,86220,1,0
296,112,86597,1,0
376,272,86974,1,0
376,112,87351,1,0
256,192,87727,5,6
256,192,88481,12,8,90364
464,328,90741,5,4
328,328,91117,1,8
184,328,91494,1,0
48,328,91871,1,8
48,192,92248,5,0
48,192,92436,2,0,B|48:64,4,127.5,8|0|8|0|8
48,192,93754,5,6
184,192,94131,1,8
328,192,94508,1,0
464,192,94884,1,8
464,56,95261,5,0
464,56,95449,2,0,B|352:168,4,127.5,8|0|8|0|8
464,56,96768,5,4
328,56,97145,1,8
184,56,97521,1,0
48,56,97898,1,8
48,192,98275,5,0
48,192,98463,2,0,B|48:328,4,127.5,8|0|8|0|8
48,192,99781,5,4
184,192,100158,1,8
328,192,100535,1,0
464,192,100911,1,8
464,344,101288,5,0
328,344,101665,1,8
184,344,102042,1,0
48,344,102418,1,8
48,344,102795,5,6
256,192,103548,12,4,105808
