osu file format v13

[General]
AudioFilename: 07 - Polar.mp3
AudioLeadIn: 0
PreviewTime: 21000
Countdown: 0
SampleSet: Normal
StackLeniency: 0.7
Mode: 0
LetterboxInBreaks: 1
WidescreenStoryboard: 0

[Editor]
Bookmarks: 41225,96642,102453,29704,38211,27765
DistanceSpacing: 0.7
BeatDivisor: 2
GridSize: 8
TimelineZoom: 1

[Metadata]
Title:Polar
TitleUnicode:Polar
Artist:Mutato Muzika
ArtistUnicode:Mutato Muzika
Creator:Oddasat90
Version:Easy
Source:Crash Bandicoot 2: Cortex Strikes Back
Tags:Iz-Ko Totally Bear It Down
BeatmapID:197390
BeatmapSetID:68128

[Difficulty]
HPDrainRate:1
CircleSize:2
OverallDifficulty:1
ApproachRate:2
SliderMultiplier:1
SliderTickRate:1

[Events]
//Background and Video events
0,0,"Polar_Wallpaper_by_E_122_Psi.jpg",0,0
//Break Periods
2,60200,64440
//Storyboard Layer 0 (Background)
//Storyboard Layer 1 (Fail)
//Storyboard Layer 2 (Pass)
//Storyboard Layer 3 (Foreground)
//Storyboard Sound Samples

[TimingPoints]
2,375,4,1,0,30,1,0
48000,375,4,1,0,30,1,1
60000,375,4,1,0,30,1,0

[Colours]
Combo1 : 216,216,216
Combo2 : 0,0,128
Combo3 : 82,68,253
Combo4 : 128,102,232
Combo5 : 170,232,244

[HitObjects]
200,128,6002,6,8,P|144:176|152:248,1,150
256,248,7127,1,8,0:0:0:0:
320,224,7502,1,8,0:0:0:0:
96,56,9002,6,0,L|224:56,2,100
96,128,10127,1,0,0:0:0:0:
96,200,10502,2,0,L|224:200,2,100
96,272,11627,1,0,0:0:0:0:
168,272,12002,5,8,0:0:0:0:
272,288,12564,1,8,0:0:0:0:
376,304,13127,2,8,L|440:304|504:304,1,100
280,104,15002,6,0,L|408:104,1,100
448,120,15752,2,0,P|448:224|432:240,1,100
392,248,16502,2,0,B|344:280|344:280|272:256,1,100
240,296,17252,2,0,B|168:296|168:296|168:248,1,100
152,200,18002,6,0,L|24:200,1,100
24,136,18752,2,0,P|40:80|104:72,1,100
144,80,19502,2,0,P|208:104|192:152,1,100
264,168,20252,2,0,B|328:168|328:168|368:216,1,100
336,264,21002,5,8,0:0:0:0:
264,264,21377,1,8,0:0:0:0:
192,264,21752,1,8,0:0:0:0:
104,208,22314,2,8,L|104:336,1,100
176,304,23064,2,8,L|240:304,1,50
296,304,23627,1,8,0:0:0:0:
352,264,24002,6,8,L|352:152,2,100
296,176,25314,2,8,L|168:176,2,100
328,168,26252,2,8,P|360:160|424:168,2,50
256,192,27002,12,4,29252,0:0:0:0:
144,120,30002,6,0,P|88:176|144:312,3,200
224,208,33002,2,0,B|320:168|320:168|456:208,1,200
336,312,34502,2,0,B|240:360|240:360|128:312,1,200
168,184,36002,6,0,B|96:184|96:184|40:144,2,100
240,184,37127,1,8,0:0:0:0:
304,216,37502,2,0,B|364:215|364:215|424:256,2,100,0|0|4,0:0|0:0|0:0,0:0:0:0:
288,72,39002,6,2,P|480:72|480:168,1,300,0|0,0:0|0:0,0:0:0:0:
488,200,40502,2,8,L|488:328,2,100,0|0|4,0:0|0:0|0:0,0:0:0:0:
352,168,42002,6,2,B|224:128|224:128|248:384,1,350
144,320,43877,1,8,0:0:0:0:
144,256,44252,1,12,0:0:0:0:
280,208,45002,6,2,P|184:136|328:48,1,350,2|2,0:0|0:0,0:0:0:0:
432,64,46877,1,8,0:0:0:0:
432,136,47252,1,12,0:0:0:0:
296,168,48000,37,8,0:0:0:0:
224,168,48375,1,8,0:0:0:0:
152,168,48750,1,8,0:0:0:0:
16,200,49500,2,2,P|40:248|16:328,2,100
136,128,51000,5,8,0:0:0:0:
192,168,51375,1,8,0:0:0:0:
248,208,51750,1,8,0:0:0:0:
384,176,52500,2,2,P|360:128|384:48,2,100
248,208,54000,6,0,P|296:304|456:256,1,300,0|8,0:0|0:0,0:0:0:0:
400,216,55500,1,0,0:0:0:0:
360,160,55875,1,0,0:0:0:0:
400,104,56250,1,0,0:0:0:0:
336,80,56625,1,8,0:0:0:0:
280,120,57000,22,0,L|176:120,3,100,0|0|0|8,0:0|0:0|0:0|0:0,0:0:0:0:
112,120,58500,1,0,0:0:0:0:
136,184,58875,1,0,0:0:0:0:
88,232,59250,1,0,0:0:0:0:
120,296,59625,2,0,P|168:296|200:376,1,100,0|12,0:0|0:0,0:0:0:0:
256,80,66000,6,0,P|352:208|280:328,1,300
232,288,67500,2,0,L|152:288,4,50
232,216,68625,1,2,0:0:0:0:
160,216,69000,5,0,0:0:0:0:
56,200,69562,2,0,L|56:96,1,100
160,112,70500,2,2,P|224:72|168:64,1,150
96,40,71625,1,0,0:0:0:0:
56,96,72000,6,2,P|-8:224|120:288,1,300
176,288,73500,1,8,0:0:0:0:
248,288,73875,1,8,0:0:0:0:
312,256,74250,1,4,0:0:0:0:
240,136,75000,6,2,P|368:72|400:200,1,300
416,256,76500,1,8,0:0:0:0:
344,256,76875,1,8,0:0:0:0:
288,216,77250,1,4,0:0:0:0:
152,184,78000,6,0,P|128:144|152:56,2,100,0|0|8,0:0|0:0|0:0,0:0:0:0:
216,152,79125,1,0,0:0:0:0:
288,152,79500,2,0,P|312:200|288:280,2,100,0|0|8,0:0|0:0|0:0,0:0:0:0:
312,88,80625,1,0,0:0:0:0:
384,88,81000,2,0,P|424:112|472:56,2,100,0|0|8,0:0|0:0|0:0,0:0:0:0:
352,152,82125,1,0,0:0:0:0:
304,200,82500,2,0,P|248:224|216:184,2,100,0|0|8,0:0|0:0|0:0,0:0:0:0:
344,256,83625,1,4,0:0:0:0:
256,192,84000,12,4,88500,0:0:0:0:
72,96,90000,5,8,0:0:0:0:
176,96,90562,2,0,L|304:96,1,100
384,96,91500,1,8,0:0:0:0:
384,168,91875,1,8,0:0:0:0:
384,240,92250,1,8,0:0:0:0:
384,312,92625,1,8,0:0:0:0:
320,280,93000,5,8,0:0:0:0:
216,272,93562,2,0,P|152:304|88:272,1,100
120,192,94500,1,8,0:0:0:0:
48,192,94875,1,8,0:0:0:0:
40,120,95250,2,0,L|168:120,1,100
208,104,96000,5,8,0:0:0:0:
312,104,96562,2,0,L|416:104,1,100
512,136,97500,1,8,0:0:0:0:
512,208,97875,1,8,0:0:0:0:
440,208,98250,1,8,0:0:0:0:
368,208,98625,1,8,0:0:0:0:
368,280,99000,5,8,0:0:0:0:
264,280,99562,2,0,L|264:176,1,100
160,176,100500,1,8,0:0:0:0:
112,128,100875,1,8,0:0:0:0:
144,64,101250,2,0,L|248:64,1,100
312,64,102000,5,4,0:0:0:0:
