osu file format v9

[General]
AudioFilename: Crash Bandicoot 3 - Dingodile Boss Music.mp3
AudioLeadIn: 0
PreviewTime: 10591
Countdown: 1
SampleSet: Normal
StackLeniency: 0.7
Mode: 0
LetterboxInBreaks: 1
CountdownOffset: 1

[Editor]
DistanceSpacing: 1
BeatDivisor: 2
GridSize: 4

[Metadata]
Title:Dingodile
Artist:Mutato Muzika
Creator:silver327
Version:Tiny Tiger
Source:Crash Bandicoot 3: Warped
Tags:Naughty Dog SCEE Sony Computer Entertainment Europe PS Playstation

[Difficulty]
HPDrainRate:3
CircleSize:4
OverallDifficulty:4
ApproachRate:4
SliderMultiplier:0.899999999999999
SliderTickRate:2

[Events]
//Background and Video events
0,0,"Tiny_Wallpaper_High_Res_by_E_122_Psi.PNG"
//Break Periods
2,44598,47885
2,68628,72215
//Storyboard Layer 0 (Background)
//Storyboard Layer 1 (Fail)
//Storyboard Layer 2 (Pass)
//Storyboard Layer 3 (Foreground)
//Storyboard Sound Samples
//Background Colour Transformations
3,100,0,128,255

[TimingPoints]
1145,300.375469336671,4,1,0,81,1,0
63623,-100,4,1,0,81,0,1
68429,-100,4,1,0,81,0,0

[Colours]
Combo1 : 0,223,0
Combo2 : 255,150,6
Combo3 : 162,89,9
Combo4 : 248,40,0

[HitObjects]
228,264,5951,37,8
228,128,6551,2,2,B|108:128,1,89.9999999999999
48,132,7152,1,10
48,312,7753,1,10
136,312,8053,1,2
140,220,8354,6,2,B|52:220,1,89.9999999999999,0|10
48,132,8954,2,2,B|140:132,1,89.9999999999999
216,180,9555,2,2,B|216:276,4,89.9999999999999
308,176,11057,6,2,B|372:156|376:216|452:172,1,135
336,92,11958,1,8
248,92,12258,1,8
156,92,12559,2,2,B|48:92,1,89.9999999999999,2|8
32,268,13460,6,0,B|120:356,1,89.9999999999999,2|8
184,332,14061,2,0,B|276:240,1,89.9999999999999,2|8
384,272,14812,2,4,B|416:280|416:296|432:296|432:280|500:260,1,89.9999999999999,4|8
240,280,15863,6,2,B|284:328|236:356|140:344,1,135
116,220,16764,1,8
120,40,17365,1,8
60,304,18266,6,2,B|120:260|204:276|248:336,1,180
316,304,19167,2,2,B|180:188,1,180,2|10
184,96,20068,2,0,B|260:160,1,89.9999999999999,2|8
64,192,20969,5,8
260,196,21570,2,0,B|344:80,1,135
460,28,22471,2,2,B|532:128,1,89.9999999999999,10|0
432,264,23372,2,0,B|388:200|388:200|296:292|296:292|248:236,1,270
140,108,24874,2,8,B|208:188,1,89.9999999999999
200,268,25475,5,8
320,132,26076,1,0
320,220,26376,1,0
320,308,26676,1,0
224,156,27277,2,2,B|40:156,1,180
210,90,28479,6,4,B|302:90,4,89.9999999999999,8|4|4|4|4
324,228,30281,2,2,B|132:228,1,180,2|10
144,48,31482,2,2,B|340:48,1,180,2|10
188,164,32684,2,2,B|288:164,3,89.9999999999999,2|10|2|10
256,296,34036,2,2,B|176:376|176:376|72:272,1,225,2|10
160,232,35087,6,2,B|192:136|192:136|224:168|256:136|256:136|288:232,1,270
280,316,36288,2,8,B|225:317|225:317|225:381|225:381|153:381,1,180
152,200,37490,2,2,B|276:200,1,89.9999999999999,2|2
332,200,38091,2,2,B|332:344,1,135,2|2
244,324,38842,2,4,B|196:348|116:356,1,89.9999999999999
60,284,39593,6,8,B|60:196,1,89.9999999999999
144,228,40193,2,8,B|244:228,1,89.9999999999999
312,184,40794,2,10,B|311:289,1,89.9999999999999
232,228,41395,2,10,B|141:229,1,89.9999999999999
264,96,42296,6,0,B|328:32,1,89.9999999999999,2|8
364,116,42897,2,0,B|364:236,1,89.9999999999999,2|8
284,244,43497,2,0,B|352:312,1,89.9999999999999,2|8
280,368,44098,2,0,B|200:288,1,89.9999999999999,2|4
256,192,49205,6,8,B|132:192,1,89.9999999999999
168,120,49805,2,2,B|116:120,2,45
256,120,50406,6,8,B|380:120,1,89.9999999999999
344,192,51007,2,2,B|396:192,2,45
256,192,51608,12,4,53710
256,248,54011,6,0,B|190:182,3,89.9999999999999,2|8|2|8
280,168,55212,2,0,B|346:102,3,89.9999999999999,2|8|2|8
280,168,56414,6,8,B|156:168,1,89.9999999999999
196,248,57014,2,2,B|144:248,2,45
288,244,57615,6,8,B|412:244,1,89.9999999999999
348,160,58216,2,2,B|400:160,2,45
256,160,58817,2,2,B|72:160,1,180
68,340,60018,1,8
248,340,60619,1,8
252,160,61220,2,2,B|348:160,2,89.9999999999999
436,156,62421,1,8
436,68,62721,1,10
360,112,63022,1,8
272,112,63322,1,10
256,24,63623,6,8,B|224:36|164:84|120:160|96:256|92:328,1,360,8|10
228,328,65275,1,4
452,328,66026,2,2,B|508:288|488:220,2,89.9999999999999
360,332,66927,1,0
359,242,67227,2,2,B|335:219|301:219|276:242,4,89.9999999999999,2|2|2|2|4
224,256,73535,6,0,B|132:256,1,89.9999999999999,2|8
132,176,74136,2,0,B|224:176,1,89.9999999999999,2|8
220,96,74736,2,0,B|40:96,1,180,2|8
36,188,75638,1,4
288,256,75938,6,0,B|380:256,1,89.9999999999999,2|8
380,176,76539,2,0,B|288:176,1,89.9999999999999,2|8
292,96,77139,2,0,B|424:96,1,89.9999999999999,2|8
428,96,77590,2,2,B|428:184,1,89.9999999999999
428,232,78041,1,8
256,192,78191,12,4,82847
