osu file format v9

[General]
AudioFilename: Crash Bandicoot 3 - Dingodile Boss Music.mp3
AudioLeadIn: 0
PreviewTime: 10591
Countdown: 1
SampleSet: Normal
StackLeniency: 0.4
Mode: 0
LetterboxInBreaks: 1
CountdownOffset: 1

[Editor]
DistanceSpacing: 1
BeatDivisor: 2
GridSize: 4

[Metadata]
Title:Dingodile
Artist:Mutato Muzika
Creator:silver327
Version:Evil Crash
Source:Crash Bandicoot 3: Warped
Tags:Naughty Dog SCEE Sony Computer Entertainment Europe PS Playstation

[Difficulty]
HPDrainRate:6
CircleSize:5
OverallDifficulty:5
ApproachRate:5
SliderMultiplier:0.999999999999999
SliderTickRate:2

[Events]
//Background and Video events
0,0,"Nega_Crash_Wallpaper_by_E_122_Psi.png"
//Break Periods
2,44598,48005
2,68628,72335
//Storyboard Layer 0 (Background)
//Storyboard Layer 1 (Fail)
//Storyboard Layer 2 (Pass)
//Storyboard Layer 3 (Foreground)
//Storyboard Sound Samples
//Background Colour Transformations
3,100,0,128,255

[TimingPoints]
1145,300.375469336671,4,1,0,81,1,0
63623,-100,4,1,0,81,0,1
68429,-100,4,1,0,81,0,0

[Colours]
Combo1 : 49,49,49
Combo2 : 213,0,0
Combo3 : 102,0,0
Combo4 : 244,244,0
Combo5 : 89,1,254

[HitObjects]
240,260,5951,37,8
240,212,6101,2,2,B|240:108,2,99.9999999999999
340,216,7002,2,10,B|404:280,1,50,10|2
424,252,7302,2,2,B|424:148,1,99.9999999999999,2|10
424,52,7903,2,2,B|316:52,1,99.9999999999999
272,52,8354,6,2,B|220:52,1,50,0|10
224,152,8804,2,2,B|224:264,3,99.9999999999999
272,256,9855,5,8
324,256,10006,2,2,B|324:200,2,50
324,304,10456,2,2,B|324:360,2,50
412,252,11057,6,2,B|412:188|412:188|388:164|388:164|328:164,1,150
284,164,11658,1,8
212,80,11958,2,0,B|120:40,1,99.9999999999999,2|8
48,112,12559,2,0,B|16:131|48:150,2,50,2|2|8
64,304,13460,2,0,B|128:328|128:272|200:336,1,99.9999999999999,2|8
248,352,14061,2,0,B|312:376|312:320|384:384,1,99.9999999999999,2|8
396,356,14511,1,8
348,268,14812,2,4,B|388:276|388:292|404:292|404:276|460:260,1,99.9999999999999,4|8
340,36,15863,6,2,B|400:48|432:20|396:-24|368:24|408:56|468:36,1,150,2|8
328,120,16764,2,2,B|256:140|236:36,2,99.9999999999999
84,292,18266,6,2,B|164:352,1,99.9999999999999,2|10
84,292,18867,2,2,B|172:232,1,99.9999999999999,2|10
84,292,19467,2,2,B|-28:368,1,99.9999999999999,2|10
84,292,20068,2,0,B|-12:216,1,99.9999999999999,2|8
204,208,20969,5,8
4,176,21570,2,2,B|81:99,1,99.9999999999999,2|0
164,124,22171,1,8
260,104,22471,2,2,B|337:181,1,99.9999999999999,2|0
176,48,23372,2,0,B|176:126|176:126|37:126|37:126|36:227,1,300
236,208,24874,2,8,B|344:208,1,99.9999999999999
292,116,25475,6,8,B|396:116,1,99.9999999999999
492,108,26076,2,2,B|440:24,1,99.9999999999999,2|8
492,108,26676,2,0,B|436:216,1,99.9999999999999,2|8
348,172,27277,2,2,B|372:192|344:240,2,50
248,192,27878,2,8,B|148:192,1,99.9999999999999
200,104,28479,2,0,B|100:104,5,99.9999999999999,6|4|6|4|6|4
56,192,30281,37,8
156,192,30581,1,2
256,192,30882,1,2
256,92,31182,2,2,B|256:40,3,50
340,92,31933,2,8,B|340:144,1,50
340,192,32233,1,8
256,316,32684,6,2,B|156:316,1,99.9999999999999
156,268,33134,1,8
196,236,33285,1,2
148,148,33585,2,2,B|108:104|152:52,3,99.9999999999999
232,108,34787,1,10
300,184,35087,22,2,B|268:280|172:248|172:216|172:184|76:152|44:248,1,300,2|10
92,328,36288,2,2,B|244:328,1,150
292,328,36889,1,8
304,128,37490,6,2,B|188:128,1,99.9999999999999,2|2
128,176,38091,2,0,B|128:276,1,99.9999999999999,2|8
284,340,38842,2,4,B|312:356|380:308,1,99.9999999999999
228,236,39593,22,0,B|198:196|198:196|242:135,1,99.9999999999999
308,76,40193,2,0,B|348:46|348:46|409:90,1,99.9999999999999
484,156,40794,2,2,B|514:196|514:196|470:257,1,99.9999999999999,2|2
388,300,41395,2,2,B|348:330|348:330|287:286,1,99.9999999999999
212,36,42296,6,2,B|100:148,1,150,2|10
106,142,42897,2,2,B|218:254,1,150,2|10
212,248,43497,2,2,B|364:248,1,150,2|10
362,248,44098,2,2,B|370:197|370:197|426:158,1,99.9999999999999,2|6
264,112,49205,6,8,B|144:112,1,99.9999999999999
136,32,49805,2,0,B|72:32|72:32,1,50,2|8
136,32,50106,2,0,B|200:32|200:32,1,50,2|8
232,40,50406,6,8,B|352:40,1,99.9999999999999
360,120,51007,2,0,B|420:120|420:120,1,50,2|8
360,120,51307,2,0,B|300:120|300:120,1,50,2|8
256,192,51608,12,4,53710
192,216,54011,38,0,B|283:125,1,99.9999999999999,8|2
168,120,54611,2,0,B|71:23,1,99.9999999999999,8|2
112,152,55212,2,0,B|29:234,1,99.9999999999999,8|2
144,232,55813,2,0,B|240:326,1,99.9999999999999,8|2
256,208,56414,38,8,B|256:72,1,99.9999999999999
328,104,57014,2,0,B|328:164|328:164,1,50,2|8
328,104,57315,2,0,B|328:48|328:48,1,50,2|8
256,104,57615,6,8,B|256:232,1,99.9999999999999
184,208,58216,2,0,B|184:264|184:264,1,50,2|8
184,208,58516,2,0,B|184:148|184:148,1,50,2|8
184,108,58817,1,8
284,108,59117,2,2,B|356:108|356:180,1,99.9999999999999
304,348,60018,1,8
240,284,60318,1,2
304,220,60619,1,8
240,156,60919,1,2
340,152,61220,6,2,B|392:152|392:152|392:88,1,99.9999999999999
292,108,61820,2,2,B|240:108|240:108|240:172,1,99.9999999999999
152,104,62421,2,2,B|152:132|152:132|104:132|104:132|104:172,1,99.9999999999999
28,92,63022,2,2,B|28:44,2,50,2|2|10
28,192,63623,6,0,B|-13:211|-13:227|-13:243|19:259|51:275,2,99.9999999999999,8|2|2
120,226,64524,2,0,B|184:226,4,50,2|8|8|8|2
120,176,65275,2,0,B|128:128|176:96|240:80|312:88|360:96,1,250,6|8
288,176,66326,2,2,B|216:248,1,99.9999999999999,2|8
120,296,66927,2,0,B|56:296,3,50,8|8|2|2
72,240,67527,2,0,B|72:192,4,50,8|2|2|2|8
72,296,68278,2,0,B|144:296,1,50,8|4
224,32,73535,6,2,B|224:84|224:84|168:84,1,99.9999999999999
80,128,74286,2,0,B|32:128,1,50,2|8
80,192,74586,2,0,B|136:192,1,50,2|8
80,256,74887,2,0,B|24:256,1,50,2|8
32,192,75187,1,2
36,92,75487,1,4
288,32,75938,6,2,B|288:84|288:84|344:84,1,99.9999999999999
432,128,76689,2,0,B|480:128,1,50,2|8
432,192,76989,2,0,B|376:192,1,50,2|8
432,256,77290,2,0,B|488:256,1,50,2|8
432,320,77590,2,2,B|368:320,2,50
256,192,78041,12,4,82847
