osu file format v9

[General]
AudioFilename: Crash Bandicoot 3 - Dingodile Boss Music.mp3
AudioLeadIn: 0
PreviewTime: 10693
Countdown: 1
SampleSet: Normal
StackLeniency: 0.4
Mode: 0
LetterboxInBreaks: 1

[Editor]
DistanceSpacing: 1.1
BeatDivisor: 2
GridSize: 4

[Metadata]
Title:Dingodile
Artist:Mutato Muzika
Creator:silver327
Version:Dingodile
Source:Crash Bandicoot 3: Warped
Tags:Naughty Dog SCEE Sony Computer Entertainment Europe PS Playstation

[Difficulty]
HPDrainRate:7
CircleSize:5
OverallDifficulty:8
ApproachRate:8
SliderMultiplier:1.3
SliderTickRate:2

[Events]
//Background and Video events
0,0,"Dingodile_Wallpaper_by_E_122_Psi.png"
//Break Periods
2,44599,48455
2,68478,72785
//Storyboard Layer 0 (Background)
//Storyboard Layer 1 (Fail)
//Storyboard Layer 2 (Pass)
//Storyboard Layer 3 (Foreground)
//Storyboard Sound Samples
//Background Colour Transformations
3,100,0,128,255

[TimingPoints]
1145,300.375469336671,4,1,0,81,1,0
63623,-100,4,1,0,81,0,1
68278,-100,4,1,0,81,0,0

[Colours]
Combo1 : 0,183,0
Combo2 : 128,64,0
Combo3 : 249,199,142
Combo4 : 248,40,0
Combo5 : 128,128,128

[HitObjects]
256,260,5951,1,8
256,192,6101,1,2
256,48,6401,1,2
256,192,6701,1,2
400,192,7002,1,8
472,192,7152,1,2
472,264,7302,1,8
476,120,7603,1,2
332,120,7903,1,2
404,120,8053,1,2
404,48,8203,1,2
332,48,8354,5,8
260,48,8504,1,2
256,192,8804,1,2
260,48,9104,1,2
324,176,9405,1,8
288,116,9555,1,2
220,136,9705,1,2
204,68,9855,5,8
132,64,10006,1,2
132,100,10081,1,0
132,136,10156,1,2
60,140,10306,1,8
52,212,10456,1,2
112,252,10606,1,8
112,324,10757,1,8
256,312,11057,6,0,B|208:252|324:224|248:116,1,195,2|2
52,60,11958,1,8
64,204,12258,1,8
112,336,12559,2,0,B|152:344|188:300,4,65,2|2|2|8|8
216,236,13460,6,0,B|264:260|308:240,1,65,2|0
308,184,13760,2,2,B|352:212|392:188,1,65
440,188,14061,2,0,B|480:148|452:100,4,65,2|2|2|2|8
420,256,14812,2,2,B|359:317|447:317|383:381,1,130
332,328,15262,1,2
116,136,15863,6,0,B|81:169|27:251|131:351,1,195,10|10
344,188,16764,2,2,B|276:152,2,65
256,220,17215,1,8
168,248,17365,2,2,B|236:284,3,65
328,76,18266,6,0,B|380:68|424:108,1,65,2|0
356,148,18566,2,0,B|408:136|456:200,1,65,2|0
372,216,18867,2,0,B|420:208|456:300,1,65,2|0
376,296,19167,2,2,B|316:348,3,65,8|2|2|2
312,264,19768,2,0,B|264:220,1,65,2|8
216,176,20068,2,0,B|264:220,1,65,2|8
316,176,20369,6,8,B|404:148|372:124|300:128,1,130,4|8
240,108,20819,1,8
172,92,20969,2,0,B|120:52|120:52|56:100,1,130,4|8
144,212,21570,2,0,B|176:254|177:308|127:364|61:372,1,195,10|8
224,332,22321,1,8
296,332,22471,1,2
296,260,22621,1,2
296,188,22772,6,8,B|232:188|232:188|232:112,1,130,4|8
304,128,23222,1,8
308,56,23372,2,0,B|372:56|372:56|372:148,1,130,4|8
428,252,23973,1,8
384,308,24123,1,8
320,340,24273,1,2
248,352,24424,1,2
112,308,24724,2,10,B|60:280|84:212,1,65
84,116,25175,6,8,B|112:76|184:132,2,65
80,180,25625,1,8
220,160,25925,2,0,B|252:140|252:140|252:76,2,65,8|2|2
172,212,26376,1,2
140,276,26526,1,2
120,304,26601,1,2
140,332,26676,1,2
208,356,26827,1,8
276,188,27127,5,8
340,156,27277,2,0,B|308:136|308:136|308:72,2,65,0|2|2
340,192,27653,1,0
340,228,27728,1,2
336,300,27878,2,0,B|404:300,1,65,2|10
476,176,28328,5,8
420,128,28479,2,8,B|412:92|372:88,1,65
304,80,28779,2,2,B|280:58|280:58|216:114,3,65
224,144,29380,1,8
204,212,29530,1,2
228,280,29680,2,2,B|252:304|292:300,1,65
476,200,30281,5,2
332,200,30581,1,8
188,200,30882,2,2,B|140:184|196:144,3,65,2|2|2|10
256,156,31482,1,8
328,156,31633,1,2
296,300,31933,1,2
368,300,32083,1,2
440,300,32233,1,8
152,300,32684,21,8
52,196,32984,1,8
172,116,33285,2,2,B|220:100|164:60,4,65
104,96,34036,1,8
248,104,34336,1,2
284,104,34411,1,2
320,104,34486,1,2
324,140,34561,1,2
288,140,34636,1,2
252,140,34711,1,2
80,192,35087,2,0,B|144:288|240:288|304:164,1,260
432,192,35988,5,8
428,48,36288,1,8
284,52,36589,1,2
248,112,36739,1,10
320,112,36889,1,10
456,364,37490,6,0,B|528:320,2,65,8|2|10
404,316,37940,1,2
352,264,38091,2,0,B|296:296,1,65,8|2
252,240,38391,2,0,B|188:272,1,65,2|2
176,96,38842,2,2,B|176:232,1,130,6|10
380,160,39593,6,0,B|452:160|452:160|452:224|452:224|360:224,1,195
316,192,40193,1,0
252,224,40343,2,0,B|188:224|188:224|188:164|188:164|264:164,1,195
120,192,41094,2,2,B|76:212|20:188|-4:148,3,130
112,64,42296,6,8,B|52:32|4:76,1,65
36,120,42596,2,8,B|103:123|122:185,1,65
160,172,42897,1,8
216,216,43047,2,0,B|160:264|164:264,2,65,2|2|2
288,220,43497,2,0,B|336:272,3,65,0|2|0|2
396,232,44098,2,0,B|348:180,1,65,8|2
396,232,44399,1,6
308,360,49205,6,0,B|241:345|288:263,1,65
234,254,49505,2,0,B|167:239|214:157,1,65,0|0
292,204,49805,2,8,B|225:189|272:107,1,65,10|8
218,98,50106,2,8,B|151:83|198:1,1,65,2|0
244,28,50406,6,0,B|310:42|263:124,1,65
318,134,50706,2,0,B|384:148|337:230,1,65,0|0
260,184,51007,2,0,B|326:198|279:280,1,65,10|0
334,290,51307,2,0,B|400:304|353:386,1,65,10|0
300,344,51608,6,0,B|158:381|145:237|145:237,1,195,4|0
96,196,52208,1,0
96,52,52509,1,0
240,52,52809,2,0,B|328:32|392:44|444:92,1,195,4|0
432,220,53560,1,8
432,256,53635,1,0
432,292,53710,1,8
288,284,54011,6,0,B|280:328|228:340,2,65,2|0|2
288,212,54461,2,0,B|296:168|348:156,3,65,0|2|0|2
364,224,55062,2,0,B|408:204|428:128,7,65,0|2|0|2|0|2|0|2
372,40,56414,6,0,B|416:8|488:80,1,130
416,96,56864,1,0
396,128,56939,1,0
380,156,57014,1,8
276,256,57315,1,4
180,360,57615,6,0,B|136:392|76:308,1,130
148,292,58066,1,0
172,268,58141,1,0
196,240,58216,1,8
276,120,58516,1,4
276,256,58817,5,8
420,264,59117,2,2,B|476:208|408:140,2,130
328,152,60018,1,8
256,152,60168,1,2
256,224,60318,1,2
328,224,60469,1,2
476,224,60769,2,2,B|476:260,4,32.5
472,152,61220,5,8
400,152,61370,1,2
328,152,61520,1,2
256,152,61670,1,2
256,296,61971,1,8
256,224,62121,1,8
376,300,62421,37,8
372,228,62571,1,2
300,232,62721,1,2
300,160,62872,1,2
296,16,63172,1,8
296,88,63322,1,8
160,44,63623,38,0,B|116:68|80:128|112:184,1,130,8|2
140,288,64223,2,0,B|172:344|212:364|304:332,1,130,8|2
312,324,64674,2,0,B|360:276,3,65,2|0|2|2
404,224,65275,2,4,B|465:275,1,65,4|0
404,224,65575,2,8,B|342:297,1,65
404,224,65875,2,0,B|404:152,1,65,2|8
400,16,66326,37,10
256,20,66626,1,2
256,164,66927,2,0,B|160:260,2,130,8|2|8
328,164,67678,2,2,B|388:228,2,65,8|2|8
400,152,68128,2,8,B|440:136|460:100,1,65,2|6
60,332,73535,54,0,B|104:348|116:296,1,65,2|8
132,240,73835,1,8
144,168,73986,2,0,B|180:204|244:136,1,65,2|0
260,124,74286,1,8
292,60,74436,2,0,B|324:32|360:64,1,65,2|2
388,120,74736,2,0,B|420:96|452:120,1,65,2|2
448,188,75037,2,0,B|416:224|360:164,1,65,10|10
320,196,75337,1,2
320,232,75412,1,2
320,268,75487,1,2
320,304,75563,1,2
320,340,75638,1,4
492,332,75938,22,0,B|448:348|436:296,1,65,2|8
420,240,76238,1,8
408,168,76389,2,0,B|372:204|308:136,1,65,2|0
292,124,76689,1,8
260,60,76839,2,0,B|228:32|192:64,1,65,2|2
164,120,77139,2,0,B|132:96|100:120,1,65,2|2
104,188,77440,2,0,B|136:224|192:164,1,65,10|10
232,192,77740,1,2
256,192,77815,1,2
292,192,77890,1,2
328,192,77966,1,2
256,192,78041,12,4,78942
256,192,79092,12,4,80143
256,192,80293,12,4,81345
256,192,81495,12,4,82546
256,192,82847,21,4
