osu file format v9

[General]
AudioFilename: Crash Bandicoot 3 - Dingodile Boss Music.mp3
AudioLeadIn: 0
PreviewTime: 10591
Countdown: 1
SampleSet: Normal
StackLeniency: 0.4
Mode: 0
LetterboxInBreaks: 1
CountdownOffset: 1

[Editor]
DistanceSpacing: 0.9
BeatDivisor: 2
GridSize: 4

[Metadata]
Title:Dingodile
Artist:Mutato Muzika
Creator:silver327
Version:Crunch
Source:Crash Bandicoot 3: Warped
Tags:Naughty Dog SCEE Sony Computer Entertainment Europe PS Playstation

[Difficulty]
HPDrainRate:1
CircleSize:4
OverallDifficulty:1
ApproachRate:1
SliderMultiplier:0.699999999999999
SliderTickRate:1

[Events]
//Background and Video events
0,0,"Crunch_Wallpaper_High_Res_by_E_122_Psi.png"
//Break Periods
2,44598,47525
2,68629,71855
//Storyboard Layer 0 (Background)
//Storyboard Layer 1 (Fail)
//Storyboard Layer 2 (Pass)
//Storyboard Layer 3 (Foreground)
//Storyboard Sound Samples
//Background Colour Transformations
3,100,204,102,0

[TimingPoints]
1145,300.375469336671,4,1,0,81,1,0
63623,-100,4,1,0,81,0,1
68429,-100,4,1,0,81,0,0

[Colours]
Combo1 : 0,128,89
Combo2 : 137,1,86
Combo3 : 252,238,190
Combo4 : 79,39,0

[HitObjects]
200,44,5951,54,0,B|200:184,1,140
176,308,7152,2,0,B|251:308|251:308|251:236,1,140
128,220,8354,2,0,B|24:324,4,140
196,224,11057,6,2,B|224:252|258:267|285:255|310:232|338:201,1,140
256,188,11958,2,8,B|256:48,1,140
84,124,13460,2,2,B|84:336,1,210
180,332,14812,2,4,B|276:332,1,69.9999999999999
200,144,15863,6,2,B|200:184|200:184|136:184|136:184|136:232,1,140
168,272,16764,2,2,B|196:301|196:333|148:349|132:349|116:349|68:333|68:301|103:274,1,210
212,220,18266,6,2,B|152:160|152:128|152:96|216:32|280:32|344:96|344:128|344:160|274:229,1,419.999999999999
248,280,20369,6,8,B|292:312|292:312|324:276|324:276|368:308,2,140,8|8|8
176,280,21870,1,2
48,284,22471,1,2
48,212,22772,2,8,B|48:168|48:168|104:168|104:168|104:116,2,140
48,284,24273,1,2
176,280,24874,1,8
224,220,25175,6,0,B|180:176|252:144,1,69.9999999999999,2|8
256,32,26076,1,8
288,96,26376,2,0,B|344:80|376:104,1,69.9999999999999,2|8
292,196,27277,5,8
360,216,27578,2,0,B|404:248|404:276,1,69.9999999999999,2|8
296,328,28479,1,8
240,284,28779,2,2,B|188:232,4,69.9999999999999,2|0|0|0|2
304,284,30281,6,2,B|304:140,3,140
428,140,32684,2,2,B|428:300,3,140
336,192,35087,22,2,B|264:144|200:232|124:160,1,210
8,180,36589,1,8
108,340,37490,2,2,B|140:364|184:336,2,69.9999999999999,10|2|10
44,348,38391,2,0,B|44:280,1,69.9999999999999,0|8
44,216,38992,2,4,B|44:148,1,69.9999999999999
168,160,39893,5,0
224,188,40193,1,8
280,164,40494,1,0
340,184,40794,1,8
344,248,41094,2,2,B|320:276|320:276|356:308,2,69.9999999999999
256,340,42296,6,0,B|224:360|164:332,1,69.9999999999999,2|8
220,288,42897,2,0,B|176:304|132:280,1,69.9999999999999,2|8
188,236,43497,2,0,B|136:264|108:216,1,69.9999999999999,2|8
152,180,44098,2,2,B|116:156|84:180,1,69.9999999999999,2|6
56,344,49205,6,0,B|56:236|56:236|160:236,1,210,0|2
224,236,50406,2,0,B|224:128|224:128|124:128,1,210,0|2
96,72,51608,2,2,B|236:72,1,140
364,72,52809,2,2,B|364:220,1,140,2|6
256,276,54011,6,0,B|256:208,1,69.9999999999999,8|2
256,144,54611,2,0,B|176:144,1,69.9999999999999,8|2
188,208,55212,2,0,B|188:276,1,69.9999999999999,8|2
188,340,55813,2,0,B|264:340,1,69.9999999999999,8|2
256,276,56414,6,8,B|256:220|256:220|304:220|304:220|304:184,1,140
304,60,57615,2,8,B|253:61|253:61|253:109|253:109|209:109,1,140
316,180,58817,2,2,B|316:272|316:272|216:272|216:272|216:160,1,280
264,144,60318,1,8
136,0,61220,2,2,B|92:44|92:44|144:96|144:96|88:152|88:152|148:212,1,280
196,196,62721,1,8
8,200,63623,6,0,B|-20:232|20:256,1,69.9999999999999,2|8
84,268,64223,2,0,B|124:304|160:252,1,69.9999999999999,2|8
148,204,64824,2,2,B|148:96,1,105,2|4
260,96,66026,6,0,B|360:96,1,69.9999999999999,2|0
364,148,66626,2,0,B|292:148,1,69.9999999999999,2|0
264,204,67227,2,2,B|344:204|344:204|344:272,1,140,10|0
344,136,68429,1,4
200,256,73535,6,2,B|280:336|280:336|292:236|364:244,1,245
416,244,74887,5,8
416,148,75337,1,4
296,192,75938,6,2,B|216:112|216:112|204:212|132:204,1,245
80,208,77290,1,8
84,304,77740,2,2,B|160:304,1,69.9999999999999
256,192,78191,12,4,82847
