osu file format v13

[General]
AudioFilename: Musical Masterpiece - M-A.mp3
AudioLeadIn: 0
PreviewTime: 55888
Countdown: 0
SampleSet: Normal
StackLeniency: 0.7
Mode: 0
LetterboxInBreaks: 1
WidescreenStoryboard: 1

[Editor]
DistanceSpacing: 1
BeatDivisor: 4
GridSize: 4
TimelineZoom: 1

[Metadata]
Title:M-A
TitleUnicode:M-A
Artist:Musical Masterpiece
ArtistUnicode:Musical Masterpiece
Creator:Reiji-RJ
Version:Medium
Source:BMS
Tags:EvilElvis Vass_Bass
BeatmapID:341855
BeatmapSetID:46926

[Difficulty]
HPDrainRate:3
CircleSize:3
OverallDifficulty:4
ApproachRate:5
SliderMultiplier:1
SliderTickRate:1

[Events]
//Background and Video events
0,0,"402526.jpg",0,0
//Break Periods
//Storyboard Layer 0 (Background)
//Storyboard Layer 1 (Fail)
//Storyboard Layer 2 (Pass)
//Storyboard Layer 3 (Foreground)
//Storyboard Sound Samples
//Background Colour Transformations
3,100,163,162,255

[TimingPoints]
2338,300,4,1,0,50,1,0
10738,-100,4,1,0,40,0,0
13138,-100,4,1,0,50,0,0
16288,-100,4,1,0,30,0,0
17938,-100,4,1,0,50,0,0
18688,-100,4,2,0,60,0,0
19288,-100,4,2,0,50,0,0
20263,-100,4,2,0,40,0,0
20413,-100,4,1,0,20,0,0
20788,-100,4,1,0,30,0,0
21088,-100,4,1,0,40,0,0
21538,-100,4,1,0,50,0,0
22438,-100,4,1,0,70,0,0
22738,-100,4,2,0,60,0,0
31738,-100,4,2,0,45,0,0
31888,-100,4,2,0,55,0,0
32038,-100,4,2,0,65,0,0
32338,-100,4,2,0,60,0,0
35938,-100,4,2,0,45,0,0
37138,-100,4,2,0,65,0,0
51238,-100,4,1,0,70,0,0
51538,-100,4,2,0,60,0,0
74863,-100,4,2,0,60,0,0
75013,-100,4,2,0,40,0,0
75238,-100,4,1,0,70,0,0
75538,-100,4,2,0,70,0,0
76363,-100,4,2,0,60,0,0
76963,-100,4,2,0,50,0,0
77938,-100,4,2,0,70,0,0
78763,-100,4,2,0,60,0,0
79288,-100,4,2,0,50,0,0
80263,-100,4,2,0,70,0,0
82588,-100,4,2,0,65,0,1
84013,-100,4,2,0,60,0,0
84838,-66.6666666666667,4,1,0,60,0,1
84988,-66.6666666666667,4,1,0,70,0,1
85138,-100,4,2,0,70,0,0
90763,-100,4,2,0,60,0,0
91363,-100,4,2,0,70,0,0
92713,-100,4,2,0,60,0,0
94738,-100,4,2,0,70,0,0
103438,-100,4,2,0,30,0,0
103588,-100,4,2,0,35,0,0
103738,-100,4,2,0,40,0,0
103888,-100,4,2,0,55,0,0
104038,-100,4,2,0,60,0,0
104263,-100,4,2,0,70,0,0
104338,-100,4,2,0,70,0,1
104413,-100,4,2,0,60,0,0
120988,-100,4,2,0,65,0,1
122413,-100,4,2,0,70,0,0
123238,-66.6666666666667,4,1,0,80,0,1
123538,-66.6666666666667,4,1,0,50,0,0
124738,-66.6666666666667,4,1,0,40,0,0
125938,-66.6666666666667,4,1,0,20,0,0
126538,-66.6666666666667,4,1,0,10,0,0
127063,-66.6666666666667,4,1,0,5,0,0

[Colours]
Combo1 : 250,203,204
Combo2 : 160,41,86

[HitObjects]
312,216,3538,6,0,P|392:208|468:204,2,150,4|8|8,2:0|2:0|2:0,0:0:0:0:
240,284,4738,2,0,P|216:220|244:144,1,150,0|8,0:0|2:0,0:0:0:0:
164,80,5488,1,2,2:0:0:0:
164,80,5638,2,0,L|60:76,1,100,8|0,2:0|0:0,0:0:0:0:
40,172,6238,5,2,2:0:0:0:
40,172,6388,2,0,L|200:180,1,150,8|0,2:0|0:0,0:0:0:0:
280,224,7138,2,0,P|360:208|436:208,2,150,8|8|0,2:0|2:0|0:0,0:0:0:0:
192,276,8338,5,4,2:0:0:0:
192,180,8638,1,2,2:0:0:0:
192,180,8788,2,0,P|166:94|159:26,1,150,8|0,2:0|0:0,0:0:0:0:
260,40,9538,2,0,P|328:44|368:36,1,100,0|8,0:0|2:0,0:0:0:0:
408,28,9988,1,2,2:0:0:0:
408,28,10138,2,0,P|404:80|416:128,1,100,0|8,0:0|2:0,0:0:0:0:
432,224,10738,5,0,0:0:0:0:
348,280,11038,1,10,2:0:0:0:
436,324,11338,1,2,2:0:0:0:
432,224,11638,1,0,0:0:0:0:
340,184,11938,2,0,B|284:172|284:172|192:180,2,150,0|8|8,0:0|2:0|2:0,0:0:0:0:
432,224,13138,6,0,P|448:148|440:76,1,150,4|8,2:0|2:0,0:0:0:0:
344,48,13888,1,2,2:0:0:0:
344,48,14038,1,8,2:0:0:0:
244,56,14338,5,2,2:0:0:0:
108,204,14938,1,2,2:0:0:0:
300,256,15538,5,2,2:0:0:0:
400,240,15838,1,8,2:0:0:0:
376,144,16138,1,0,0:0:0:0:
276,160,16438,1,2,0:0:0:0:
276,160,16738,2,0,P|184:136|76:148,2,200,2|2|4,0:0|0:0|2:0,0:0:0:0:
376,144,18238,6,0,L|432:136,2,50,2|0|0,2:0|0:0|0:0,0:0:0:0:
388,244,18838,2,0,L|332:236,2,50,2|0|4,2:0|1:0|2:0,0:0:0:0:
480,284,19438,2,0,L|488:224,2,50,0|0|2,1:0|0:0|2:0,0:0:0:0:
392,336,20038,5,8,0:0:0:0:
292,320,20338,2,0,P|240:308|192:320,1,100,4|0,0:0|0:0,0:0:0:0:
104,272,20938,2,0,P|92:328|104:372,1,100
196,320,21538,2,0,P|216:248|200:176,1,150
76,88,22438,1,0,0:0:0:0:
76,88,22738,6,0,B|128:96|128:96|224:72,1,150,4|2,0:0|0:0,0:0:0:0:
316,108,23488,1,0,1:0:0:0:
316,108,23638,1,0,1:0:0:0:
404,152,23938,2,0,P|340:140|260:176,2,150,0|2|0,1:0|0:0|1:0,0:0:0:0:
356,240,25138,2,0,P|420:252|500:216,2,150,0|2|0,1:0|0:0|1:0,0:0:0:0:
256,244,26338,5,0,1:0:0:0:
156,248,26638,1,0,1:0:0:0:
56,256,26938,2,0,L|48:308,2,50,0|0|0,0:0|1:0|1:0,0:0:0:0:
156,248,27538,6,0,P|168:172|172:96,1,150,0|2,1:0|0:0,0:0:0:0:
244,28,28288,1,0,1:0:0:0:
244,28,28438,1,0,1:0:0:0:
328,80,28738,2,0,P|408:68|484:68,2,150,0|2|0,1:0|0:0|1:0,0:0:0:0:
244,132,29938,2,0,P|169:131|95:119,2,150,0|2|0,1:0|0:0|1:0,0:0:0:0:
336,176,31138,6,0,P|356:240|332:320,1,150,0|2,1:0|0:0,0:0:0:0:
232,308,31888,1,0,1:0:0:0:
232,308,32038,1,0,0:0:0:0:
132,316,32338,6,0,P|109:245|129:174,1,150,0|2,1:0|0:0,0:0:0:0:
176,84,33088,1,0,1:0:0:0:
176,84,33238,2,0,L|276:80,2,100,0|0|2,1:0|1:0|0:0,0:0:0:0:
124,224,34288,1,0,1:0:0:0:
124,224,34438,2,0,L|24:228,2,100,0|0|2,1:0|1:0|0:0,0:0:0:0:
224,236,35338,6,0,L|212:288,2,50,0|0|0,0:0|1:0|1:0,0:0:0:0:
324,248,35938,1,0,1:0:0:0:
332,148,36238,1,2,0:0:0:0:
232,136,36538,1,2,0:0:0:0:
232,136,36838,1,0,1:0:0:0:
232,136,37138,6,0,P|160:120|80:136,2,150,4|2|0,0:0|0:0|1:0,0:0:0:0:
332,148,38338,2,0,P|408:148|488:116,1,150,0|2,1:0|0:0,0:0:0:0:
344,52,39238,1,0,1:0:0:0:
248,76,39538,2,0,B|220:116|220:116|236:220,1,150,0|2,1:0|0:0,0:0:0:0:
316,276,40288,5,0,1:0:0:0:
316,276,40438,1,0,1:0:0:0:
220,308,40738,2,0,P|148:296|72:320,2,150,0|2|0,1:0|0:0|1:0,0:0:0:0:
316,276,41938,6,0,L|432:272,1,100,0|2,1:0|0:0,0:0:0:0:
452,128,42688,1,0,1:0:0:0:
452,128,42838,2,0,L|352:131,1,100,0|0,1:0|1:0,0:0:0:0:
252,148,43438,1,2,0:0:0:0:
104,128,43888,5,0,1:0:0:0:
104,128,44038,2,0,P|88:172|100:228,2,100,0|0|2,1:0|1:0|0:0,0:0:0:0:
188,72,44938,1,2,0:0:0:0:
252,148,45238,1,0,1:0:0:0:
352,132,45538,2,0,L|512:128,2,150,0|2|0,1:0|0:0|1:0,0:0:0:0:
252,148,46738,6,0,P|232:200|256:296,2,150,4|2|0,0:0|0:0|1:0,0:0:0:0:
156,124,47938,2,0,L|92:120,2,50,4|0|0,0:0|1:0|1:0,0:0:0:0:
252,148,48538,1,2,0:0:0:0:
352,132,48838,1,0,1:0:0:0:
452,144,49138,5,4,0:0:0:0:
284,256,49738,1,4,0:0:0:0:
284,56,50338,1,4,0:0:0:0:
128,252,51088,1,0,1:0:0:0:
128,252,51238,1,0,0:0:0:0:
212,304,51538,6,0,P|288:292|364:288,2,150,4|0|0,0:0|0:0|1:0,0:0:0:0:
128,252,52738,2,0,L|124:144,1,100,0|0,1:0|0:0,0:0:0:0:
216,108,53338,2,0,L|219:207,1,100,0|0,1:0|1:0,0:0:0:0:
320,212,53938,2,0,B|400:196|400:196|520:216,2,200,0|0|0,1:0|1:0|0:0,0:0:0:0:
256,192,55288,12,4,56338,0:0:0:0:
404,348,56638,6,0,B|436:296|436:296|416:156,1,200,8|8,0:0|0:0,0:0:0:0:
320,132,57538,2,0,L|220:140,1,100,0|8,1:0|0:0,0:0:0:0:
208,240,58138,2,0,L|308:232,1,100,2|8,0:0|0:0,0:0:0:0:
300,332,58738,6,0,L|92:348,1,200,2|0,0:0|0:0,0:0:0:0:
36,272,59638,1,8,0:0:0:0:
36,272,59938,2,0,P|4:208|36:84,1,200,2|0,0:0|0:0,0:0:0:0:
132,84,60838,1,8,0:0:0:0:
132,84,61138,6,0,L|236:80,1,100,2|8,0:0|0:0,0:0:0:0:
256,176,61738,2,0,L|156:179,2,100,0|8|2,1:0|0:0|0:0,0:0:0:0:
356,184,62638,1,8,0:0:0:0:
456,192,62938,1,2,0:0:0:0:
416,100,63238,1,8,0:0:0:0:
356,184,63538,5,0,1:0:0:0:
188,292,64138,1,0,1:0:0:0:
168,92,64738,1,2,0:0:0:0:
364,140,65338,5,0,1:0:0:0:
428,216,65638,1,2,0:0:0:0:
328,236,65938,2,0,P|228:216|136:252,1,200,4|0,0:0|0:0,0:0:0:0:
48,288,66838,1,8,0:0:0:0:
48,288,67138,2,0,B|32:252|32:252|48:192,1,100,0|8,1:0|0:0,0:0:0:0:
88,104,67738,6,0,P|136:119|184:115,1,100,0|8,0:0|0:0,0:0:0:0:
248,40,68338,2,0,P|220:128|256:232,2,200,2|2|2,0:0|0:0|0:0,0:0:0:0:
448,44,70138,1,2,0:0:0:0:
248,40,70738,5,0,1:0:0:0:
204,128,71038,1,8,0:0:0:0:
304,124,71338,1,0,0:0:0:0:
204,128,71638,1,8,0:0:0:0:
104,116,71938,5,0,1:0:0:0:
20,156,72238,1,8,0:0:0:0:
20,156,72538,2,0,B|4:228|4:228|40:352,1,200,0|2,1:0|0:0,0:0:0:0:
140,336,73438,6,0,L|256:328,2,100,8|0|8,0:0|1:0|0:0,0:0:0:0:
132,236,74338,2,0,L|231:229,1,100,0|0,1:0|0:0,0:0:0:0:
324,272,74938,2,0,P|356:188|320:80,1,200,2|4,0:0|0:0,0:0:0:0:
228,68,75838,5,8,0:0:0:0:
80,96,76288,1,0,1:0:0:0:
80,96,76438,1,8,0:0:0:0:
160,156,76738,2,0,P|80:144|16:180,2,150,0|0|8,1:0|1:0|0:0,0:0:0:0:
104,236,77938,5,4,0:0:0:0:
204,244,78238,2,0,P|256:252|308:240,1,100,8|0,0:0|1:0,0:0:0:0:
392,284,78838,2,0,B|424:240|424:240|400:88,2,200,8|8|2,0:0|0:0|0:0,0:0:0:0:
301,242,80338,6,0,P|253:252|204:244,1,100,4|8,0:0|0:0,0:0:0:0:
156,156,80938,2,0,P|208:144|252:156,1,100,0|8,1:0|0:0,0:0:0:0:
352,152,81538,2,0,L|360:40,1,100,4|8,0:0|0:0,0:0:0:0:
456,84,82138,2,0,L|448:204,1,100,0|8,1:0|0:0,0:0:0:0:
480,280,82738,5,4,0:0:0:0:
380,288,83038,1,12,0:0:0:0:
280,292,83338,1,4,0:0:0:0:
180,296,83638,1,12,0:0:0:0:
80,304,83938,1,4,0:0:0:0:
48,56,84688,1,0,0:0:0:0:
48,56,84838,1,0,0:0:0:0:
148,72,85138,6,0,P|215:46|287:69,2,150,4|2|0,0:0|0:0|1:0,0:0:0:0:
80,148,86338,2,0,P|56:200|104:292,1,150,0|2,1:0|0:0,0:0:0:0:
184,308,87088,1,0,0:0:0:0:
184,308,87238,1,0,1:0:0:0:
280,280,87538,6,0,P|332:272|380:276,1,100,0|0,0:0|1:0,0:0:0:0:
476,304,88138,2,0,P|488:248|480:204,1,100,0|0,1:0|1:0,0:0:0:0:
388,172,88738,2,0,P|480:176|536:136,2,150,0|2|0,0:0|0:0|1:0,0:0:0:0:
320,100,89938,6,0,L|312:48,2,50,2|0|0,0:0|0:0|1:0,0:0:0:0:
388,172,90538,2,0,L|380:221,2,50,0|0|0,1:0|0:0|1:0,0:0:0:0:
288,188,91138,2,0,L|244:216,2,50,2|0|0,0:0|0:0|1:0,0:0:0:0:
320,100,91738,2,0,L|362:73,2,50,0|0|0,0:0|0:0|1:0,0:0:0:0:
220,112,92338,6,0,P|168:112|120:104,1,100,0|0,1:0|1:0,0:0:0:0:
24,128,92938,2,0,P|4:200|32:268,2,150,0|2|0,1:0|0:0|1:0,0:0:0:0:
124,116,94138,1,0,1:0:0:0:
108,16,94438,1,0,1:0:0:0:
8,28,94738,5,4,0:0:0:0:
24,128,95038,1,0,1:0:0:0:
128,236,95488,1,0,1:0:0:0:
128,236,95638,1,0,1:0:0:0:
220,280,95938,2,0,P|148:268|76:304,2,150,0|2|0,1:0|0:0|1:0,0:0:0:0:
312,320,97138,6,0,B|340:276|340:276|324:168,1,150,0|2,1:0|0:0,0:0:0:0:
252,112,97888,1,0,1:0:0:0:
252,112,98038,1,0,1:0:0:0:
340,68,98338,2,0,P|396:72|444:56,1,100,0|0,1:0|1:0,0:0:0:0:
448,160,98938,2,0,P|392:156|344:172,1,100,0|0,0:0|1:0,0:0:0:0:
304,260,99538,6,0,P|328:184|308:120,1,150,0|2,1:0|0:0,0:0:0:0:
208,104,100288,1,0,1:0:0:0:
208,104,100438,2,0,L|104:108,1,100,0|0,1:0|1:0,0:0:0:0:
68,200,101038,2,0,L|176:196,2,100,0|0|0,1:0|0:0|1:0,0:0:0:0:
24,292,101938,6,0,L|228:284,1,200,0|0,1:0|1:0,0:0:0:0:
316,320,102838,1,0,1:0:0:0:
316,320,103138,2,0,P|336:252|320:176,1,150,0|2,1:0|0:0,0:0:0:0:
224,148,103888,1,0,1:0:0:0:
224,148,104038,1,0,1:0:0:0:
296,80,104338,5,4,0:0:0:0:
296,80,104638,2,0,P|416:80|488:48,1,200,8|8,0:0|0:0,0:0:0:0:
492,148,105538,1,0,1:0:0:0:
492,148,105838,2,0,B|512:212|512:212|484:344,1,200,8|8,0:0|0:0,0:0:0:0:
384,324,106738,6,0,P|336:316|284:328,1,100,0|8,1:0|0:0,0:0:0:0:
284,228,107338,2,0,P|332:236|384:224,1,100,0|8,1:0|0:0,0:0:0:0:
324,144,107938,2,0,P|244:140|192:184,2,150,0|2|0,1:0|0:0|1:0,0:0:0:0:
424,136,109138,6,0,L|428:76,2,50,2|0|0,0:0|0:0|1:0,0:0:0:0:
324,144,109738,2,0,L|327:193,2,50,0|0|0,1:0|0:0|1:0,0:0:0:0:
224,132,110338,2,0,L|228:72,2,50,2|0|0,0:0|0:0|1:0,0:0:0:0:
124,140,110938,2,0,L|127:189,2,50,0|0|0,1:0|0:0|1:0,0:0:0:0:
168,48,111538,5,0,1:0:0:0:
224,132,111838,1,8,0:0:0:0:
124,140,112138,1,0,1:0:0:0:
36,188,112438,1,8,0:0:0:0:
36,188,112738,2,0,P|108:172|168:212,1,150,0|2,1:0|0:0,0:0:0:0:
256,260,113488,1,0,1:0:0:0:
256,260,113638,1,8,0:0:0:0:
343,212,113938,6,0,P|404:171|476:188,1,150,4|2,0:0|0:0,0:0:0:0:
424,272,114688,1,0,1:0:0:0:
424,272,114838,1,8,0:0:0:0:
344,212,115138,2,0,P|312:140|340:80,1,150,0|2,1:0|0:0,0:0:0:0:
440,60,115888,1,0,1:0:0:0:
440,60,116038,1,8,0:0:0:0:
340,80,116338,6,0,L|228:76,1,100,0|8,1:0|0:0,0:0:0:0:
140,96,116938,2,0,P|128:136|144:192,1,100,0|8,1:0|0:0,0:0:0:0:
232,240,117538,2,0,P|156:228|88:256,2,150,0|2|0,1:0|0:0|1:0,0:0:0:0:
324,280,118738,5,4,0:0:0:0:
420,260,119038,2,0,B|448:204|448:204|420:68,1,200,0|0,1:0|1:0,0:0:0:0:
328,28,119938,1,4,0:0:0:0:
328,28,120238,2,0,L|124:36,1,200,0|0,1:0|1:0,0:0:0:0:
48,96,121138,5,4,0:0:0:0:
16,192,121438,1,12,0:0:0:0:
108,228,121738,1,4,0:0:0:0:
140,132,122038,1,12,0:0:0:0:
140,132,122338,1,4,0:0:0:0:
388,128,123088,1,0,0:0:0:0:
388,128,123238,1,0,0:0:0:0:
256,192,123538,12,0,127138,2:0:0:0:
