osu file format v13

[General]
AudioFilename: Musical Masterpiece - M-A.mp3
AudioLeadIn: 0
PreviewTime: 55888
Countdown: 0
SampleSet: Normal
StackLeniency: 0.7
Mode: 0
LetterboxInBreaks: 1
WidescreenStoryboard: 1

[Editor]
DistanceSpacing: 1.1
BeatDivisor: 4
GridSize: 4
TimelineZoom: 1.1

[Metadata]
Title:M-A
TitleUnicode:M-A
Artist:Musical Masterpiece
ArtistUnicode:Musical Masterpiece
Creator:Reiji-RJ
Version:Hyper
Source:BMS
Tags:EvilElvis Vass_Bass
BeatmapID:326741
BeatmapSetID:46926

[Difficulty]
HPDrainRate:5
CircleSize:4
OverallDifficulty:6
ApproachRate:8
SliderMultiplier:1.6
SliderTickRate:1

[Events]
//Background and Video events
0,0,"402526.jpg",0,0
//Break Periods
//Storyboard Layer 0 (Background)
//Storyboard Layer 1 (Fail)
//Storyboard Layer 2 (Pass)
//Storyboard Layer 3 (Foreground)
//Storyboard Sound Samples
//Background Colour Transformations
3,100,163,162,255

[TimingPoints]
2338,300,4,2,0,70,1,0
18688,-100,4,2,0,60,0,0
19288,-100,4,2,0,50,0,0
20263,-100,4,2,0,40,0,0
20413,-100,4,1,0,20,0,0
20788,-100,4,1,0,30,0,0
21088,-100,4,1,0,40,0,0
21538,-100,4,1,0,50,0,0
22438,-100,4,1,0,70,0,0
22738,-100,4,2,0,70,0,0
31738,-100,4,2,0,45,0,0
31888,-100,4,2,0,55,0,0
32038,-100,4,2,0,65,0,0
32338,-100,4,2,0,70,0,0
51238,-100,4,1,0,70,0,0
51538,-100,4,2,0,70,0,0
74863,-100,4,2,0,60,0,0
75013,-100,4,2,0,40,0,0
75238,-100,4,1,0,70,0,0
75538,-100,4,2,0,70,0,0
76363,-100,4,2,0,60,0,0
76963,-100,4,2,0,50,0,0
77938,-100,4,2,0,70,0,0
78763,-100,4,2,0,60,0,0
79288,-100,4,2,0,50,0,0
80263,-100,4,2,0,70,0,0
82588,-100,4,2,0,70,0,1
84013,-100,4,2,0,60,0,0
84838,-66.6666666666667,4,1,0,60,0,1
84988,-66.6666666666667,4,1,0,70,0,1
85138,-100,4,2,0,70,0,0
90763,-100,4,2,0,60,0,0
91363,-100,4,2,0,70,0,0
92713,-100,4,2,0,60,0,0
94738,-100,4,2,0,70,0,0
103288,-100,4,2,0,25,0,0
103438,-100,4,2,0,30,0,0
103588,-100,4,2,0,35,0,0
103738,-100,4,2,0,40,0,0
103888,-100,4,2,0,55,0,0
104038,-100,4,2,0,60,0,0
104263,-100,4,2,0,70,0,0
104338,-100,4,2,0,70,0,1
104413,-100,4,2,0,70,0,0
120988,-100,4,2,0,70,0,1
122413,-100,4,2,0,70,0,0
123238,-66.6666666666667,4,1,0,80,0,1
123538,-66.6666666666667,4,1,0,50,0,0
124738,-66.6666666666667,4,1,0,40,0,0
125938,-66.6666666666667,4,1,0,20,0,0
126538,-66.6666666666667,4,1,0,10,0,0
127063,-66.6666666666667,4,1,0,5,0,0

[Colours]
Combo1 : 250,203,204
Combo2 : 160,41,86

[HitObjects]
62,184,3238,6,0,L|55:158,5,26.6666666666667
73,190,3538,2,0,B|168:162|128:219|246:184,1,160,4|0,0:0|0:0,0:0:0:0:
309,145,3988,1,0,1:0:0:0:
319,134,4438,6,0,L|307:52,1,80,0|0,1:0|0:0,0:0:0:0:
188,86,4738,2,0,L|210:246,1,160
302,290,5188,1,0,1:0:0:0:
302,290,5638,6,0,L|388:307,1,80,0|0,1:0|0:0,0:0:0:0:
488,226,5938,2,0,L|328:201,1,160
226,196,6388,1,0,1:0:0:0:
213,206,6838,6,0,L|129:191,1,80,0|0,1:0|0:0,0:0:0:0:
74,93,7138,2,0,L|158:108,1,80,0|0,1:0|0:0,0:0:0:0:
245,82,7438,1,0,0:0:0:0:
337,55,7588,1,0,1:0:0:0:
337,55,8038,6,0,L|419:44,1,80,0|0,1:0|0:0,0:0:0:0:
367,158,8338,2,0,L|206:181,1,160,4|0,1:0|0:0,0:0:0:0:
115,174,8788,1,0,1:0:0:0:
28,131,8938,2,0,P|15:93|13:32,1,80
165,4,9238,2,0,P|177:44|176:88,1,80,0|0,1:0|0:0,0:0:0:0:
115,174,9538,6,0,B|97:230|97:230|113:279|113:279|100:341,1,160,0|0,1:0|0:0,0:0:0:0:
184,370,9988,1,0,1:0:0:0:
272,336,10138,2,0,L|359:355,1,80
443,344,10438,1,0,1:0:0:0:
449,333,10738,6,0,L|429:157,1,160,0|0,1:0|0:0,0:0:0:0:
350,141,11188,2,0,P|348:188|364:228,1,80,0|0,1:0|0:0,0:0:0:0:
512,194,11488,1,0,0:0:0:0:
512,194,11638,2,0,P|517:154|489:97,1,80,0|0,1:0|0:0,0:0:0:0:
437,35,11938,6,0,P|373:26|281:67,1,160,0|0,1:0|0:0,0:0:0:0:
186,144,12388,1,0,1:0:0:0:
186,144,12538,2,0,P|192:102|181:49,1,80
48,37,12838,1,0,1:0:0:0:
33,50,13138,6,0,P|26:131|52:215,1,160,4|0,1:0|0:0,0:0:0:0:
102,295,13588,1,0,1:0:0:0:
112,304,13888,1,0,0:0:0:0:
217,307,14038,2,0,L|306:313,1,80,0|0,1:0|0:0,0:0:0:0:
421,227,14338,6,0,L|241:208,1,160,0|0,1:0|0:0,0:0:0:0:
172,169,14788,1,0,1:0:0:0:
172,169,15088,1,0,0:0:0:0:
172,169,15238,2,0,P|166:140|175:86,1,80,0|0,1:0|0:0,0:0:0:0:
245,40,15538,6,0,B|305:29|305:29|340:39|340:39|402:28,1,160,0|0,1:0|0:0,0:0:0:0:
466,108,15988,1,0,1:0:0:0:
383,155,16138,2,0,L|393:250,1,80
490,344,16438,2,0,L|509:168,2,160,0|0|0,1:0|1:0|0:0,0:0:0:0:
405,329,17188,1,0,1:0:0:0:
390,337,17488,5,0,0:0:0:0:
308,359,17638,2,0,P|268:358|226:366,1,80,0|0,1:0|0:0,0:0:0:0:
199,277,17938,2,0,P|159:284|119:283,1,80,4|0,0:0|0:0,0:0:0:0:
48,231,18238,1,0,0:0:0:0:
20,147,18388,1,0,0:0:0:0:
66,72,18538,1,4,0:0:0:0:
79,64,18838,5,0,0:0:0:0:
162,37,18988,1,0,0:0:0:0:
244,68,19138,1,4,0:0:0:0:
256,81,19438,5,0,0:0:0:0:
293,160,19588,1,0,0:0:0:0:
214,198,19738,1,4,0:0:0:0:
176,118,19888,1,0,0:0:0:0:
256,82,20038,2,0,L|344:59,1,80
421,60,20338,5,4,0:0:0:0:
421,60,20488,1,0,1:0:0:0:
482,123,20638,1,0,1:0:0:0:
482,123,20788,1,0,1:0:0:0:
418,187,20938,1,0,1:0:0:0:
418,187,21088,1,0,1:0:0:0:
474,254,21238,1,0,1:0:0:0:
474,254,21388,1,0,1:0:0:0:
401,318,21538,1,0,1:0:0:0:
401,318,21688,5,0,1:0:0:0:
342,245,21838,1,0,1:0:0:0:
342,245,21988,1,0,1:0:0:0:
196,360,22288,5,0,1:0:0:0:
186,269,22438,2,0,L|196:224,5,26.6666666666667,0|0|0|0|0|0,0:0|0:0|0:0|0:0|0:0|0:0,1:0:0:0:
194,288,22738,6,0,L|24:297,1,160,4|0,0:0|1:0,0:0:0:0:
8,209,23188,1,0,0:0:0:0:
8,209,23338,2,0,P|41:202|101:209,1,80
243,363,23638,2,0,P|203:374|144:366,1,80,0|0,1:0|0:0,0:0:0:0:
194,289,23938,2,0,B|249:278|249:278|292:292|292:292|369:280,1,160,4|0,2:0|1:0,0:0:0:0:
429,241,24388,5,0,0:0:0:0:
496,184,24538,2,0,P|471:164|421:157,1,80
422,324,24838,2,0,P|455:322|500:291,1,80,0|0,1:0|0:0,0:0:0:0:
429,241,25138,2,0,L|266:210,1,160,4|0,2:0|1:0,0:0:0:0:
184,189,25588,1,0,0:0:0:0:
101,206,25738,1,0,0:0:0:0:
126,290,25888,1,0,0:0:0:0:
206,271,26038,1,0,1:0:0:0:
184,189,26188,1,0,1:0:0:0:
43,129,26338,6,0,P|20:157|13:205,1,80,4|0,0:0|0:0,0:0:0:0:
143,352,26638,2,0,P|155:313|145:257,1,80,0|0,1:0|1:0,0:0:0:0:
56,306,26938,5,0,0:0:0:0:
56,306,27088,1,0,1:0:0:0:
232,355,27238,2,0,P|272:348|316:347,1,80,0|0,1:0|1:0,0:0:0:0:
442,278,27538,2,0,P|368:300|282:270,1,160,4|0,2:0|1:0,0:0:0:0:
251,172,27988,1,0,1:0:0:0:
352,136,28138,2,0,P|356:176|347:219,1,80,0|0,0:0|1:0,0:0:0:0:
161,150,28438,2,0,P|157:117|171:67,1,80,0|0,1:0|0:0,0:0:0:0:
273,31,28738,6,0,L|443:44,1,160,4|0,2:0|1:0,0:0:0:0:
435,154,29188,1,0,1:0:0:0:
381,236,29338,2,0,P|363:209|352:147,1,80,0|0,0:0|1:0,0:0:0:0:
491,83,29638,2,0,P|508:114|517:166,1,80,0|0,1:0|1:0,0:0:0:0:
435,154,29938,6,0,B|265:142,1,160,4|0,2:0|1:0,0:0:0:0:
276,251,30388,2,0,L|117:242,1,160,0|0,1:0|0:0,0:0:0:0:
15,162,30838,6,0,L|96:158,1,80,0|0,1:0|0:0,0:0:0:0:
175,334,31138,2,0,L|11:352,2,160,4|0|0,0:0|1:0|1:0,0:0:0:0:
261,348,31888,1,0,1:0:0:0:
344,321,32038,1,0,1:0:0:0:
421,363,32188,1,0,1:0:0:0:
495,322,32338,6,0,B|483:263|483:263|504:230|504:230|489:154,1,160,4|0,2:0|1:0,0:0:0:0:
348,71,32788,2,0,B|359:122|359:122|335:164|335:164|354:239,1,160,0|0,0:0|0:0,0:0:0:0:
407,303,33238,1,0,1:0:0:0:
346,373,33388,1,0,1:0:0:0:
296,293,33538,2,0,B|238:286|238:286|124:302,1,160,4|0,0:0|1:0,0:0:0:0:
92,372,33988,1,0,0:0:0:0:
209,368,34138,1,0,0:0:0:0:
193,221,34288,1,0,1:0:0:0:
75,244,34438,1,0,1:0:0:0:
30,317,34588,5,0,0:0:0:0:
138,297,34738,2,0,P|152:267|129:142,1,160,4|0,2:0|1:0,0:0:0:0:
14,121,35188,1,0,0:0:0:0:
14,121,35338,2,0,P|-11:195|8:271,1,160,0|0,0:0|1:0,0:0:0:0:
76,211,35788,5,0,0:0:0:0:
235,265,35938,2,0,L|409:242,1,160,4|0,0:0|1:0,0:0:0:0:
465,186,36388,1,0,1:0:0:0:
385,127,36538,2,0,P|406:107|459:95,1,80,0|0,1:0|1:0,0:0:0:0:
512,257,36838,2,0,L|500:343,1,80,0|0,1:0|1:0,0:0:0:0:
401,338,37138,6,0,P|364:351|239:321,1,160,4|0,2:0|1:0,0:0:0:0:
217,237,37588,1,0,1:0:0:0:
290,174,37738,1,0,0:0:0:0:
320,264,37888,1,0,1:0:0:0:
145,289,38038,2,0,L|51:284,1,80,0|0,1:0|1:0,0:0:0:0:
5,171,38338,2,0,L|165:181,1,160,4|0,0:0|1:0,0:0:0:0:
256,153,38788,1,0,1:0:0:0:
344,103,38938,1,0,0:0:0:0:
259,59,39088,1,0,1:0:0:0:
430,191,39238,6,0,P|440:162|428:94,1,80,0|0,1:0|1:0,0:0:0:0:
347,236,39538,2,0,L|172:261,1,160,4|0,0:0|1:0,0:0:0:0:
105,202,39988,1,0,1:0:0:0:
105,202,40138,2,0,P|136:179|189:171,1,80
168,349,40438,2,0,P|135:342|100:306,1,80,0|0,1:0|0:0,0:0:0:0:
275,331,40738,6,0,L|314:333,2,40,4|0|0,0:0|0:0|0:0,0:0:0:0:
334,344,40963,2,0,L|374:347,2,40,0|0|0,0:0|1:0|0:0,0:0:0:0:
395,354,41188,2,0,L|437:356,2,40,0|0|0,0:0|0:0|0:0,0:0:0:0:
499,264,41488,1,0,1:0:0:0:
477,191,41638,2,0,P|445:209|419:259,1,80,0|0,1:0|1:0,0:0:0:0:
499,264,41938,6,0,B|333:271,1,160,4|0,0:0|1:0,0:0:0:0:
309,185,42388,2,0,B|150:192,1,160,0|0,1:0|0:0,0:0:0:0:
60,123,42838,6,0,L|149:113,1,80,0|0,1:0|1:0,0:0:0:0:
177,270,43138,2,0,L|6:277,2,160,4|0|0,0:0|1:0|0:0,0:0:0:0:
327,323,43888,1,0,0:0:0:0:
271,382,44038,6,0,P|253:358|245:300,1,80,0|0,1:0|1:0,0:0:0:0:
321,236,44338,2,0,B|383:224|383:224|423:234|423:234|492:218,1,160,4|0,0:0|1:0,0:0:0:0:
483,134,44788,1,0,1:0:0:0:
454,44,44938,2,0,P|423:63|397:101,1,80
303,92,45238,2,0,P|286:114|266:169,1,80,0|0,1:0|0:0,0:0:0:0:
182,161,45538,2,0,P|168:201|193:320,1,160,4|0,0:0|1:0,0:0:0:0:
277,348,45988,5,0,1:0:0:0:
367,332,46138,2,0,P|350:302|305:268,1,80,0|0,0:0|0:0,0:0:0:0:
377,202,46438,2,0,P|343:183|286:169,1,80,0|0,1:0|0:0,0:0:0:0:
323,80,46738,2,0,P|262:65|162:84,1,160,4|0,1:0|1:0,0:0:0:0:
94,176,47188,5,0,0:0:0:0:
150,248,47338,2,0,P|173:221|187:168,1,80
42,95,47638,2,0,P|30:108|10:174,1,80,0|0,1:0|0:0,0:0:0:0:
94,176,47938,2,0,L|107:338,1,160,4|0,1:0|1:0,1:0:0:0:
200,342,48388,1,0,1:0:0:0:
200,342,48538,6,0,L|192:257,1,80,0|0,1:0|1:0,0:0:0:0:
2,212,48838,2,0,L|10:297,1,80,4|0,1:0|0:0,0:0:0:0:
142,192,49138,2,0,L|133:30,1,160,4|0,0:0|0:0,0:0:0:0:
133,32,49513,1,0,0:0:0:0:
133,32,49588,1,0,0:0:0:0:
44,37,49738,1,4,0:0:0:0:
314,82,50038,1,0,0:0:0:0:
314,82,50113,1,0,0:0:0:0:
314,82,50188,1,0,0:0:0:0:
233,109,50338,1,4,0:0:0:0:
233,109,51238,6,0,L|227:143,5,26.6666666666667
233,109,51538,2,0,L|247:271,1,160,4|0,0:0|1:0,0:0:0:0:
301,350,51988,1,0,0:0:0:0:
301,350,52138,2,0,P|322:329|337:272,1,80,0|0,0:0|1:0,0:0:0:0:
170,223,52438,2,0,P|155:248|147:310,1,80,0|0,1:0|0:0,0:0:0:0:
246,270,52738,6,0,B|299:256|299:256|343:269|343:269|416:249,1,160,4|0,0:0|1:0,0:0:0:0:
474,208,53188,1,0,1:0:0:0:
474,208,53338,2,0,L|492:44,1,160,0|0,0:0|1:0,0:0:0:0:
397,26,53788,1,0,0:0:0:0:
301,14,53938,1,4,0:0:0:0:
287,24,54238,6,0,L|206:34,1,80,0|0,1:0|1:0,0:0:0:0:
77,107,54538,2,0,L|158:117,1,80,0|0,1:0|1:0,0:0:0:0:
300,190,54838,2,0,L|219:200,1,80,0|0,1:0|1:0,0:0:0:0:
87,226,55138,1,0,1:0:0:0:
87,226,56038,5,0,0:0:0:0:
91,249,56113,1,0,0:0:0:0:
97,272,56188,1,0,0:0:0:0:
102,295,56263,1,0,0:0:0:0:
109,317,56338,2,0,L|269:331,1,160,4|0,0:0|1:0,0:0:0:0:
460,216,56788,2,0,L|300:202,1,160,0|0,0:0|1:0,0:0:0:0:
229,244,57238,2,0,P|218:220|230:157,1,80,0|0,1:0|0:0,0:0:0:0:
351,53,57538,6,0,P|362:77|350:140,1,80,0|0,1:0|0:0,0:0:0:0:
197,51,57838,2,0,P|219:27|273:16,1,80,0|0,1:0|0:0,0:0:0:0:
271,101,58138,2,0,B|211:91|211:91|178:105|178:105|100:97,1,160,0|0,0:0|1:0,0:0:0:0:
37,41,58588,1,0,0:0:0:0:
120,11,58738,1,0,1:0:0:0:
99,190,58888,5,0,0:0:0:0:
17,223,59038,1,0,1:0:0:0:
29,135,59188,1,0,0:0:0:0:
204,196,59338,6,0,P|217:232|204:279,1,80,0|0,0:0|1:0,0:0:0:0:
83,362,59638,2,0,P|70:326|83:279,1,80,0|0,1:0|0:0,0:0:0:0:
180,355,59938,2,0,L|359:366,1,160,0|0,1:0|1:0,0:0:0:0:
498,286,60388,2,0,L|330:277,1,160,0|0,1:0|1:0,0:0:0:0:
226,178,60838,2,0,L|308:184,1,80,0|0,1:0|0:0,0:0:0:0:
172,266,61138,6,0,L|9:254,1,160,4|0,0:0|1:0,0:0:0:0:
12,151,61588,1,0,0:0:0:0:
12,151,61738,2,0,L|101:158,1,80
273,122,62038,2,0,L|180:113,1,80,0|0,1:0|0:0,0:0:0:0:
352,66,62338,2,0,P|427:67|499:114,1,160,4|0,0:0|1:0,0:0:0:0:
479,201,62788,5,0,0:0:0:0:
387,212,62938,2,0,B|402:305,1,80,4|0,0:0|0:0,0:0:0:0:
477,361,63238,2,0,L|490:278,1,80,0|0,1:0|0:0,0:0:0:0:
339,353,63538,2,0,P|264:373|188:343,1,160,4|0,0:0|1:0,0:0:0:0:
176,196,63988,6,0,P|202:221|217:270,1,80,0|4,0:0|0:0,0:0:0:0:
117,269,64288,1,0,1:0:0:0:
37,336,64438,2,0,P|22:296|26:253,1,80,0|0,1:0|0:0,0:0:0:0:
129,360,64738,2,0,B|187:348|187:348|226:359|226:359|309:335,1,160,4|0,0:0|2:0,0:0:0:0:
365,316,65188,1,0,0:0:0:0:
447,284,65338,1,4,0:0:0:0:
414,202,65488,1,0,2:0:0:0:
331,233,65638,1,0,1:0:0:0:
390,262,65788,5,0,0:0:0:0:
495,216,65938,2,0,P|510:155|479:52,1,160,4|0,0:0|1:0,0:0:0:0:
394,25,66388,2,0,L|215:3,1,160,0|0,0:0|1:0,0:0:0:0:
142,105,66838,2,0,L|241:90,1,80,0|0,1:0|0:0,0:0:0:0:
70,201,67138,6,0,P|39:154|54:46,1,160,0|0,1:0|1:0,0:0:0:0:
162,221,67588,2,0,L|346:233,1,160,0|0,0:0|1:0,0:0:0:0:
478,158,68038,6,0,L|383:166,1,80,0|0,1:0|0:0,0:0:0:0:
311,332,68338,2,0,L|508:320,2,160,4|0|4,0:0|1:0|0:0,0:0:0:0:
223,317,69088,1,0,0:0:0:0:
143,355,69238,2,0,L|49:365,1,80,0|0,1:0|0:0,0:0:0:0:
0,271,69538,6,0,L|165:247,1,160,4|0,0:0|1:0,0:0:0:0:
239,176,69988,1,0,0:0:0:0:
169,97,70138,2,0,P|154:115|137:173,1,80,4|0,0:0|0:0,0:0:0:0:
317,245,70438,2,0,P|342:216|345:165,1,80,0|0,1:0|0:0,0:0:0:0:
239,176,70738,6,0,B|227:239|227:239|245:271|245:271|232:338,1,160,4|0,2:0|1:0,0:0:0:0:
324,333,71188,1,0,0:0:0:0:
399,367,71338,2,0,L|484:354,1,80,0|0,0:0|1:0,0:0:0:0:
507,263,71638,2,0,L|425:276,1,80,0|0,1:0|0:0,0:0:0:0:
324,191,71938,6,0,L|496:172,2,160,4|0|4,0:0|1:0|0:0,0:0:0:0:
236,184,72688,1,0,1:0:0:0:
162,231,72838,2,0,L|67:241,1,80,0|0,1:0|0:0,0:0:0:0:
42,339,73138,6,0,L|215:318,1,160,4|0,0:0|1:0,0:0:0:0:
297,276,73588,1,0,0:0:0:0:
235,184,73738,2,0,L|222:86,1,80,0|0,1:0|1:0,0:0:0:0:
298,14,74038,2,0,L|312:105,1,80,0|0,1:0|0:0,0:0:0:0:
103,180,74338,6,0,P|79:146|92:57,2,120,4|0|0,1:0|1:0|1:0,0:0:0:0:
203,220,74938,2,0,L|291:208,1,80,4|0,1:0|1:0,0:0:0:0:
412,107,75238,2,0,L|375:114,5,26.6666666666667
412,107,75538,6,0,L|242:123,1,160,4|0,0:0|0:0,0:0:0:0:
170,91,75988,1,0,0:0:0:0:
100,145,76138,1,4,0:0:0:0:
91,148,76438,5,0,0:0:0:0:
34,81,76588,1,0,0:0:0:0:
103,27,76738,1,4,2:0:0:0:
113,29,77038,5,0,1:0:0:0:
166,101,77188,1,0,1:0:0:0:
81,148,77338,1,0,1:0:0:0:
35,73,77488,1,0,1:0:0:0:
276,29,77638,6,0,P|289:46|292:118,1,80,0|0,1:0|1:0,0:0:0:0:
260,191,77938,2,0,L|96:186,1,160,4|0,0:0|0:0,0:0:0:0:
54,288,78388,1,0,0:0:0:0:
92,367,78538,1,4,2:0:0:0:
103,369,78838,5,0,0:0:0:0:
183,333,78988,1,0,0:0:0:0:
147,252,79138,1,4,0:0:0:0:
136,248,79438,5,0,1:0:0:0:
58,288,79588,1,0,1:0:0:0:
103,369,79738,1,0,1:0:0:0:
183,333,79888,1,0,1:0:0:0:
288,355,80038,6,0,P|323:362|378:348,1,80,0|0,1:0|1:0,0:0:0:0:
491,277,80338,2,0,B|439:265|439:265|399:275|399:275|311:258,1,160,4|0,0:0|1:0,0:0:0:0:
239,221,80788,1,0,0:0:0:0:
239,221,80863,2,0,L|231:99,1,120,0|0,1:0|1:0,0:0:0:0:
318,62,81238,2,0,L|326:146,1,80,0|0,1:0|1:0,0:0:0:0:
145,267,81538,6,0,L|136:164,1,80,4|0,0:0|0:0,0:0:0:0:
36,242,81838,2,0,L|45:345,1,80,0|0,1:0|1:0,0:0:0:0:
122,359,82138,1,0,0:0:0:0:
209,360,82288,1,0,1:0:0:0:
293,333,82438,1,0,1:0:0:0:
314,247,82588,6,0,L|306:208,2,40,0|0|4,1:0|1:0|0:0,0:0:0:0:
206,218,82888,2,0,L|216:172,2,40,0|0|4,0:0|0:0|0:0,0:0:0:0:
313,135,83188,2,0,L|283:91,2,40,0|0|4,0:0|0:0|0:0,0:0:0:0:
177,98,83488,2,0,L|212:69,2,40,0|0|4,0:0|0:0|0:0,0:0:0:0:
329,26,83788,2,0,L|280:8,13,40,0|0|4|0|0|0|0|0|0|0|2|2|2|2,0:0|0:0|0:0|0:0|0:0|0:0|0:0|0:0|0:0|0:0|0:0|0:0|0:0|0:0,0:0:0:0:
347,58,84838,6,12,L|383:42,5,40.000001525879,0|0|0|0|0|0,0:0|0:0|0:0|0:0|0:0|0:0,1:0:0:0:
340,69,85138,2,0,B|439:51|394:92|509:66,1,160,4|0,2:0|1:0,0:0:0:0:
460,158,85588,1,0,0:0:0:0:
379,159,85738,2,0,P|339:170|301:202,1,80
485,366,86038,2,0,P|500:335|501:282,1,80,0|0,1:0|0:0,0:0:0:0:
417,306,86338,6,0,B|356:299|356:299|330:306|330:306|252:297,1,160,0|0,1:0|1:0,0:0:0:0:
173,322,86788,1,0,0:0:0:0:
89,348,86938,2,0,L|2:337,1,80
0,226,87238,2,0,L|89:238,1,80,0|0,1:0|0:0,0:0:0:0:
236,199,87538,6,0,L|153:191,1,80,0|0,1:0|0:0,0:0:0:0:
51,95,87838,2,0,L|234:113,1,160,0|0,1:0|1:0,0:0:0:0:
351,67,88288,1,0,1:0:0:0:
302,3,88438,2,0,P|278:26|276:87,1,80,0|0,1:0|0:0,0:0:0:0:
440,174,88738,2,0,P|445:106|417:11,1,160,0|0,1:0|1:0,0:0:0:0:
278,154,89188,5,0,1:0:0:0:
345,242,89338,2,0,L|328:328,1,80,0|0,0:0|1:0,0:0:0:0:
440,360,89638,2,0,L|455:268,1,80,0|0,1:0|1:0,0:0:0:0:
238,327,89938,6,0,P|199:343|120:322,1,120,4|0,0:0|0:0,0:0:0:0:
125,326,90238,2,0,L|112:242,1,80,0|0,1:0|1:0,0:0:0:0:
173,170,90538,1,4,0:0:0:0:
29,208,90838,6,0,L|56:125,1,80,0|0,1:0|1:0,0:0:0:0:
173,169,91138,1,4,0:0:0:0:
7,60,91438,6,0,L|86:20,1,80,0|0,1:0|1:0,0:0:0:0:
173,170,91738,1,4,0:0:0:0:
120,255,91888,5,0,1:0:0:0:
120,255,92038,2,0,P|94:235|72:169,1,80,0|0,0:0|1:0,0:0:0:0:
174,170,92338,2,0,L|358:140,1,160,4|0,1:0|1:0,0:0:0:0:
422,230,92788,1,0,1:0:0:0:
422,230,92938,6,0,L|325:224,1,80,0|0,0:0|1:0,0:0:0:0:
247,364,93238,2,0,P|287:363|325:328,1,80,0|0,1:0|1:0,0:0:0:0:
253,284,93538,6,0,B|211:279|211:279|83:288,2,160,4|0|4,2:0|1:0|1:0,0:0:0:0:
340,270,94288,1,0,1:0:0:0:
419,307,94438,1,0,1:0:0:0:
346,356,94588,1,0,1:0:0:0:
340,270,94738,6,0,B|332:208|332:208|338:171|338:171|328:97,1,160,4|0,0:0|1:0,0:0:0:0:
354,27,95188,1,0,1:0:0:0:
419,93,95338,2,0,P|435:134|436:195,1,80,0|0,1:0|0:0,0:0:0:0:
251,240,95638,2,0,P|240:202|249:137,1,80,0|0,1:0|1:0,0:0:0:0:
263,66,95938,6,0,L|92:61,1,160,4|0,1:0|1:0,0:0:0:0:
54,144,96388,1,0,1:0:0:0:
54,144,96538,2,0,P|36:126|17:65,1,80,0|0,0:0|1:0,0:0:0:0:
131,196,96838,2,0,L|231:201,1,80,0|0,1:0|1:0,0:0:0:0:
299,262,97138,6,0,L|471:267,1,160,4|0,1:0|1:0,0:0:0:0:
512,200,97588,1,0,1:0:0:0:
512,200,97738,2,0,P|483:185|423:187,1,80,0|0,0:0|1:0,0:0:0:0:
432,350,98038,2,0,P|475:352|516:339,1,80,0|0,1:0|1:0,0:0:0:0:
279,340,98338,6,0,L|177:351,1,80,4|0,1:0|0:0,0:0:0:0:
67,280,98638,2,0,L|155:268,1,80,4|0,1:0|0:0,0:0:0:0:
255,163,98938,2,0,L|163:179,1,80,4|0,1:0|0:0,0:0:0:0:
28,96,99238,2,0,L|106:109,1,80,4|0,1:0|0:0,0:0:0:0:
172,35,99538,6,0,B|275:65|235:11|341:46,1,160,4|0,0:0|1:0,0:0:0:0:
405,90,99988,1,4,0:0:0:0:
336,144,100138,2,0,L|350:233,1,80,0|0,0:0|1:0,0:0:0:0:
266,315,100438,2,0,L|252:226,1,80,0|0,1:0|1:0,0:0:0:0:
441,184,100738,6,0,L|465:349,1,160,4|0,0:0|1:0,0:0:0:0:
380,313,101188,1,4,0:0:0:0:
301,353,101338,1,0,0:0:0:0:
213,344,101488,1,0,1:0:0:0:
146,276,101638,2,0,P|183:254|229:248,1,80,0|0,1:0|1:0,0:0:0:0:
213,344,101938,2,4,L|52:336,2,160,4|4|4,0:0|0:0|0:0,0:0:0:0:
303,293,102688,5,0,0:0:0:0:
218,241,102838,1,4,0:0:0:0:
302,173,102988,1,0,0:0:0:0:
218,107,103138,1,4,0:0:0:0:
292,45,103288,1,0,0:0:0:0:
218,107,103438,6,0,L|130:121,1,80,4|4,0:0|0:0,0:0:0:0:
302,173,103738,2,0,L|399:189,1,80,4|4,0:0|0:0,0:0:0:0:
218,241,104038,2,0,L|125:260,1,80,4|0,0:0|1:0,0:0:0:0:
266,326,104338,6,0,B|318:319|318:319|360:334|360:334|440:324,1,160,4|0,0:0|1:0,0:0:0:0:
426,246,104788,1,0,1:0:0:0:
400,165,104938,2,0,P|363:197|346:236,1,80,0|0,0:0|1:0,0:0:0:0:
504,274,105238,2,0,P|509:236|478:179,1,80,0|0,1:0|0:0,0:0:0:0:
426,246,105538,6,0,L|245:236,1,160,0|0,1:0|1:0,0:0:0:0:
181,261,105988,1,0,1:0:0:0:
104,305,106138,1,0,0:0:0:0:
181,349,106288,1,0,1:0:0:0:
181,261,106438,2,0,L|190:172,1,80,0|0,1:0|0:0,0:0:0:0:
105,60,106738,6,0,L|91:228,1,160,0|0,1:0|1:0,0:0:0:0:
104,305,107188,1,0,1:0:0:0:
36,361,107338,2,0,P|24:337|23:273,1,80,0|0,1:0|0:0,0:0:0:0:
204,329,107638,2,0,P|182:357|135:380,1,80,0|0,1:0|1:0,0:0:0:0:
104,305,107938,6,0,L|283:294,1,160,0|0,1:0|1:0,0:0:0:0:
397,204,108388,2,0,L|228:216,1,160,0|0,1:0|0:0,0:0:0:0:
153,136,108838,2,0,L|241:127,1,80,0|0,1:0|1:0,0:0:0:0:
359,39,109138,6,0,L|253:49,1,80,4|0,0:0|0:0,0:0:0:0:
191,49,109438,1,0,1:0:0:0:
191,49,109588,1,0,1:0:0:0:
191,49,109738,2,0,L|90:40,1,80,4|0,0:0|0:0,0:0:0:0:
6,137,110038,1,0,1:0:0:0:
6,137,110188,1,0,1:0:0:0:
6,137,110338,6,0,L|85:130,1,80,4|0,0:0|0:0,0:0:0:0:
173,157,110638,2,0,L|271:166,1,80,4|0,0:0|1:0,0:0:0:0:
328,123,110938,2,0,L|497:106,1,160,4|0,0:0|1:0,0:0:0:0:
477,17,111388,1,0,1:0:0:0:
477,17,111538,6,0,L|382:29,1,80,4|0,0:0|1:0,0:0:0:0:
310,35,111838,1,4,0:0:0:0:
229,69,111988,1,0,1:0:0:0:
205,153,112138,1,0,0:0:0:0:
246,230,112288,1,0,1:0:0:0:
316,282,112438,2,0,L|297:365,1,80,0|0,1:0|1:0,0:0:0:0:
219,338,112738,6,0,B|174:353|174:353|39:328,1,160,4|0,0:0|1:0,0:0:0:0:
15,232,113188,1,4,0:0:0:0:
15,232,113338,2,0,P|53:227|97:232,1,80
195,255,113638,2,0,P|234:263|282:255,1,80,0|0,1:0|1:0,0:0:0:0:
355,203,113938,2,0,P|401:189|490:196,1,120,4|0,1:0|0:0,0:0:0:0:
485,201,114238,6,0,L|490:289,1,80,0|0,1:0|1:0,0:0:0:0:
410,318,114538,1,4,0:0:0:0:
393,325,114838,6,0,L|289:333,1,80,0|0,1:0|1:0,0:0:0:0:
218,300,115138,1,4,0:0:0:0:
201,306,115438,6,0,L|114:296,1,80,0|0,1:0|1:0,0:0:0:0:
41,259,115738,1,4,0:0:0:0:
101,184,115888,6,0,P|111:199|124:231,2,40,0|0|0,1:0|0:0|1:0,0:0:0:0:
19,157,116188,2,0,P|23:141|41:117,2,40,0|0|4,1:0|0:0|0:0,0:0:0:0:
93,60,116488,5,0,1:0:0:0:
177,36,116638,1,0,1:0:0:0:
262,56,116788,1,0,1:0:0:0:
322,127,116938,1,0,1:0:0:0:
410,168,117088,1,0,1:0:0:0:
502,133,117238,2,0,P|483:110|433:87,1,80,0|0,1:0|1:0,0:0:0:0:
336,211,117538,6,0,L|312:400,1,160,4|0,0:0|1:0,0:0:0:0:
412,363,117988,1,4,0:0:0:0:
412,363,118138,2,0,L|424:276,1,80,0|0,0:0|1:0,0:0:0:0:
246,201,118438,2,0,L|232:299,1,80,0|0,1:0|1:0,0:0:0:0:
190,360,118738,6,0,P|99:369|33:326,1,160,4|0,0:0|1:0,0:0:0:0:
11,239,119188,2,0,B|-2:86,2,120,0|0|4,1:0|1:0|1:0,0:0:0:0:
93,196,119788,1,0,1:0:0:0:
167,151,119938,6,0,P|220:170|321:136,1,160,4|0,0:0|1:0,0:0:0:0:
372,76,120388,2,0,B|416:70|416:70|445:78|445:78|496:70,2,120,0|0|4,1:0|1:0|1:0,0:0:0:0:
294,27,120988,1,0,0:0:0:0:
200,47,121138,6,0,L|206:87,2,40,4|0|0,0:0|0:0|0:0,0:0:0:0:
300,122,121438,2,0,L|306:162,2,40,4|0|0,0:0|0:0|0:0,0:0:0:0:
215,196,121738,2,0,L|221:236,2,40,4|0|0,0:0|0:0|0:0,0:0:0:0:
303,273,122038,2,0,L|309:313,2,40,4|0|0,0:0|0:0|0:0,0:0:0:0:
223,357,122338,5,4,0:0:0:0:
135,368,122488,1,4,0:0:0:0:
58,324,122638,1,4,0:0:0:0:
49,236,122788,1,4,0:0:0:0:
107,170,122938,1,4,0:0:0:0:
194,161,123088,1,4,0:0:0:0:
276,208,123238,2,4,L|264:255,5,40.000001525879,4|4|4|4|4|4,0:0|0:0|0:0|0:0|0:0|0:0,2:0:0:0:
256,192,123538,12,0,127138,2:0:0:0:
