osu file format v13

[General]
AudioFilename: Musical Masterpiece - M-A.mp3
AudioLeadIn: 0
PreviewTime: 55888
Countdown: 0
SampleSet: Soft
StackLeniency: 0.7
Mode: 0
LetterboxInBreaks: 1
WidescreenStoryboard: 1

[Editor]
DistanceSpacing: 1.4
BeatDivisor: 4
GridSize: 4
TimelineZoom: 1

[Metadata]
Title:M-A
TitleUnicode:M-A
Artist:Musical Masterpiece
ArtistUnicode:Musical Masterpiece
Creator:Reiji-RJ
Version:Beginner
Source:BMS
Tags:EvilElvis Vass_Bass
BeatmapID:503973
BeatmapSetID:46926

[Difficulty]
HPDrainRate:2
CircleSize:3
OverallDifficulty:2
ApproachRate:4
SliderMultiplier:0.7
SliderTickRate:1

[Events]
//Background and Video events
0,0,"402526.jpg",0,0
//Break Periods
//Storyboard Layer 0 (Background)
//Storyboard Layer 1 (Fail)
//Storyboard Layer 2 (Pass)
//Storyboard Layer 3 (Foreground)
//Storyboard Sound Samples
//Background Colour Transformations
3,100,163,162,255

[TimingPoints]
2338,300,4,2,0,70,1,0
4738,-100,4,2,0,50,0,0
4813,-100,4,2,0,70,0,0
7138,-100,4,2,0,50,0,0
7213,-100,4,2,0,70,0,0
9538,-100,4,2,0,50,0,0
9613,-100,4,2,0,70,0,0
11938,-100,4,2,0,50,0,0
12013,-100,4,2,0,70,0,0
14338,-100,4,2,0,50,0,0
14413,-100,4,2,0,70,0,0
16738,-100,4,2,0,50,0,0
16813,-100,4,2,0,70,0,0
22438,-100,4,1,0,90,0,1
22738,-100,4,2,0,70,0,0
35938,-100,4,2,0,60,0,0
36238,-100,4,2,0,70,0,0
36838,-100,4,2,0,90,0,0
37138,-100,4,2,0,100,0,1
37288,-100,4,2,0,70,0,0
55138,-100,4,2,0,50,0,0
56038,-100,4,2,0,70,0,0
75538,-100,4,2,0,70,0,1
75613,-100,4,2,0,70,0,0
82588,-100,4,2,0,100,0,1
84013,-100,4,2,0,50,0,0
84838,-100,4,1,0,60,0,1
85138,-100,4,2,0,70,0,0
104338,-100,4,2,0,100,0,1
104413,-100,4,2,0,70,0,0
120988,-100,4,2,0,100,0,1
122413,-100,4,2,0,50,0,0
123238,-100,4,1,0,100,0,1
123613,-100,4,2,0,100,0,0
123838,-100,4,2,0,90,0,0
123988,-100,4,2,0,80,0,0
124138,-100,4,2,0,70,0,0
124288,-100,4,2,0,60,0,0
124438,-100,4,2,0,50,0,0
124588,-100,4,2,0,40,0,0
124738,-100,4,2,0,30,0,0
124888,-100,4,2,0,20,0,0
125038,-100,4,2,0,10,0,0
125188,-100,4,2,0,5,0,0

[Colours]
Combo1 : 250,203,204
Combo2 : 160,41,86

[HitObjects]
72,260,3538,6,0,P|148:196|256:208,1,210,4|0,0:0|1:0,0:0:0:0:
260,304,4738,2,0,P|361:315|440:250,1,210,2|0,0:0|1:0,0:0:0:0:
380,172,5938,2,0,L|368:60,2,105,0|0|0,1:0|1:0|1:0,0:0:0:0:
284,192,7138,2,0,L|295:296,2,105,2|0|0,0:0|1:0|1:0,0:0:0:0:
188,220,8338,6,0,P|116:160|124:52,1,210,4|0,0:0|1:0,0:0:0:0:
220,76,9538,2,0,B|284:56|284:92|360:76,1,140,2|2,0:0|0:0,0:0:0:0:
452,108,10438,1,0,1:0:0:0:
376,172,10738,6,0,L|388:244,3,70,0|2|0|0,1:0|0:0|0:0|1:0,0:0:0:0:
332,324,11938,2,0,P|240:272|136:284,1,210,2|0,0:0|1:0,0:0:0:0:
84,360,13138,6,0,P|132:272|116:168,1,210,4|0,0:0|1:0,0:0:0:0:
84,76,14338,2,0,L|224:64,1,140,2|2,0:0|0:0,0:0:0:0:
316,92,15238,1,0,1:0:0:0:
396,148,15538,2,0,P|412:116|412:76,1,70,0|2,1:0|0:0,0:0:0:0:
316,92,16138,2,0,P|300:124|300:164,1,70,2|0,0:0|1:0,0:0:0:0:
256,244,16738,2,0,B|192:224|184:268|116:244,1,140,2|2,0:0|0:0,0:0:0:0:
144,52,17938,5,4,0:0:0:0:
144,52,18238,2,0,L|156:124,1,70,2|0,0:0|0:0,0:0:0:0:
252,124,18838,2,0,L|263:54,1,70,2|4,0:0|0:0,0:0:0:0:
360,56,19438,2,0,L|372:128,1,70,2|0,0:0|0:0,0:0:0:0:
388,220,20038,1,2,0:0:0:0:
404,316,20338,1,4,1:0:0:0:
404,316,21538,5,0,1:0:0:0:
108,316,22438,1,0,1:0:0:0:
108,316,22738,6,0,P|56:252|72:132,1,210,4|8,1:0|0:0,0:0:0:0:
160,180,23938,2,0,P|261:177|372:172,1,210,0|8,1:0|0:0,0:0:0:0:
368,72,25138,2,0,P|266:74|156:80,1,210,0|8,1:0|0:0,0:0:0:0:
64,112,26338,2,0,P|71:146|80:180,1,70,2|8,0:0|0:0,0:0:0:0:
144,256,26938,2,0,P|168:228|177:194,1,70,0|8,0:0|0:0,0:0:0:0:
260,148,27538,6,0,P|356:160|448:100,1,210,0|8,1:0|0:0,0:0:0:0:
340,80,28738,2,0,L|372:220,1,140,0|0,1:0|0:0,0:0:0:0:
364,316,29638,1,8,0:0:0:0:
364,316,29938,2,0,P|252:288|160:300,1,210,0|8,1:0|0:0,0:0:0:0:
88,364,31138,2,0,P|40:280|56:168,1,210,0|8,1:0|0:0,0:0:0:0:
152,176,32338,6,0,L|132:32,1,140,4|0,1:0|0:0,0:0:0:0:
232,48,33238,1,8,0:0:0:0:
232,48,33538,2,0,L|251:186,1,140,0|0,1:0|0:0,0:0:0:0:
184,260,34438,1,8,0:0:0:0:
184,260,34738,2,0,P|136:236|84:244,2,105,0|2|8,1:0|0:0|0:0,0:0:0:0:
248,336,35938,2,0,P|296:360|348:352,2,105,4|2|8,0:0|0:0|0:0,0:0:0:0:
312,260,37138,6,0,B|344:156|284:156|316:52,1,210,4|8,0:0|0:0,0:0:0:0:
216,48,38338,2,0,B|184:152|244:152|212:256,1,210,0|8,1:0|0:0,0:0:0:0:
116,276,39538,2,0,P|220:256|304:308,1,210,0|8,1:0|0:0,0:0:0:0:
396,276,40738,2,0,L|468:264,2,70,2|8|0,0:0|0:0|0:0,0:0:0:0:
336,196,41638,1,8,0:0:0:0:
336,196,41938,6,0,P|364:136|356:64,1,140,4|0,0:0|0:0,0:0:0:0:
264,28,42838,1,8,0:0:0:0:
168,40,43138,2,0,P|140:100|148:172,1,140,0|0,1:0|0:0,0:0:0:0:
100,256,44038,1,8,0:0:0:0:
168,328,44338,2,0,L|308:320,1,140,0|0,1:0|0:0,0:0:0:0:
404,340,45238,1,8,0:0:0:0:
404,340,45538,2,0,B|460:244|388:228|440:136,1,210,2|8,0:0|0:0,0:0:0:0:
380,60,46738,6,0,P|280:44|172:44,1,210,4|8,0:0|0:0,0:0:0:0:
160,140,47938,2,0,P|260:156|368:156,1,210,4|8,0:0|0:0,0:0:0:0:
436,228,49138,1,4,0:0:0:0:
444,232,49738,1,4,0:0:0:0:
452,236,50338,1,4,0:0:0:0:
144,344,51538,6,0,P|88:268|96:156,1,210,4|8,0:0|0:0,0:0:0:0:
108,60,52738,2,0,L|248:52,1,140,0|0,1:0|0:0,0:0:0:0:
328,112,53638,1,8,0:0:0:0:
400,180,53938,2,0,P|424:131|420:79,2,105,0|2|8,1:0|0:0|0:0,0:0:0:0:
304,204,55138,1,4,1:0:0:0:
304,204,56038,1,2,0:0:0:0:
260,292,56338,6,0,P|164:256|60:284,1,210,4|8,0:0|0:0,0:0:0:0:
36,188,57538,2,0,P|16:128|24:52,1,140,0|2,1:0|0:0,0:0:0:0:
120,72,58438,1,8,0:0:0:0:
120,72,58738,2,0,L|332:56,1,210,2|8,0:0|0:0,0:0:0:0:
356,152,59938,2,0,L|144:168,1,210,0|8,1:0|0:0,0:0:0:0:
64,216,61138,6,0,P|52:280|88:344,1,140,4|0,0:0|0:0,0:0:0:0:
184,340,62038,1,8,0:0:0:0:
184,340,62338,2,0,L|324:332,1,140,2|2,0:0|0:0,0:0:0:0:
420,344,63238,1,8,0:0:0:0:
384,252,63538,2,0,P|412:188|400:120,1,140,4|2,0:0|0:0,0:0:0:0:
304,108,64438,1,8,0:0:0:0:
304,108,64738,2,0,P|276:172|288:240,1,140,0|0,1:0|0:0,0:0:0:0:
336,324,65638,1,8,0:0:0:0:
336,324,65938,6,0,P|227:316|124:316,1,210,4|8,0:0|0:0,0:0:0:0:
40,368,67138,2,0,P|12:308|20:236,1,140,0|2,1:0|0:0,0:0:0:0:
64,148,68038,1,8,0:0:0:0:
156,176,68338,2,0,P|228:168|296:168,1,140,4|2,0:0|0:0,0:0:0:0:
360,244,69238,1,8,0:0:0:0:
416,324,69538,2,0,P|448:264|440:192,1,140,4|2,0:0|0:0,0:0:0:0:
368,128,70438,1,8,0:0:0:0:
288,184,70738,6,0,B|220:200|220:160|148:172,3,140,4|2|4|2,0:0|0:0|0:0|0:0,0:0:0:0:
84,244,72838,1,8,0:0:0:0:
84,244,73138,2,0,P|40:164|44:48,1,210,4|8,0:0|0:0,0:0:0:0:
132,88,74338,2,0,P|232:80|348:76,1,210,0|4,1:0|0:0,0:0:0:0:
424,132,75538,6,0,P|435:80|439:28,2,105,4|2|8,1:0|0:0|0:0,0:0:0:0:
340,184,76738,2,0,P|288:172|236:168,2,105,0|2|8,1:0|0:0|0:0,0:0:0:0:
424,232,77938,2,0,P|412:283|408:335,2,105,4|2|8,0:0|0:0|0:0,0:0:0:0:
424,132,79138,2,0,P|435:80|439:28,2,105,0|2|8,0:0|0:0|0:0,0:0:0:0:
340,184,80338,6,0,L|128:176,1,210,4|8,0:0|0:0,0:0:0:0:
124,272,81538,2,0,L|333:279,1,210,2|8,0:0|0:0,0:0:0:0:
428,312,82738,2,0,P|440:280|444:240,4,70,4|4|4|4|4,0:0|0:0|0:0|0:0|0:0,0:0:0:0:
67,148,84838,1,4,0:0:0:0:
67,148,85138,6,0,P|172:147|251:86,1,210,4|8,1:0|0:0,0:0:0:0:
160,48,86338,2,0,P|160:153|221:232,1,210,0|8,1:0|0:0,0:0:0:0:
232,332,87538,2,0,L|372:320,1,140,0|0,1:0|0:0,0:0:0:0:
364,220,88438,1,8,0:0:0:0:
364,220,88738,2,0,L|224:232,1,140,0|2,0:0|0:0,0:0:0:0:
140,284,89638,1,8,0:0:0:0:
44,264,89938,6,0,P|16:208|20:128,1,140,4|2,0:0|0:0,0:0:0:0:
212,84,91138,2,0,P|280:80|344:40,1,140,2|2,0:0|0:0,0:0:0:0:
440,36,92038,1,8,0:0:0:0:
468,132,92338,2,0,P|460:224|436:344,1,210,0|8,1:0|0:0,0:0:0:0:
340,324,93538,2,0,P|348:232|372:112,1,210,2|8,0:0|0:0,0:0:0:0:
280,76,94738,6,0,P|184:40|80:64,1,210,4|8,0:0|0:0,0:0:0:0:
128,148,95938,2,0,P|104:252|148:340,1,210,0|8,1:0|0:0,0:0:0:0:
240,300,97138,2,0,L|344:304,2,105,4|2|8,0:0|0:0|0:0,0:0:0:0:
148,340,98338,2,0,L|44:336,2,105,0|2|8,1:0|0:0|0:0,0:0:0:0:
156,244,99538,6,0,P|132:180|136:108,1,140,4|2,0:0|0:0,0:0:0:0:
316,36,100738,2,0,P|340:100|336:172,1,140,0|2,1:0|0:0,0:0:0:0:
256,352,101938,1,4,0:0:0:0:
452,328,102538,1,4,0:0:0:0:
336,172,103138,2,0,L|344:100,3,70,4|4|4|2,0:0|0:0|0:0|0:0,0:0:0:0:
252,64,104338,6,0,P|148:52|40:56,1,210,4|8,1:0|0:0,0:0:0:0:
36,152,105538,2,0,P|140:164|248:160,1,210,0|8,1:0|0:0,0:0:0:0:
344,172,106738,2,0,P|320:284|380:348,1,210,0|8,1:0|0:0,0:0:0:0:
408,252,107938,2,0,L|200:308,1,210,2|8,0:0|0:0,0:0:0:0:
108,320,109138,6,0,P|84:276|84:220,2,105,0|2|8,1:0|0:0|0:0,0:0:0:0:
176,248,110338,2,0,P|175:196|151:150,2,105,0|2|8,1:0|0:0|0:0,0:0:0:0:
260,300,111538,2,0,L|404:304,1,140,0|0,1:0|0:0,0:0:0:0:
436,212,112438,1,8,0:0:0:0:
436,212,112738,2,0,L|292:208,1,140,2|0,0:0|0:0,0:0:0:0:
200,216,113638,1,8,0:0:0:0:
116,268,113938,6,0,P|68:188|84:76,1,210,4|8,0:0|0:0,0:0:0:0:
180,84,115138,2,0,B|248:60|252:92|320:72,1,140,0|0,1:0|0:0,0:0:0:0:
412,52,116038,1,8,0:0:0:0:
468,132,116338,2,0,P|448:232|444:340,1,210,2|8,0:0|0:0,0:0:0:0:
348,328,117538,2,0,P|272:318|208:316,1,140,0|0,1:0|0:0,0:0:0:0:
132,252,118438,1,8,0:0:0:0:
36,224,118738,6,0,P|36:276|64:324,2,105,4|0|0,1:0|1:0|1:0,0:0:0:0:
112,156,119938,2,0,P|111:103|84:56,2,105,4|0|0,0:0|1:0|1:0,0:0:0:0:
132,252,121138,5,4,0:0:0:0:
228,264,121438,1,4,0:0:0:0:
324,276,121738,1,4,0:0:0:0:
420,288,122038,1,4,0:0:0:0:
420,288,122338,2,0,B|400:180|472:188|448:84,1,210,4|0,0:0|0:0,0:0:0:0:
356,56,123538,5,4,0:0:0:0:
256,192,123688,12,0,127138,0:0:0:0:
