osu file format v13

[General]
AudioFilename: Musical Masterpiece - M-A.mp3
AudioLeadIn: 0
PreviewTime: 55888
Countdown: 0
SampleSet: Soft
StackLeniency: 0.7
Mode: 0
LetterboxInBreaks: 1
WidescreenStoryboard: 0

[Editor]
DistanceSpacing: 0.7
BeatDivisor: 4
GridSize: 4
TimelineZoom: 1

[Metadata]
Title:M-A
TitleUnicode:M-A
Artist:Musical Masterpiece
ArtistUnicode:Musical Masterpiece
Creator:Reiji-RJ
Version:Another
Source:BMS
Tags:EvilElvis Vass_Bass
BeatmapID:145876
BeatmapSetID:46926

[Difficulty]
HPDrainRate:7
CircleSize:4
OverallDifficulty:8
ApproachRate:9
SliderMultiplier:1.8
SliderTickRate:1

[Events]
//Background and Video events
0,0,"402526.jpg",0,0
//Break Periods
//Storyboard Layer 0 (Background)
//Storyboard Layer 1 (Fail)
//Storyboard Layer 2 (Pass)
//Storyboard Layer 3 (Foreground)
//Storyboard Sound Samples
//Background Colour Transformations
3,100,163,162,255

[TimingPoints]
2338,300,4,2,0,5,1,0
3313,-100,4,2,0,20,0,0
3388,-100,4,2,0,40,0,0
3463,-100,4,2,0,60,0,0
3538,-100,4,2,0,80,0,0
3913,-100,4,1,0,80,0,0
4063,-100,4,2,0,80,0,0
4363,-100,4,1,0,80,0,0
4513,-100,4,2,0,80,0,0
5113,-100,4,1,0,80,0,0
5263,-100,4,2,0,80,0,0
5563,-100,4,1,0,80,0,0
5713,-100,4,2,0,80,0,0
6313,-100,4,1,0,80,0,0
6463,-100,4,2,0,80,0,0
6763,-100,4,1,0,80,0,0
7063,-100,4,1,0,60,0,0
7213,-100,4,2,0,80,0,0
7513,-100,4,1,0,80,0,0
7663,-100,4,2,0,80,0,0
7963,-100,4,1,0,80,0,0
8113,-100,4,2,0,80,0,0
8713,-100,4,1,0,80,0,0
8863,-100,4,2,0,80,0,0
9163,-100,4,1,0,80,0,0
9313,-100,4,2,0,80,0,0
9913,-100,4,1,0,80,0,0
10063,-100,4,2,0,80,0,0
10363,-100,4,1,0,80,0,0
10513,-100,4,2,0,80,0,0
11113,-100,4,1,0,80,0,0
11263,-100,4,2,0,80,0,0
11563,-100,4,1,0,80,0,0
11713,-100,4,2,0,80,0,0
11863,-100,4,1,0,80,0,0
12013,-100,4,2,0,80,0,0
12313,-100,4,1,0,80,0,0
12463,-100,4,2,0,80,0,0
12763,-100,4,1,0,80,0,0
12913,-100,4,2,0,80,0,0
13513,-100,4,1,0,80,0,0
13663,-100,4,2,0,80,0,0
13963,-100,4,1,0,80,0,0
14113,-100,4,2,0,80,0,0
14713,-100,4,1,0,80,0,0
14863,-100,4,2,0,80,0,0
15163,-100,4,1,0,80,0,0
15313,-100,4,2,0,80,0,0
15463,-100,4,1,0,80,0,0
15613,-100,4,2,0,80,0,0
15913,-100,4,1,0,80,0,0
16063,-100,4,2,0,80,0,0
16363,-100,4,1,0,80,0,0
16513,-100,4,2,0,80,0,0
16663,-100,4,1,0,80,0,0
16813,-100,4,2,0,80,0,0
17113,-100,4,1,0,80,0,0
17263,-100,4,2,0,80,0,0
17563,-100,4,1,0,80,0,0
17713,-100,4,2,0,80,0,0
20488,-100,4,1,0,10,0,0
20638,-100,4,1,0,20,0,0
20788,-100,4,1,0,30,0,0
20938,-100,4,1,0,40,0,0
21088,-100,4,1,0,50,0,0
21238,-100,4,1,0,60,0,0
21388,-100,4,1,0,70,0,0
21538,-100,4,1,0,80,0,0
22438,-100,4,1,0,90,0,1
22738,-100,4,1,0,80,0,0
22963,-100,4,2,0,80,0,0
23938,-100,4,1,0,60,0,0
24163,-100,4,2,0,80,0,0
25138,-100,4,1,0,50,0,0
25288,-100,4,2,0,80,0,0
27538,-100,4,1,0,50,0,0
27688,-100,4,2,0,80,0,0
28513,-100,4,1,0,50,0,0
28813,-100,4,2,0,80,0,0
29938,-100,4,1,0,50,0,0
30088,-100,4,2,0,80,0,0
31063,-100,4,1,0,50,0,0
31213,-100,4,2,0,80,0,0
32263,-100,4,1,0,50,0,0
32413,-100,4,2,0,80,0,0
33313,-100,4,1,0,50,0,0
33613,-100,4,2,0,80,0,0
34738,-100,4,1,0,50,0,0
34813,-100,4,2,0,80,0,0
35938,-100,4,2,0,60,0,0
36238,-100,4,2,0,70,0,0
36538,-100,4,2,0,80,0,0
36838,-100,4,2,0,90,0,0
37138,-100,4,2,0,100,0,1
37288,-100,4,2,0,80,0,0
37888,-100,4,1,0,50,0,0
37963,-100,4,2,0,80,0,0
39088,-100,4,1,0,50,0,0
39163,-100,4,2,0,80,0,0
40288,-100,4,1,0,50,0,0
40363,-100,4,2,0,80,0,0
41488,-100,4,1,0,50,0,0
41563,-100,4,2,0,80,0,0
42688,-100,4,1,0,50,0,0
42763,-100,4,2,0,80,0,0
43888,-100,4,1,0,50,0,0
43963,-100,4,2,0,80,0,0
45088,-100,4,1,0,50,0,0
45163,-100,4,2,0,80,0,0
46288,-100,4,1,0,50,0,0
46363,-100,4,2,0,80,0,0
47413,-100,4,1,0,50,0,0
47638,-100,4,2,0,80,0,0
48613,-100,4,1,0,50,0,0
48838,-100,4,2,0,80,0,0
49663,-100,4,1,0,50,0,0
49738,-100,4,2,0,80,0,0
50263,-100,4,1,0,50,0,0
50338,-100,4,2,0,80,0,0
51088,-100,4,1,0,50,0,0
51163,-100,4,2,0,80,0,0
51238,-100,4,1,0,80,0,0
51313,-100,4,2,0,100,0,0
51538,-100,4,2,0,80,0,0
51763,-100,4,1,0,80,0,0
51913,-100,4,2,0,80,0,0
52213,-100,4,1,0,50,0,0
52363,-100,4,1,0,80,0,0
52513,-100,4,2,0,80,0,0
52963,-100,4,1,0,80,0,0
53263,-100,4,1,0,50,0,0
53563,-100,4,1,0,80,0,0
53713,-100,4,1,0,60,0,0
54163,-100,4,1,0,80,0,0
54463,-100,4,1,0,50,0,0
54763,-100,4,1,0,80,0,0
55063,-100,4,2,0,50,0,0
55963,-100,4,2,0,80,0,0
56563,-100,4,1,0,80,0,0
56713,-100,4,2,0,80,0,0
57163,-100,4,1,0,80,0,0
57313,-100,4,2,0,80,0,0
57763,-100,4,1,0,80,0,0
57913,-100,4,2,0,80,0,0
58363,-100,4,1,0,80,0,0
58513,-100,4,2,0,80,0,0
58963,-100,4,1,0,80,0,0
59113,-100,4,2,0,80,0,0
59563,-100,4,1,0,80,0,0
60013,-100,4,2,0,80,0,0
60163,-100,4,1,0,80,0,0
60313,-100,4,2,0,80,0,0
60763,-100,4,1,0,80,0,0
60913,-100,4,2,0,80,0,0
61363,-100,4,1,0,80,0,0
61513,-100,4,2,0,80,0,0
61963,-100,4,1,0,80,0,0
62113,-100,4,2,0,80,0,0
62563,-100,4,1,0,80,0,0
62713,-100,4,2,0,80,0,0
63163,-100,4,1,0,80,0,0
63313,-100,4,2,0,80,0,0
63763,-100,4,1,0,80,0,0
63913,-100,4,2,0,80,0,0
64363,-100,4,1,0,80,0,0
64513,-100,4,2,0,80,0,0
64963,-100,4,1,0,80,0,0
65113,-100,4,2,0,80,0,0
65263,-100,4,1,0,80,0,0
65563,-100,4,2,0,50,0,0
65713,-100,4,2,0,60,0,0
65788,-100,4,2,0,70,0,0
65863,-100,4,2,0,80,0,0
65938,-100,4,2,0,90,0,0
66013,-100,4,2,0,80,0,0
66163,-100,4,1,0,80,0,0
66313,-100,4,2,0,80,0,0
66763,-100,4,1,0,80,0,0
66913,-100,4,2,0,80,0,0
67363,-100,4,1,0,80,0,0
67513,-100,4,2,0,80,0,0
67963,-100,4,1,0,80,0,0
68113,-100,4,2,0,80,0,0
68563,-100,4,1,0,80,0,0
68713,-100,4,2,0,80,0,0
69163,-100,4,1,0,80,0,0
69313,-100,4,2,0,80,0,0
69763,-100,4,1,0,80,0,0
69913,-100,4,2,0,80,0,0
70363,-100,4,1,0,80,0,0
70663,-100,4,1,0,60,0,0
70813,-100,4,1,0,80,0,0
71113,-100,4,2,0,80,0,0
71563,-100,4,1,0,80,0,0
71713,-100,4,2,0,80,0,0
72163,-100,4,1,0,80,0,0
72313,-100,4,2,0,80,0,0
72763,-100,4,1,0,80,0,0
72913,-100,4,2,0,80,0,0
73063,-100,4,1,0,80,0,0
73213,-100,4,2,0,80,0,0
73363,-100,4,1,0,80,0,0
73513,-100,4,2,0,80,0,0
73963,-100,4,1,0,80,0,0
74413,-100,4,1,0,50,0,0
74713,-100,4,1,0,60,0,0
74938,-100,4,1,0,70,0,0
75163,-100,4,2,0,50,0,0
75313,-100,4,2,0,60,0,0
75388,-100,4,2,0,70,0,0
75463,-100,4,2,0,80,0,0
75538,-100,4,2,0,90,0,1
75613,-100,4,2,0,80,0,0
76213,-100,4,1,0,50,0,0
76363,-100,4,2,0,80,0,0
76738,-100,4,1,0,50,0,0
76813,-100,4,2,0,80,0,0
77413,-100,4,1,0,50,0,0
77563,-100,4,2,0,80,0,0
78013,-100,4,1,0,50,0,0
78163,-100,4,2,0,80,0,0
78538,-100,4,1,0,50,0,0
78613,-100,4,2,0,80,0,0
79288,-100,4,1,0,50,0,0
79363,-100,4,2,0,80,0,0
79888,-100,4,1,0,50,0,0
79963,-100,4,2,0,80,0,0
81538,-100,4,2,0,90,0,0
82588,-100,4,2,0,100,0,1
84013,-100,4,2,0,50,0,0
84238,-100,4,2,0,60,0,0
84538,-100,4,2,0,70,0,0
84838,-66.6666666666667,4,1,0,60,0,1
84988,-66.6666666666667,4,1,0,70,0,1
85138,-100,4,1,0,80,0,0
85213,-100,4,1,0,50,0,0
85363,-100,4,2,0,80,0,0
85813,-100,4,1,0,50,0,0
85963,-100,4,2,0,80,0,0
86263,-100,4,1,0,50,0,0
86563,-100,4,2,0,80,0,0
87013,-100,4,1,0,50,0,0
87163,-100,4,2,0,80,0,0
87613,-100,4,1,0,50,0,0
87763,-100,4,2,0,80,0,0
95863,-100,4,2,0,50,0,0
96013,-100,4,2,0,80,0,0
96163,-100,4,2,0,60,0,0
96313,-100,4,2,0,80,0,0
96463,-100,4,2,0,70,0,0
96613,-100,4,2,0,80,0,0
104038,-100,4,1,0,80,0,0
104338,-100,4,2,0,100,0,1
104413,-100,4,1,0,50,0,0
104563,-100,4,2,0,80,0,0
105013,-100,4,1,0,50,0,0
105163,-100,4,2,0,80,0,0
105463,-100,4,1,0,50,0,0
105763,-100,4,2,0,80,0,0
106213,-100,4,1,0,50,0,0
106363,-100,4,2,0,80,0,0
115063,-100,4,2,0,50,0,0
115213,-100,4,2,0,80,0,0
115363,-100,4,2,0,60,0,0
115513,-100,4,2,0,80,0,0
115663,-100,4,2,0,70,0,0
115813,-100,4,2,0,80,0,0
119113,-100,4,1,0,50,0,0
119863,-100,4,2,0,80,0,0
120313,-100,4,1,0,50,0,0
120988,-100,4,2,0,100,0,1
122413,-100,4,2,0,50,0,0
122638,-100,4,2,0,60,0,0
122938,-100,4,2,0,70,0,0
123238,-66.6666666666667,4,1,0,100,0,1
123613,-100,4,2,0,100,0,0
123838,-100,4,2,0,90,0,0
123988,-100,4,2,0,80,0,0
124138,-100,4,2,0,70,0,0
124288,-100,4,2,0,60,0,0
124438,-100,4,2,0,50,0,0
124588,-100,4,2,0,40,0,0
124738,-100,4,2,0,30,0,0
124888,-100,4,2,0,20,0,0
125038,-100,4,2,0,10,0,0
125188,-100,4,2,0,5,0,0

[Colours]
Combo1 : 250,203,204
Combo2 : 160,41,86

[HitObjects]
96,100,3238,6,0,B|108:120,7,22.5
120,128,3538,6,0,B|88:224|168:292,1,180,4|2,0:0|0:0,0:0:0:0:
288,344,3988,2,0,B|312:248|232:184,1,180,0|2,0:0|0:0,0:0:0:0:
240,64,4438,2,0,B|284:144|396:136,1,180
416,224,4888,1,2,0:0:0:0:
432,312,5038,1,0,0:0:0:0:
432,312,5188,2,0,B|248:328,1,180,0|2,0:0|0:0,0:0:0:0:
64,256,5638,2,0,B|160:248,1,90
240,232,5938,5,2,0:0:0:0:
328,248,6088,1,0,0:0:0:0:
416,224,6238,1,0,0:0:0:0:
472,152,6388,2,0,B|392:216|432:320,1,180,0|2,0:0|0:0,0:0:0:0:
320,208,6838,2,0,B|376:120|320:40,1,180,0|4,0:0|0:0,0:0:0:0:
232,72,7288,2,0,B|128:80,1,90,0|2,0:0|0:0,0:0:0:0:
32,184,7588,2,0,B|128:192,1,90
256,288,7888,1,2,0:0:0:0:
256,288,8038,2,0,B|160:296,1,90
88,344,8338,6,0,B|24:272|80:176,1,180,4|2,0:0|0:0,0:0:0:0:
168,168,8788,2,0,B|256:176|352:152,1,180,0|2,0:0|0:0,0:0:0:0:
464,248,9238,2,0,B|368:232|280:256,1,180,0|2,0:0|0:0,0:0:0:0:
200,288,9688,1,0,0:0:0:0:
112,296,9838,1,0,0:0:0:0:
24,272,9988,2,0,B|104:208|72:104,1,180,0|2,0:0|0:0,0:0:0:0:
168,168,10438,2,0,B|256:208|360:184,1,180,0|2,0:0|0:0,0:0:0:0:
432,168,10888,6,0,B|416:128|432:80,1,90
368,256,11188,2,0,B|392:304|376:352,1,90,0|2,0:0|0:0,0:0:0:0:
272,200,11488,1,0,0:0:0:0:
272,200,11638,2,0,B|288:160|264:104,1,90,0|2,0:0|0:0,0:0:0:0:
168,64,11938,2,0,B|72:64,1,90
168,168,12238,1,0,0:0:0:0:
168,168,12388,2,0,B|264:168,1,90,0|2,0:0|0:0,0:0:0:0:
192,288,12688,1,0,0:0:0:0:
192,288,12838,2,0,B|80:288,1,90,0|2,0:0|0:0,0:0:0:0:
272,200,13138,6,0,B|352:144|448:176,1,180,4|2,0:0|0:0,0:0:0:0:
248,296,13588,2,0,B|160:248|192:136,1,180,0|2,0:0|0:0,0:0:0:0:
352,184,14038,2,0,B|440:240|408:344,1,180,0|2,0:0|0:0,0:0:0:0:
320,320,14488,1,0,0:0:0:0:
232,336,14638,1,0,0:0:0:0:
144,320,14788,2,0,B|128:272|80:248,1,90
80,112,15088,1,2,0:0:0:0:
80,112,15238,2,0,B|96:160|144:176,1,90,0|2,0:0|0:0,0:0:0:0:
208,240,15538,6,0,B|296:192|384:240,1,180,0|2,0:0|0:0,0:0:0:0:
472,248,15988,1,0,0:0:0:0:
472,248,16288,1,2,0:0:0:0:
448,160,16438,1,0,0:0:0:0:
424,72,16588,1,0,0:0:0:0:
424,72,16738,2,0,B|240:80,1,180,0|2,0:0|0:0,0:0:0:0:
80,176,17188,2,0,B|264:168,1,180,0|2,0:0|0:0,0:0:0:0:
352,160,17638,1,0,0:0:0:0:
352,160,17788,1,0,0:0:0:0:
464,336,17938,5,4,0:0:0:0:
468,320,18013,1,0,0:0:0:0:
472,304,18088,1,0,0:0:0:0:
472,288,18163,1,0,0:0:0:0:
472,272,18238,1,2,0:0:0:0:
468,256,18313,1,0,0:0:0:0:
464,240,18388,1,2,0:0:0:0:
456,224,18463,1,0,0:0:0:0:
448,208,18538,1,2,0:0:0:0:
436,192,18613,1,0,0:0:0:0:
376,280,18838,5,2,0:0:0:0:
372,264,18913,1,0,0:0:0:0:
364,248,18988,1,2,0:0:0:0:
352,236,19063,1,0,0:0:0:0:
340,224,19138,1,4,0:0:0:0:
324,216,19213,1,0,0:0:0:0:
268,300,19438,5,2,0:0:0:0:
252,292,19513,1,0,0:0:0:0:
236,288,19588,1,2,0:0:0:0:
220,288,19663,1,0,0:0:0:0:
204,292,19738,1,2,0:0:0:0:
188,300,19813,1,0,0:0:0:0:
32,224,20038,5,2,0:0:0:0:
48,228,20113,1,0,0:0:0:0:
64,228,20188,1,2,0:0:0:0:
80,228,20263,1,0,0:0:0:0:
96,224,20338,5,4,0:0:0:0:
128,212,20488,1,0,0:0:0:0:
160,192,20638,1,0,0:0:0:0:
200,168,20788,1,0,0:0:0:0:
248,152,20938,1,0,0:0:0:0:
320,152,21088,1,0,0:0:0:0:
400,168,21238,1,0,0:0:0:0:
464,232,21388,1,0,0:0:0:0:
408,336,21538,5,4,0:0:0:0:
336,256,21688,1,0,0:0:0:0:
320,152,21838,1,0,0:0:0:0:
360,48,21988,1,0,0:0:0:0:
128,88,22288,1,0,0:0:0:0:
144,176,22438,2,0,B|128:200,7,22.5
144,216,22738,6,0,B|248:212|300:296,1,180,4|8,0:0|0:0,0:0:0:0:
320,308,23113,1,0,0:0:0:0:
344,316,23188,1,2,0:0:0:0:
372,316,23263,1,0,0:0:0:0:
400,312,23338,1,0,0:0:0:0:
424,300,23413,1,0,0:0:0:0:
444,280,23488,1,2,0:0:0:0:
456,256,23563,1,0,0:0:0:0:
460,228,23638,1,8,0:0:0:0:
456,200,23713,1,0,0:0:0:0:
444,176,23788,1,2,0:0:0:0:
432,152,23863,1,0,0:0:0:0:
412,132,23938,6,0,B|316:172|236:116,1,180,0|8,0:0|0:0,0:0:0:0:
216,108,24313,1,0,0:0:0:0:
192,120,24388,1,2,0:0:0:0:
168,128,24463,1,0,0:0:0:0:
140,128,24538,1,0,0:0:0:0:
116,120,24613,1,0,0:0:0:0:
92,108,24688,1,2,0:0:0:0:
88,136,24763,1,0,0:0:0:0:
76,160,24838,1,8,0:0:0:0:
56,180,24913,1,0,0:0:0:0:
36,196,24988,1,2,0:0:0:0:
12,208,25063,1,0,0:0:0:0:
12,208,25138,6,0,B|120:352,1,180,0|8,0:0|0:0,0:0:0:0:
144,344,25513,1,0,0:0:0:0:
168,336,25588,1,2,0:0:0:0:
192,328,25663,1,0,0:0:0:0:
216,320,25738,1,0,0:0:0:0:
240,312,25813,1,0,0:0:0:0:
264,304,25888,1,2,0:0:0:0:
288,312,25963,1,0,0:0:0:0:
312,304,26038,1,8,0:0:0:0:
336,296,26113,1,0,0:0:0:0:
360,288,26188,1,2,0:0:0:0:
384,280,26263,1,0,0:0:0:0:
408,272,26338,6,0,B|416:224,3,45,2|0|2|0,0:0|0:0|0:0|0:0,0:0:0:0:
312,160,26638,2,0,B|320:208,3,45,10|0|2|0,0:0|0:0|0:0|0:0,0:0:0:0:
200,248,26938,2,0,B|192:200,3,45,2|0|2|0,0:0|0:0|0:0|0:0,0:0:0:0:
96,160,27238,2,0,B|80:208,3,45,10|0|2|0,0:0|0:0|0:0|0:0,0:0:0:0:
64,72,27538,6,0,B|256:80,1,180,0|8,0:0|0:0,0:0:0:0:
268,76,27913,1,0,0:0:0:0:
288,80,27988,1,2,0:0:0:0:
312,76,28063,1,0,0:0:0:0:
336,80,28138,1,0,0:0:0:0:
360,76,28213,1,0,0:0:0:0:
380,80,28288,1,2,0:0:0:0:
404,76,28363,1,0,0:0:0:0:
424,80,28438,5,8,0:0:0:0:
376,200,28588,1,0,0:0:0:0:
472,296,28738,2,0,B|288:312,1,180,0|8,0:0|0:0,0:0:0:0:
272,304,29113,5,0,0:0:0:0:
252,292,29188,1,2,0:0:0:0:
232,284,29263,1,0,0:0:0:0:
208,284,29338,1,0,0:0:0:0:
188,292,29413,1,0,0:0:0:0:
168,300,29488,1,2,0:0:0:0:
148,308,29563,1,0,0:0:0:0:
128,316,29638,1,8,0:0:0:0:
104,320,29713,1,0,0:0:0:0:
84,316,29788,1,2,0:0:0:0:
64,304,29863,1,0,0:0:0:0:
52,284,29938,5,0,0:0:0:0:
80,64,30238,1,8,0:0:0:0:
72,84,30313,1,0,0:0:0:0:
68,108,30388,1,2,0:0:0:0:
72,132,30463,1,0,0:0:0:0:
84,148,30538,1,0,0:0:0:0:
104,160,30613,1,0,0:0:0:0:
120,176,30688,1,2,0:0:0:0:
128,196,30763,1,0,0:0:0:0:
124,216,30838,5,8,0:0:0:0:
252,256,30988,1,0,0:0:0:0:
352,176,31138,1,0,0:0:0:0:
416,324,31438,5,8,0:0:0:0:
432,308,31513,1,0,0:0:0:0:
440,288,31588,1,2,0:0:0:0:
444,268,31663,1,0,0:0:0:0:
440,244,31738,1,0,0:0:0:0:
428,228,31813,1,0,0:0:0:0:
412,216,31888,1,2,0:0:0:0:
396,200,31963,1,0,0:0:0:0:
392,180,32038,5,8,0:0:0:0:
240,112,32188,1,0,0:0:0:0:
120,216,32338,1,0,0:0:0:0:
120,216,32638,5,8,0:0:0:0:
104,136,32788,1,2,0:0:0:0:
88,56,32938,1,0,0:0:0:0:
256,120,33163,5,0,0:0:0:0:
256,120,33238,1,8,0:0:0:0:
256,208,33388,1,0,0:0:0:0:
256,296,33538,1,0,0:0:0:0:
408,328,33838,5,8,0:0:0:0:
416,232,33988,1,2,0:0:0:0:
424,136,34138,1,0,0:0:0:0:
336,72,34288,5,2,0:0:0:0:
336,72,34363,1,0,0:0:0:0:
336,72,34438,1,8,0:0:0:0:
184,96,34588,1,2,0:0:0:0:
184,96,34663,1,0,0:0:0:0:
184,96,34738,1,0,0:0:0:0:
44,320,35038,5,8,0:0:0:0:
124,280,35188,1,0,0:0:0:0:
212,264,35338,1,2,0:0:0:0:
300,264,35488,1,0,0:0:0:0:
388,288,35638,1,8,0:0:0:0:
468,328,35788,1,0,0:0:0:0:
456,216,35938,6,0,B|448:160,3,45,2|0|2|0,0:0|0:0|0:0|0:0,0:0:0:0:
336,128,36238,2,0,B|328:176,3,45,2|0|2|0,0:0|0:0|0:0|0:0,0:0:0:0:
184,184,36538,2,0,B|176:136,3,45,2|0|2|0,0:0|0:0|0:0|0:0,0:0:0:0:
56,184,36838,2,0,B|40:232,3,45,2|0|2|0,0:0|0:0|0:0|0:0,0:0:0:0:
80,328,37138,6,0,B|168:296|264:320,1,180,4|2,0:0|0:0,0:0:0:0:
344,336,37588,1,0,0:0:0:0:
432,328,37738,1,0,0:0:0:0:
416,240,37888,1,0,0:0:0:0:
416,240,37963,1,0,0:0:0:0:
416,240,38038,1,2,0:0:0:0:
400,152,38188,1,0,0:0:0:0:
384,64,38338,6,0,B|200:72,1,180,4|2,0:0|0:0,0:0:0:0:
112,80,38788,1,0,0:0:0:0:
32,124,38938,1,0,0:0:0:0:
112,172,39088,1,0,0:0:0:0:
112,172,39163,1,0,0:0:0:0:
112,172,39238,2,0,B|216:164,1,90,2|2,0:0|0:0,0:0:0:0:
472,192,39538,6,0,B|376:224|296:152,1,180,4|2,0:0|0:0,0:0:0:0:
256,232,39988,1,0,0:0:0:0:
256,232,40138,2,0,P|244:276|248:320,1,90
232,332,40363,1,0,0:0:0:0:
216,348,40438,2,0,B|124:340,1,90,2|0,0:0|0:0,0:0:0:0:
52,188,40738,5,2,0:0:0:0:
68,204,40813,1,0,0:0:0:0:
88,216,40888,1,0,0:0:0:0:
108,220,40963,1,0,0:0:0:0:
132,220,41038,1,2,0:0:0:0:
156,216,41113,1,0,0:0:0:0:
176,208,41188,1,0,0:0:0:0:
196,200,41263,1,0,0:0:0:0:
208,180,41338,5,0,0:0:0:0:
228,172,41413,1,0,0:0:0:0:
252,168,41488,1,0,0:0:0:0:
276,168,41563,1,0,0:0:0:0:
296,176,41638,1,2,0:0:0:0:
316,188,41713,1,0,0:0:0:0:
332,204,41788,1,0,0:0:0:0:
344,224,41863,1,0,0:0:0:0:
356,244,41938,6,0,B|392:272|452:264,1,90,4|0,0:0|0:0,0:0:0:0:
408,168,42238,2,0,B|456:160|480:112,1,90,2|0,0:0|0:0,0:0:0:0:
352,96,42538,2,0,B|376:56|344:0,1,90
256,96,42838,2,4,B|192:32|80:64,1,180
24,144,43288,5,0,0:0:0:0:
32,160,43363,1,0,0:0:0:0:
40,176,43438,2,0,B|144:160,1,90,2|0,0:0|0:0,0:0:0:0:
96,256,43738,2,0,B|200:248,1,90
152,336,44038,2,4,B|336:352,1,180
424,288,44488,5,0,0:0:0:0:
432,264,44563,1,0,0:0:0:0:
440,240,44638,1,2,0:0:0:0:
328,224,44788,1,0,0:0:0:0:
336,200,44863,1,0,0:0:0:0:
344,176,44938,1,2,0:0:0:0:
224,168,45088,1,0,0:0:0:0:
232,144,45163,1,0,0:0:0:0:
240,120,45238,1,2,0:0:0:0:
136,72,45388,1,0,0:0:0:0:
56,152,45538,5,2,0:0:0:0:
76,168,45613,1,0,0:0:0:0:
88,192,45688,1,0,0:0:0:0:
96,216,45763,1,0,0:0:0:0:
96,244,45838,1,2,0:0:0:0:
88,272,45913,1,0,0:0:0:0:
84,300,45988,1,0,0:0:0:0:
88,328,46063,1,0,0:0:0:0:
104,348,46138,5,0,0:0:0:0:
128,332,46213,1,0,0:0:0:0:
152,324,46288,1,0,0:0:0:0:
180,320,46363,1,0,0:0:0:0:
208,324,46438,1,2,0:0:0:0:
232,332,46513,1,0,0:0:0:0:
260,336,46588,1,0,0:0:0:0:
288,340,46663,1,0,0:0:0:0:
316,340,46738,5,4,0:0:0:0:
424,304,46888,2,0,B|464:280,2,45,0|0|2,0:0|0:0|0:0,0:0:0:0:
376,216,47188,2,0,B|336:240,2,45,0|0|2,0:0|0:0|0:0,0:0:0:0:
280,152,47488,2,0,B|320:128,2,45,0|0|2,0:0|0:0|0:0,0:0:0:0:
208,232,47788,1,0,0:0:0:0:
96,224,47938,5,4,0:0:0:0:
96,120,48088,2,0,B|80:80,2,45,0|0|2,0:0|0:0|0:0,0:0:0:0:
192,96,48388,2,0,B|208:136,2,45,0|0|2,0:0|0:0|0:0,0:0:0:0:
288,80,48688,2,0,B|272:40,2,45,0|0|2,0:0|0:0|0:0,0:0:0:0:
392,72,48988,1,0,0:0:0:0:
464,144,49138,5,4,0:0:0:0:
432,312,49438,1,2,0:0:0:0:
296,312,49663,1,0,0:0:0:0:
296,312,49738,1,4,0:0:0:0:
80,208,50038,1,2,0:0:0:0:
216,208,50263,1,0,0:0:0:0:
216,208,50338,1,4,0:0:0:0:
376,112,50638,2,0,B|424:120,11,45,2|0|0|0|2|0|0|0|0|0|2|2,0:0|0:0|0:0|0:0|0:0|0:0|0:0|0:0|0:0|0:0|0:0|0:0,0:0:0:0:
376,112,51538,5,4,0:0:0:0:
144,80,51838,2,0,B|184:176|112:248,1,180,0|0,0:0|0:0,0:0:0:0:
64,320,52288,1,0,0:0:0:0:
152,312,52438,1,0,0:0:0:0:
240,320,52588,1,0,0:0:0:0:
240,320,52663,1,2,0:0:0:0:
240,320,52738,2,0,B|424:336,2,180,2|0|0,0:0|0:0|0:0,0:0:0:0:
200,240,53488,1,0,0:0:0:0:
200,240,53638,2,0,B|384:256,1,180,0|4,0:0|0:0,0:0:0:0:
160,160,54238,6,0,B|300:172,1,135
339,175,54538,1,0,0:0:0:0:
339,175,54688,1,0,0:0:0:0:
339,175,54838,1,0,0:0:0:0:
128,80,55138,5,2,0:0:0:0:
152,320,56038,5,2,0:0:0:0:
256,288,56188,1,0,0:0:0:0:
360,320,56338,2,0,B|448:280|456:168,1,180,4|0,0:0|0:0,0:0:0:0:
288,56,56788,2,0,B|256:160|336:224,1,180,2|0,0:0|0:0,0:0:0:0:
256,288,57238,2,0,B|216:264|160:272,1,90
32,184,57538,2,0,B|224:168,1,180,2|0,0:0|0:0,0:0:0:0:
296,192,57988,1,0,0:0:0:0:
368,248,58138,1,2,0:0:0:0:
456,272,58288,1,0,0:0:0:0:
456,272,58438,2,0,B|424:184|456:96,1,180,0|2,0:0|0:0,0:0:0:0:
40,320,59038,5,0,0:0:0:0:
40,320,59188,2,0,B|112:280|224:312,1,180,2|0,0:0|0:0,0:0:0:0:
304,328,59638,2,0,B|392:360|480:312,1,180
424,240,60088,1,0,0:0:0:0:
392,152,60238,1,0,0:0:0:0:
408,64,60388,2,0,B|304:72,1,90,2|0,0:0|0:0,0:0:0:0:
120,176,60688,1,0,0:0:0:0:
120,176,60838,2,0,B|200:128|304:168,1,180,0|4,0:0|0:0,0:0:0:0:
112,336,61438,6,0,B|120:280|80:256,1,90,0|2,0:0|0:0,0:0:0:0:
32,176,61738,1,0,0:0:0:0:
80,96,61888,1,0,0:0:0:0:
168,72,62038,2,0,B|168:184|256:216,1,180,0|2,0:0|0:0,0:0:0:0:
456,320,62638,2,0,B|368:328,1,90,0|2,0:0|0:0,0:0:0:0:
208,256,62938,2,0,B|296:248,1,90
160,344,63238,2,0,B|72:352,1,90
88,264,63538,6,0,B|16:200|56:88,1,180,2|0,0:0|0:0,0:0:0:0:
152,136,63988,1,2,0:0:0:0:
256,104,64138,1,0,0:0:0:0:
360,136,64288,1,0,0:0:0:0:
459,98,64438,2,0,B|496:200|424:264,1,180,0|4,0:0|0:0,0:0:0:0:
392,344,64888,2,0,B|296:352,1,90
80,288,65188,2,0,B|176:296,1,90
256,272,65488,1,0,0:0:0:0:
344,248,65638,2,2,B|376:256,7,22.5
328,224,65938,6,0,B|248:160|288:48,1,180,4|0,0:0|0:0,0:0:0:0:
368,104,66388,2,0,B|304:184|192:160,1,180,2|0,0:0|0:0,0:0:0:0:
120,136,66838,1,0,0:0:0:0:
120,136,67138,2,0,B|104:240,1,90,2|0,0:0|0:0,0:0:0:0:
192,344,67438,2,0,B|208:240,1,90
320,144,67738,2,0,B|304:248,1,90
392,352,68038,2,0,B|408:248,1,90,0|0,0:0|0:0,0:0:0:0:
480,136,68338,6,0,B|408:216|312:176,1,180,2|0,0:0|0:0,0:0:0:0:
220,160,68788,1,0,0:0:0:0:
24,288,68938,2,0,B|96:224|200:256,1,180,2|0,0:0|0:0,0:0:0:0:
280,280,69388,1,0,0:0:0:0:
360,240,69538,2,0,B|456:232,1,90,2|0,0:0|0:0,0:0:0:0:
400,152,69838,1,0,0:0:0:0:
312,136,69988,1,0,0:0:0:0:
220,160,70138,1,2,0:0:0:0:
132,192,70288,1,0,0:0:0:0:
48,168,70438,2,0,B|136:136|224:184,1,180,0|4,0:0|0:0,0:0:0:0:
432,328,71038,6,0,B|440:240,1,90
344,312,71338,2,0,B|328:224,1,90,2|0,0:0|0:0,0:0:0:0:
256,328,71638,2,0,B|216:248,1,90
80,112,71938,6,0,B|64:208,1,90,2|0,0:0|0:0,0:0:0:0:
168,128,72238,2,0,B|184:224,1,90
256,104,72538,2,0,B|304:184,1,90,2|0,0:0|0:0,0:0:0:0:
384,216,72838,1,0,0:0:0:0:
472,208,72988,1,0,0:0:0:0:
440,288,73138,5,0,0:0:0:0:
336,320,73288,1,0,0:0:0:0:
224,320,73438,1,0,0:0:0:0:
56,216,73738,5,0,0:0:0:0:
152,240,73888,1,0,0:0:0:0:
248,240,74038,1,0,0:0:0:0:
488,128,74338,5,4,0:0:0:0:
336,164,74563,1,0,0:0:0:0:
180,120,74788,1,0,0:0:0:0:
28,156,75013,1,0,0:0:0:0:
128,32,75238,2,2,B|112:56,7,22.5
156,36,75538,5,4,0:0:0:0:
180,56,75613,1,0,0:0:0:0:
188,88,75688,1,0,0:0:0:0:
180,120,75763,1,0,0:0:0:0:
168,148,75838,1,2,0:0:0:0:
164,180,75913,1,0,0:0:0:0:
168,212,75988,1,2,0:0:0:0:
184,240,76063,1,0,0:0:0:0:
208,260,76138,1,2,0:0:0:0:
312,240,76288,5,0,0:0:0:0:
344,336,76438,1,2,0:0:0:0:
316,324,76513,1,0,0:0:0:0:
284,320,76588,1,2,0:0:0:0:
252,328,76663,1,0,0:0:0:0:
228,348,76738,1,0,0:0:0:0:
120,328,76888,5,0,0:0:0:0:
48,248,77038,1,2,0:0:0:0:
60,220,77113,1,0,0:0:0:0:
64,188,77188,1,2,0:0:0:0:
60,156,77263,1,0,0:0:0:0:
48,128,77338,1,2,0:0:0:0:
112,40,77488,5,0,0:0:0:0:
216,84,77638,1,2,0:0:0:0:
228,108,77713,1,2,0:0:0:0:
232,136,77788,1,0,0:0:0:0:
244,160,77863,1,2,0:0:0:0:
248,188,77938,1,4,0:0:0:0:
280,320,78088,5,0,0:0:0:0:
392,328,78238,1,2,0:0:0:0:
380,300,78313,1,0,0:0:0:0:
372,268,78388,1,2,0:0:0:0:
376,236,78463,1,0,0:0:0:0:
384,204,78538,2,0,B|420:168|408:112,1,90,0|0,0:0|0:0,0:0:0:0:
312,40,78838,5,2,0:0:0:0:
304,72,78913,1,0,0:0:0:0:
284,96,78988,1,2,0:0:0:0:
256,112,79063,1,0,0:0:0:0:
224,120,79138,2,0,B|172:112|128:152,1,90,2|0,0:0|0:0,0:0:0:0:
48,232,79438,5,2,0:0:0:0:
80,232,79513,1,0,0:0:0:0:
108,244,79588,1,2,0:0:0:0:
132,264,79663,1,0,0:0:0:0:
152,288,79738,2,0,B|192:312|256:296,1,90,2|0,0:0|0:0,0:0:0:0:
352,272,80038,5,0,0:0:0:0:
352,272,80113,1,2,0:0:0:0:
440,336,80263,1,2,0:0:0:0:
440,336,80338,1,4,0:0:0:0:
448,224,80488,5,0,0:0:0:0:
436,200,80563,1,0,0:0:0:0:
432,172,80638,1,2,0:0:0:0:
436,144,80713,1,0,0:0:0:0:
448,120,80788,1,0,0:0:0:0:
464,96,80863,1,0,0:0:0:0:
444,76,80938,5,2,0:0:0:0:
420,68,81013,1,0,0:0:0:0:
392,64,81088,1,0,0:0:0:0:
368,72,81163,1,0,0:0:0:0:
344,84,81238,1,2,0:0:0:0:
324,100,81313,1,0,0:0:0:0:
300,108,81388,1,0,0:0:0:0:
272,116,81463,1,0,0:0:0:0:
244,116,81538,5,2,0:0:0:0:
212,108,81613,1,0,0:0:0:0:
188,100,81688,1,0,0:0:0:0:
168,84,81763,1,0,0:0:0:0:
144,72,81838,1,2,0:0:0:0:
120,64,81913,1,0,0:0:0:0:
92,68,81988,1,0,0:0:0:0:
68,76,82063,1,0,0:0:0:0:
48,96,82138,5,2,0:0:0:0:
64,120,82213,1,0,0:0:0:0:
76,144,82288,1,0,0:0:0:0:
80,172,82363,1,0,0:0:0:0:
76,200,82438,1,2,0:0:0:0:
64,224,82513,1,0,0:0:0:0:
60,252,82588,5,2,0:0:0:0:
68,276,82663,1,2,0:0:0:0:
76,300,82738,1,4,0:0:0:0:
184,348,82888,5,2,0:0:0:0:
188,316,82963,1,2,0:0:0:0:
192,284,83038,1,4,0:0:0:0:
304,244,83188,5,2,0:0:0:0:
312,280,83263,1,2,0:0:0:0:
320,316,83338,1,4,0:0:0:0:
432,352,83488,5,2,0:0:0:0:
436,312,83563,1,2,0:0:0:0:
440,272,83638,1,4,0:0:0:0:
384,168,83788,5,2,0:0:0:0:
376,124,83863,1,2,0:0:0:0:
368,80,83938,2,2,B|360:44,23,22.5,6|2|2|2|2|2|2|2|2|2|2|2|2|2|2|2|2|2|2|2|2|2|2|2,0:0|0:0|0:0|0:0|0:0|0:0|0:0|0:0|0:0|0:0|0:0|0:0|0:0|0:0|0:0|0:0|0:0|0:0|0:0|0:0|0:0|0:0|0:0|0:0,0:0:0:0:
332,104,84838,2,0,B|324:148,7,33.7499989941716
288,112,85138,6,0,B|248:136|184:120,1,90,4|0,0:0|0:0,0:0:0:0:
104,80,85438,1,8,0:0:0:0:
104,80,85588,2,0,B|72:176|128:256,1,180,0|0,0:0|0:0,0:0:0:0:
104,352,86038,2,0,B|184:304|288:336,1,180,8|0,0:0|0:0,0:0:0:0:
368,344,86488,1,0,0:0:0:0:
456,328,86638,1,8,0:0:0:0:
400,256,86788,2,0,B|312:200|352:88,1,180
432,32,87238,2,0,B|360:104|256:72,1,180,8|2,0:0|0:0,0:0:0:0:
152,48,87688,1,0,0:0:0:0:
56,104,87838,5,8,0:0:0:0:
48,124,87913,1,2,0:0:0:0:
48,148,87988,1,0,0:0:0:0:
52,168,88063,1,0,0:0:0:0:
64,188,88138,1,2,0:0:0:0:
80,204,88213,1,0,0:0:0:0:
104,212,88288,1,0,0:0:0:0:
128,212,88363,1,0,0:0:0:0:
148,208,88438,1,8,0:0:0:0:
172,208,88513,1,2,0:0:0:0:
192,216,88588,1,0,0:0:0:0:
212,228,88663,1,0,0:0:0:0:
216,252,88738,5,2,0:0:0:0:
220,272,88813,1,0,0:0:0:0:
232,292,88888,1,0,0:0:0:0:
248,304,88963,1,0,0:0:0:0:
272,304,89038,1,8,0:0:0:0:
296,300,89113,1,2,0:0:0:0:
316,308,89188,1,0,0:0:0:0:
332,324,89263,1,0,0:0:0:0:
344,344,89338,6,0,B|392:348,3,45,2|2|2|2,0:0|0:0|0:0|0:0,0:0:0:0:
404,332,89638,2,0,B|448:336,3,45,10|2|2|2,0:0|0:0|0:0|0:0,0:0:0:0:
464,320,89938,5,4,0:0:0:0:
408,224,90088,1,0,0:0:0:0:
448,120,90238,1,2,0:0:0:0:
320,40,90388,1,0,0:0:0:0:
320,40,90463,1,0,0:0:0:0:
320,40,90538,5,2,0:0:0:0:
360,144,90688,1,0,0:0:0:0:
336,248,90838,1,2,0:0:0:0:
256,344,90988,1,0,0:0:0:0:
256,344,91063,1,0,0:0:0:0:
256,344,91138,5,4,0:0:0:0:
208,248,91288,1,0,0:0:0:0:
240,144,91438,1,2,0:0:0:0:
112,40,91588,1,0,0:0:0:0:
112,40,91663,1,0,0:0:0:0:
112,40,91738,5,2,0:0:0:0:
152,144,91888,1,0,0:0:0:0:
104,240,92038,1,2,0:0:0:0:
40,344,92188,1,0,0:0:0:0:
40,344,92263,1,2,0:0:0:0:
40,344,92338,6,0,B|80:328|128:336,1,90,4|2,0:0|0:0,0:0:0:0:
148,324,92563,1,0,0:0:0:0:
168,332,92638,1,0,0:0:0:0:
192,336,92713,1,0,0:0:0:0:
216,332,92788,1,2,0:0:0:0:
240,328,92863,1,0,0:0:0:0:
260,336,92938,5,0,0:0:0:0:
280,328,93013,1,0,0:0:0:0:
304,324,93088,1,2,0:0:0:0:
328,324,93163,1,0,0:0:0:0:
352,328,93238,1,0,0:0:0:0:
372,336,93313,1,0,0:0:0:0:
392,344,93388,1,2,0:0:0:0:
412,348,93463,1,0,0:0:0:0:
436,348,93538,6,0,B|456:304,7,45,2|2|2|2|2|2|2|2,0:0|0:0|0:0|0:0|0:0|0:0|0:0|0:0,0:0:0:0:
384,256,94138,2,0,B|392:212,7,45,2|2|2|2|2|2|2|2,0:0|0:0|0:0|0:0|0:0|0:0|0:0|0:0,0:0:0:0:
312,192,94738,6,0,B|272:224|216:216,1,90,4|0,0:0|0:0,0:0:0:0:
176,312,95038,1,8,0:0:0:0:
176,312,95188,2,0,B|96:256|136:144,1,180
248,72,95638,2,0,B|168:136|64:88,1,180,8|4,0:0|0:0,0:0:0:0:
200,192,96088,1,0,0:0:0:0:
200,192,96238,5,4,0:0:0:0:
224,224,96313,1,0,0:0:0:0:
232,264,96388,1,2,0:0:0:0:
336,224,96538,1,4,0:0:0:0:
336,264,96613,1,0,0:0:0:0:
344,304,96688,1,2,0:0:0:0:
456,176,96838,1,4,0:0:0:0:
448,216,96913,1,0,0:0:0:0:
448,256,96988,1,2,0:0:0:0:
472,72,97138,5,4,0:0:0:0:
444,84,97213,1,0,0:0:0:0:
412,88,97288,1,0,0:0:0:0:
380,84,97363,1,0,0:0:0:0:
348,76,97438,1,8,0:0:0:0:
320,64,97513,1,0,0:0:0:0:
288,56,97588,1,0,0:0:0:0:
256,52,97663,1,2,0:0:0:0:
224,56,97738,2,0,B|204:64|180:64,7,45,2|0|2|0|8|0|2|0,0:0|0:0|0:0|0:0|0:0|0:0|0:0|0:0,0:0:0:0:
148,60,98338,5,2,0:0:0:0:
116,64,98413,1,0,0:0:0:0:
88,76,98488,1,0,0:0:0:0:
64,96,98563,1,0,0:0:0:0:
48,124,98638,1,8,0:0:0:0:
44,156,98713,1,0,0:0:0:0:
48,188,98788,1,2,0:0:0:0:
60,216,98863,1,0,0:0:0:0:
72,244,98938,2,0,B|76:272|60:304,6,45,2|0|2|0|8|0|2,0:0|0:0|0:0|0:0|0:0|0:0|0:0,0:0:0:0:
160,316,99538,5,4,0:0:0:0:
192,308,99613,1,0,0:0:0:0:
224,312,99688,1,0,0:0:0:0:
256,320,99763,1,0,0:0:0:0:
284,336,99838,1,2,0:0:0:0:
432,328,99988,5,2,0:0:0:0:
404,312,100063,1,0,0:0:0:0:
380,292,100138,1,0,0:0:0:0:
364,264,100213,1,0,0:0:0:0:
356,232,100288,1,2,0:0:0:0:
288,96,100438,6,2,B|264:84,6,22.5
316,112,100738,1,4,0:0:0:0:
344,124,100813,1,0,0:0:0:0:
376,128,100888,1,0,0:0:0:0:
408,124,100963,1,0,0:0:0:0:
440,116,101038,1,2,0:0:0:0:
316,220,101188,5,2,0:0:0:0:
284,212,101263,1,0,0:0:0:0:
252,212,101338,1,0,0:0:0:0:
220,220,101413,1,0,0:0:0:0:
192,236,101488,1,2,0:0:0:0:
48,200,101638,6,2,B|16:204,6,22.5
80,192,101938,1,4,0:0:0:0:
108,180,102013,1,0,0:0:0:0:
136,164,102088,1,2,0:0:0:0:
156,140,102163,1,0,0:0:0:0:
176,116,102238,1,2,0:0:0:0:
200,96,102313,1,0,0:0:0:0:
228,80,102388,1,2,0:0:0:0:
260,72,102463,1,0,0:0:0:0:
292,76,102538,5,4,0:0:0:0:
320,88,102613,1,0,0:0:0:0:
344,108,102688,1,2,0:0:0:0:
364,132,102763,1,0,0:0:0:0:
372,164,102838,1,2,0:0:0:0:
368,196,102913,1,0,0:0:0:0:
352,224,102988,1,2,0:0:0:0:
328,244,103063,1,0,0:0:0:0:
300,256,103138,5,4,0:0:0:0:
268,256,103213,1,0,0:0:0:0:
240,248,103288,1,2,0:0:0:0:
216,228,103363,1,0,0:0:0:0:
204,200,103438,1,4,0:0:0:0:
204,168,103513,1,0,0:0:0:0:
224,144,103588,1,2,0:0:0:0:
252,132,103663,1,0,0:0:0:0:
284,136,103738,5,4,0:0:0:0:
308,156,103813,1,0,0:0:0:0:
320,184,103888,1,0,0:0:0:0:
320,216,103963,1,0,0:0:0:0:
308,244,104038,1,0,0:0:0:0:
284,264,104113,1,0,0:0:0:0:
256,280,104188,1,0,0:0:0:0:
224,284,104263,1,0,0:0:0:0:
192,280,104338,6,0,B|148:252|88:276,1,90,4|0,0:0|0:0,0:0:0:0:
24,192,104638,1,8,0:0:0:0:
128,128,104788,2,0,B|312:144,1,180
424,96,105238,2,0,B|392:136|400:192,1,90,8|0,0:0|0:0,0:0:0:0:
464,240,105538,2,0,B|368:280,1,90
304,328,105838,1,8,0:0:0:0:
304,328,105988,2,0,B|232:280|112:312,1,180
48,272,106438,1,8,0:0:0:0:
48,272,106588,1,0,0:0:0:0:
48,272,106738,5,2,0:0:0:0:
64,236,106813,1,0,0:0:0:0:
68,196,106888,1,0,0:0:0:0:
60,156,106963,1,0,0:0:0:0:
44,120,107038,2,0,B|40:72|84:32,1,90,8|0,0:0|0:0,0:0:0:0:
116,40,107263,5,0,0:0:0:0:
152,56,107338,1,2,0:0:0:0:
188,72,107413,1,0,0:0:0:0:
228,80,107488,1,0,0:0:0:0:
268,76,107563,1,0,0:0:0:0:
308,68,107638,2,0,B|352:88|396:76,1,90,8|0,0:0|0:0,0:0:0:0:
436,64,107863,5,0,0:0:0:0:
428,104,107938,1,2,0:0:0:0:
428,144,108013,1,0,0:0:0:0:
440,184,108088,1,0,0:0:0:0:
460,220,108163,1,0,0:0:0:0:
476,256,108238,2,0,B|480:312|440:340,1,90,8|0,0:0|0:0,0:0:0:0:
404,340,108463,5,0,0:0:0:0:
364,336,108538,1,2,0:0:0:0:
324,340,108613,1,0,0:0:0:0:
284,336,108688,1,2,0:0:0:0:
244,340,108763,1,0,0:0:0:0:
204,336,108838,1,8,0:0:0:0:
96,320,108988,1,2,0:0:0:0:
80,216,109138,6,0,B|72:120,2,90,4|0|2,0:0|0:0|0:0,0:0:0:0:
200,72,109588,1,0,0:0:0:0:
200,72,109663,1,0,0:0:0:0:
200,72,109738,6,0,B|192:176,2,90,2|0|2,0:0|0:0|0:0,0:0:0:0:
320,232,110188,1,0,0:0:0:0:
320,232,110263,1,0,0:0:0:0:
320,232,110338,6,0,B|312:144,2,90,4|0|2,0:0|0:0|0:0,0:0:0:0:
440,96,110788,1,0,0:0:0:0:
440,96,110863,1,0,0:0:0:0:
440,96,110938,6,0,B|432:192,2,90,2|0|2,0:0|0:0|0:0,0:0:0:0:
480,256,111388,1,0,0:0:0:0:
436,328,111538,5,4,0:0:0:0:
408,328,111613,1,0,0:0:0:0:
380,320,111688,1,2,0:0:0:0:
356,308,111763,1,0,0:0:0:0:
336,288,111838,1,0,0:0:0:0:
328,264,111913,1,0,0:0:0:0:
324,236,111988,1,2,0:0:0:0:
328,208,112063,1,0,0:0:0:0:
340,184,112138,2,0,B|312:136,7,45,2|0|2|0|2|0|2|0,0:0|0:0|0:0|0:0|0:0|0:0|0:0|0:0,0:0:0:0:
296,120,112738,5,0,0:0:0:0:
272,100,112813,1,0,0:0:0:0:
244,88,112888,1,2,0:0:0:0:
212,84,112963,1,0,0:0:0:0:
180,92,113038,1,0,0:0:0:0:
152,112,113113,1,0,0:0:0:0:
132,132,113188,1,2,0:0:0:0:
120,160,113263,1,0,0:0:0:0:
108,188,113338,2,0,B|64:212,7,45,2|0|2|0|2|0|2|0,0:0|0:0|0:0|0:0|0:0|0:0|0:0|0:0,0:0:0:0:
56,232,113938,5,4,0:0:0:0:
56,320,114088,1,0,0:0:0:0:
144,344,114238,1,8,0:0:0:0:
144,256,114388,2,0,B|336:240,1,180
480,312,114838,2,0,B|296:328,1,180,8|4,0:0|0:0,0:0:0:0:
208,336,115288,1,0,0:0:0:0:
144,256,115438,6,0,B|120:208,2,45,4|0|0,0:0|0:0|0:0,0:0:0:0:
256,200,115738,2,0,B|249:155,2,45,4|0|0,0:0|0:0|0:0,0:0:0:0:
376,232,116038,2,0,B|384:184,2,45,4|0|0,0:0|0:0|0:0,0:0:0:0:
436,300,116338,5,4,0:0:0:0:
412,320,116413,1,0,0:0:0:0:
380,328,116488,1,0,0:0:0:0:
348,324,116563,1,0,0:0:0:0:
320,308,116638,1,8,0:0:0:0:
304,280,116713,1,0,0:0:0:0:
296,248,116788,1,0,0:0:0:0:
300,216,116863,1,2,0:0:0:0:
312,188,116938,5,2,0:0:0:0:
320,156,117013,1,0,0:0:0:0:
312,124,117088,1,2,0:0:0:0:
300,96,117163,1,0,0:0:0:0:
276,76,117238,1,8,0:0:0:0:
248,60,117313,1,0,0:0:0:0:
216,56,117388,1,2,0:0:0:0:
184,60,117463,1,0,0:0:0:0:
156,72,117538,5,2,0:0:0:0:
132,92,117613,1,0,0:0:0:0:
112,116,117688,1,0,0:0:0:0:
104,148,117763,1,0,0:0:0:0:
104,180,117838,1,8,0:0:0:0:
116,208,117913,1,0,0:0:0:0:
136,232,117988,1,2,0:0:0:0:
164,248,118063,1,0,0:0:0:0:
196,252,118138,5,2,0:0:0:0:
228,248,118213,1,0,0:0:0:0:
256,236,118288,1,2,0:0:0:0:
284,220,118363,1,0,0:0:0:0:
316,216,118438,1,8,0:0:0:0:
348,220,118513,1,0,0:0:0:0:
376,232,118588,1,2,0:0:0:0:
404,248,118663,1,0,0:0:0:0:
420,276,118738,5,4,0:0:0:0:
392,140,118888,1,0,0:0:0:0:
472,32,119038,1,8,0:0:0:0:
392,140,119188,2,0,B|300:124|308:180|216:160,1,180,0|0,0:0|0:0,0:0:0:0:
256,56,119638,1,0,0:0:0:0:
256,56,119788,1,4,0:0:0:0:
40,32,119938,5,4,0:0:0:0:
120,140,120088,1,0,0:0:0:0:
92,276,120238,1,8,0:0:0:0:
120,140,120388,2,0,B|212:124|204:180|296:160,1,180,0|0,0:0|0:0,0:0:0:0:
392,240,120838,1,0,0:0:0:0:
256,272,120988,5,0,0:0:0:0:
256,272,121063,1,0,0:0:0:0:
256,272,121138,1,4,0:0:0:0:
256,56,121288,5,2,0:0:0:0:
256,56,121363,1,0,0:0:0:0:
256,56,121438,1,4,0:0:0:0:
136,160,121588,5,2,0:0:0:0:
136,160,121663,1,0,0:0:0:0:
136,160,121738,1,4,0:0:0:0:
376,160,121888,5,2,0:0:0:0:
376,160,121963,1,0,0:0:0:0:
376,160,122038,1,4,0:0:0:0:
256,160,122188,5,2,0:0:0:0:
256,160,122263,1,0,0:0:0:0:
256,160,122338,2,2,B|264:196,23,22.5,6|2|2|2|2|2|2|2|2|2|2|2|2|2|2|2|2|2|2|2|2|2|2|2,0:0|0:0|0:0|0:0|0:0|0:0|0:0|0:0|0:0|0:0|0:0|0:0|0:0|0:0|0:0|0:0|0:0|0:0|0:0|0:0|0:0|0:0|0:0|0:0,0:0:0:0:
252,144,123238,2,0,B|240:104,8,33.7499989941716,0|0|0|0|0|0|0|0|4,0:0|0:0|0:0|0:0|0:0|0:0|0:0|0:0|0:0,0:0:0:0:
256,192,123613,12,0,127138,0:0:0:0:
