osu file format v5

[General]
AudioFilename: Darkworld.mp3
AudioLeadIn: 0
PreviewTime: 7272
Countdown: 2
SampleSet: Soft
StackLeniency: 0.7
Mode: 0
LetterboxInBreaks: 1

[Metadata]
Title:Zelda 3 - Darkworld
Artist:MusicWizard
Creator:Tylian
Version:Hard
Source:Legend of Zelda: A Link to the Past
Tags:Legend of Zelda A Link to the Past Dark World

[Difficulty]
HPDrainRate:7
CircleSize:5
OverallDifficulty:5
SliderMultiplier:1
SliderTickRate:1

[Events]
//Background and Video events
//Break Periods
2,63950,69822
//Storyboard Layer 0 (Background)
//Storyboard Layer 1 (Failing)
//Storyboard Layer 2 (Passing)
//Storyboard Layer 3 (Foreground)
//Storyboard Sound Samples
//Background Colour Transformations
3,100,163,162,255

[TimingPoints]
0,454.545454545455,4,2,0,100,1

[Colours]
Combo1 : 89,89,89
Combo2 : 0,128,128
Combo3 : 70,163,255
Combo4 : 255,0,128

[HitObjects]
96,104,7272,1,0
128,88,7500,2,0,B|184:56|256:184|376:200|384:200,1,275
408,216,8977,1,0
408,256,9204,1,0
376,280,9431,1,2
352,288,9545,1,2
328,288,9659,1,2
80,216,11136,5,0
96,176,11363,1,0
128,128,11704,2,0,B|176:64|320:64,1,275
392,104,13181,1,2
392,120,13295,1,2
392,136,13409,1,2
176,24,14772,5,0
152,56,15000,1,0
120,136,15227,2,2,B|184:136|184:136,2,50
120,168,15795,1,2
128,192,15909,1,2
160,240,16136,1,0
416,184,17159,2,2,B|472:184|472:184,2,50
416,216,17727,1,2
400,240,17840,1,2
352,280,18068,1,0
240,312,18522,5,0
200,272,18750,2,0,B|112:176|80:88|160:24|168:24,1,275
176,32,20227,1,0
216,32,20454,1,0
232,64,20681,1,2
248,80,20795,1,2
264,88,20909,1,2
408,280,22272,1,0
368,296,22500,1,0
288,296,22954,1,0
176,104,24204,5,0
208,88,24432,1,2
224,80,24545,1,2
240,80,24659,1,2
480,80,26022,1,8
480,120,26250,2,8,B|480:200|456:296|424:328|352:368|304:368|240:368|168:344|72:304|40:256|24:200|24:144|48:96,1,725
40,80,29772,2,2,B|88:80|80:80,2,25
296,48,31477,5,0
312,80,31704,1,0
328,112,31931,1,2
328,128,32045,1,2
320,144,32159,1,2
96,232,33522,1,2
88,248,33636,1,2
88,264,33750,2,0,B|184:296|256:240|176:104|168:40|208:64|240:64,1,325
280,64,35454,1,0
312,88,35681,1,2
320,104,35795,1,2
320,120,35909,1,2
80,120,37272,5,0
72,136,37386,1,0
72,152,37500,1,0
272,320,38977,1,0
304,288,39204,1,0
328,256,39431,1,2
336,240,39545,1,2
336,216,39659,2,0,B|256:208|88:168|80:72|224:32|232:32,1,350
480,48,42727,1,0
472,88,42954,1,0
440,112,43181,1,2
416,120,43295,1,2
392,112,43409,1,2
256,192,45000,12,4,47727
192,160,48750,5,0
208,160,48863,1,2
224,160,48977,1,0
240,160,49090,1,2
320,160,49545,2,0,B|392:168|432:232,1,150
368,256,50682,1,0
352,256,50796,1,2
328,256,50909,1,0
304,256,51023,1,2
224,256,51477,2,0,B|168:176|40:160|32:160,1,200
32,112,52613,5,0
48,96,52727,1,2
64,88,52840,1,0
80,88,52954,1,2
136,88,53295,2,0,B|224:88|296:120|344:80|344:64,1,200
368,96,54431,1,0
384,112,54545,1,2
392,128,54659,1,0
392,144,54772,1,2
384,200,55113,2,0,B|344:256|208:240|200:240,1,175
160,240,56250,5,0
144,224,56363,1,2
136,200,56477,1,0
144,184,56590,1,2
176,136,56931,2,0,B|232:88|280:144|280:152,1,100
304,184,57613,1,0
384,184,58181,1,0
400,168,58295,1,2
400,144,58409,1,0
392,120,58522,1,2
360,48,58977,2,0,B|296:32|240:48|240:56,1,100
256,192,59659,12,8,63750
416,280,71022,5,0
384,296,71250,2,0,B|328:328|256:200|136:184|128:184,1,275
104,168,72727,1,0
104,128,72954,1,0
136,104,73181,1,2
160,96,73295,1,2
184,96,73409,1,2
432,168,74886,5,0
416,208,75113,1,0
384,256,75454,2,0,B|336:320|192:320,1,275
120,280,76931,1,2
120,264,77045,1,2
120,248,77159,1,2
336,360,78522,5,0
360,328,78750,1,0
392,248,78977,2,2,B|328:248|328:248,2,50
392,216,79545,1,2
384,192,79659,1,2
352,144,79886,1,0
96,200,80909,2,2,B|40:200|40:200,2,50
96,168,81477,1,2
112,144,81590,1,2
160,104,81818,1,0
272,72,82272,5,0
312,112,82500,2,0,B|400:208|432:296|352:360|344:360,1,275
336,352,83977,1,0
296,352,84204,1,0
280,320,84431,1,2
264,304,84545,1,2
248,296,84659,1,2
104,104,86022,1,0
144,88,86250,1,0
224,88,86704,1,0
336,280,87954,5,0
304,296,88182,1,2
288,304,88295,1,2
272,304,88409,1,2
32,304,89772,1,8
32,264,90000,2,8,B|32:184|56:88|88:56|136:24|208:16|272:16|352:24|448:80|456:128|464:184|472:240|472:296,1,725
472,304,93522,2,2,B|424:304|432:304,2,25
216,336,95227,5,0
200,304,95454,1,0
184,272,95681,1,2
184,256,95795,1,2
192,240,95909,1,2
416,152,97272,1,2
424,136,97386,1,2
424,120,97500,2,0,B|328:88|256:144|336:280|344:344|304:320|272:320,1,325
232,320,99204,1,0
200,296,99431,1,2
192,280,99545,1,2
192,264,99659,1,2
432,264,101022,5,0
440,248,101136,1,0
440,232,101250,1,0
240,64,102727,1,0
208,96,102954,1,0
184,128,103181,1,2
176,144,103295,1,2
176,168,103409,2,0,B|256:176|424:216|432:312|288:352|280:352,1,350
32,336,106477,1,0
40,296,106704,1,0
72,272,106931,1,2
96,264,107045,1,2
120,272,107159,1,2
256,192,108750,12,4,112500
