osu file format v5

[General]
AudioFilename: Nake! Wameke!!(Last Boss).mp3
AudioLeadIn: 0
PreviewTime: -1
Countdown: 1
SampleSet: Normal
StackLeniency: 0.7
Mode: 0
LetterboxInBreaks: 1
EditorBookmarks: 20660,41994,62750,64048

[Metadata]
Title:Cry! Roar!!
Artist:Mushihime-sama Futari OST
Creator:Reikin
Version:God Mode
Source:
Tags:

[Difficulty]
HPDrainRate:3
CircleSize:5
OverallDifficulty:8
SliderMultiplier:2.6
SliderTickRate:4

[Events]
//Background and Video events
//Break Periods
//Storyboard Layer 0 (Background)
//Storyboard Layer 1 (Failing)
//Storyboard Layer 2 (Passing)
//Storyboard Layer 3 (Foreground)
//Storyboard Sound Samples
//Background Colour Transformations
3,100,163,162,255

[TimingPoints]
20660.9381196567,333.333333333333,4,1,0,100,1,0
41994,324.324324324324,4,1,0,100,1,0
62750,-100,4,1,0,0,0,0
64048,333.333333333333,4,1,0,100,1,0
85381,324.324324324324,4,1,0,100,1,0

[HitObjects]
32,32,20660,1,0
96,96,20827,2,0,L|160:210|160:210|224:96,1,260
288,96,21327,2,2,L|384:224,3,130
448,192,21994,1,0
384,256,22161,2,0,L|320:370|320:370|256:256,1,260
192,256,22661,2,2,L|96:384,3,130
64,288,23327,5,0
96,224,23494,2,0,L|184:128|96:32,1,260
192,32,23994,2,2,L|288:128,1,130
352,128,24327,2,2,L|448:32,1,130
480,96,24660,5,0
448,160,24827,2,0,L|360:256|448:352,1,260
352,352,25327,2,2,L|256:256,1,130
192,256,25660,2,2,L|96:352,1,130
64,288,25994,6,0,L|84:256|41:224|64:192,1,130,2|0
128,160,26327,1,0
192,128,26494,2,0,L|172:96|215:64|192:32,1,130,2|0
256,0,26827,1,0
319,32,26994,2,0,L|297:64|340:96|384:96,1,130,2|0
448,96,27327,6,0,L|428:128|471:160|448:192,1,130,2|0
384,224,27660,1,0
320,256,27827,2,0,L|340:288|297:320|320:352,1,130,2|0
256,384,28160,1,0
192,351,28327,2,0,L|215:320|172:288|128:288,1,130,2|0
96,224,28660,5,0
160,192,28827,2,0,L|64:128|64:128|224:128,1,260
192,64,29327,2,2,L|352:64,1,130
384,96,29660,2,2,L|256:160,1,130
352,192,29994,5,0
288,224,30161,2,0,L|384:288|384:288|224:288,1,260
224,224,30661,2,2,L|64:224,1,130
64,288,30994,2,2,L|128:288|96:352,1,130
32,352,31327,5,0
96,288,31494,2,0,L|160:174|160:174|224:288,1,260
288,288,31994,2,2,L|384:160,3,130
448,192,32661,1,0
384,128,32828,2,0,L|320:14|320:14|256:128,1,260
192,128,33328,2,2,L|96:0,3,130
64,96,33994,5,0
96,160,34161,2,0,L|184:256|96:352,1,260
192,352,34661,2,2,L|288:256,1,130
352,256,34994,2,2,L|448:352,1,130
480,288,35327,5,0
448,224,35494,2,0,L|360:128|448:32,1,260
352,32,35994,2,2,L|256:128,1,130
192,128,36327,2,2,L|96:32,1,130
64,96,36661,6,0,L|84:128|41:160|64:192,1,130,2|0
128,224,36994,1,0
192,256,37161,2,0,L|172:288|215:320|192:352,1,130,2|0
256,384,37494,1,0
319,351,37661,2,0,L|297:320|340:288|384:288,1,130,2|0
448,288,37994,6,0,L|428:256|471:224|448:192,1,130,2|0
384,160,38327,1,0
320,128,38494,2,0,L|340:96|297:64|320:32,1,130,2|0
256,0,38827,1,0
192,32,38994,2,0,L|215:64|172:96|128:96,1,130,2|0
96,160,39327,5,0
160,192,39494,2,0,L|64:256|64:256|224:256,1,260
192,320,39994,2,2,L|352:320,1,130
384,288,40327,2,2,L|256:224,1,130
352,192,40661,5,0
288,160,40828,2,0,L|384:96|384:96|224:96,1,260
256,32,41328,2,2,L|96:32,1,130
64,64,41661,2,2,L|192:128,1,130
224,192,41994,5,0
224,192,42075,1,0
224,192,42156,1,0
224,192,42237,1,0
224,192,42318,2,0,L|320:320|416:256,1,260
384,64,43129,5,0
384,64,43210,1,0
384,64,43291,2,0,L|480:192|256:256,1,390
64,224,44102,5,0
96,160,44183,1,0
160,128,44264,1,0
224,160,44345,1,0
288,192,44426,1,0
368,208,44507,1,0
368,208,44588,5,0
368,208,44669,1,0
368,208,44750,1,0
368,208,44831,1,0
368,208,44912,2,0,L|496:80|496:176,1,260
128,320,45723,5,0
128,320,45804,1,0
128,320,45885,2,0,L|96:256|192:160|96:0,1,390
256,32,46696,5,0
320,64,46777,1,0
288,128,46858,1,0
352,160,46939,1,0
320,224,47021,1,0
256,224,47102,1,0
256,224,47183,5,0
256,224,47264,1,0
288,288,47345,1,0
288,288,47426,1,0
288,288,47507,2,0,L|416:352|448:224,1,260
80,128,48318,5,0
80,96,48399,1,0
80,128,48480,2,0,L|48:272|176:208|208:64,1,390
416,96,49291,5,0
464,144,49372,1,0
400,160,49453,1,0
352,112,49534,1,0
336,176,49615,1,0
384,224,49696,1,0
448,208,49777,5,0
448,208,49858,1,0
432,272,49939,1,0
432,272,50021,1,0
368,288,50102,2,0,L|144:304|96:272,1,260
160,64,50912,5,0
224,96,50993,1,0
256,32,51075,2,0,L|352:112|240:192|112:192,1,390
480,112,51885,5,0
432,160,51966,1,0
416,96,52048,1,0
368,144,52129,1,0
352,80,52210,1,0
304,128,52291,1,0
288,192,52372,5,0
288,192,52453,1,0
288,192,52534,1,0
288,192,52615,1,0
288,192,52696,2,0,L|192:64|96:128,1,260
128,320,53507,5,0
128,320,53588,1,0
128,320,53669,2,0,L|32:192|256:128,1,390
448,160,54480,5,0
416,224,54561,1,0
352,256,54642,1,0
288,224,54723,1,0
224,192,54804,1,0
176,240,54885,1,0
176,240,54966,5,0
176,240,55047,1,0
176,240,55128,1,0
176,240,55209,1,0
176,240,55290,2,0,L|48:368|48:272,1,260
384,64,56101,5,0
384,64,56182,1,0
384,64,56263,2,0,L|416:128|320:224|416:384,1,390
256,352,57074,5,0
192,320,57155,1,0
224,256,57236,1,0
160,224,57317,1,0
192,160,57399,1,0
256,160,57480,1,0
256,160,57561,5,0
256,160,57642,1,0
224,96,57723,1,0
224,96,57804,1,0
224,96,57885,2,0,L|96:32|64:160,1,260
432,256,58696,5,0
432,288,58777,1,0
432,256,58858,2,0,L|464:112|336:176|304:320,1,390
96,288,59669,5,0
48,240,59750,1,0
112,224,59831,1,0
160,272,59912,1,0
176,208,59993,1,0
128,160,60074,1,0
64,176,60155,5,0
64,176,60236,1,0
80,112,60317,1,0
80,112,60399,1,0
144,96,60480,2,0,L|368:80|416:112,1,260
352,320,61290,5,0
288,288,61371,1,0
256,352,61453,2,0,L|160:272|272:192|400:192,1,390
160,80,62264,5,0
96,112,62345,1,0
144,160,62426,1,0
208,176,62507,1,0
240,112,62588,1,0
304,80,62669,1,0
256,192,62750,12,0,63075
256,192,63115,12,0,63399
256,192,63439,12,0,63723
256,192,63764,12,0,64048
