osu file format v9

[General]
AudioFilename: Muse - You Fucking Motherfucker.mp3
AudioLeadIn: 1511
PreviewTime: 16548
Countdown: 1
SampleSet: Normal
StackLeniency: 0.7
Mode: 0
LetterboxInBreaks: 1

[Editor]
DistanceSpacing: 0.8
BeatDivisor: 4
GridSize: 8

[Metadata]
Title:You Fucking Motherfucker
Artist:Muse
Creator:Mashley
Version:Medium
Source:
Tags:starlight hidden track randomjibberish

[Difficulty]
HPDrainRate:3
CircleSize:3
OverallDifficulty:4
ApproachRate:4
SliderMultiplier:2.19999990463257
SliderTickRate:2

[Events]
//Background and Video events
0,0,"muse.jpg"
//Break Periods
//Storyboard Layer 0 (Background)
//Storyboard Layer 1 (Fail)
//Storyboard Layer 2 (Pass)
//Storyboard Layer 3 (Foreground)
//Storyboard Sound Samples
//Background Colour Transformations
3,100,0,0,0

[TimingPoints]
98.354330708661,463.320463320463,4,1,0,40,1,0
16721,-83.3333333333333,4,1,0,40,0,0
29289,-100,4,1,0,40,0,0
31606,-100,4,1,0,40,0,1
39019,-100,4,1,0,40,0,0
46316,-83.3333333333333,4,1,0,40,0,0
46432,-83.3333333333333,4,1,0,40,0,1
56509,-83.3333333333333,4,1,0,40,0,0

[Colours]
Combo1 : 77,158,67
Combo2 : 146,255,94
Combo3 : 24,231,40
Combo4 : 45,176,26

[HitObjects]
256,32,98,5,2
256,32,561,1,0
256,32,1024,1,0
256,32,1488,1,0
104,24,1951,5,2
32,56,2183,1,0
32,136,2414,2,2,B|24:208|72:256|128:264,1,164.999992847443
192,256,2994,1,4
472,80,3573,5,0
408,128,3804,1,2
480,160,4036,1,0
480,240,4267,2,2,B|488:312|440:360|384:368,1,164.999992847443
320,360,4847,1,4
48,360,5658,5,2
120,312,5889,1,2
464,288,6584,1,2
392,240,6815,1,2
352,16,7511,6,2,B|312:64|256:72|200:64|160:16,2,219.999990463257
432,8,8669,1,0
480,72,8901,1,2
480,216,9364,6,2,B|479:299|399:339|311:315,3,219.999990463257
256,264,10986,1,0
184,216,11218,2,2,B|105:194|25:234|24:318,3,219.999990463257,2|2|2|2
256,360,13071,5,4
360,192,13534,1,0
152,192,13997,1,2
256,24,14461,1,4
256,192,14924,12,4,16314
32,184,16777,6,2,B|176:224|64:312|208:368,1,263.999994850159
256,192,17588,1,2
256,192,17820,1,4
480,200,18631,6,2,B|336:160|448:72|304:16,1,263.999994850159
256,192,19442,1,2
256,192,19674,1,4
56,32,20484,6,2,B|112:72|136:208|64:280,1,263.999994850159
160,352,21295,1,2
160,352,21526,1,4
456,352,22337,6,2,B|400:312|376:176|448:104,1,263.999994850159
352,32,23148,1,2
352,32,23379,1,4
216,360,24191,5,2
296,360,24422,1,0
256,288,24654,1,2
256,128,25001,1,2
256,128,25233,1,4
144,16,26044,5,8
216,48,26275,1,0
288,16,26507,1,8
360,48,26739,1,0
360,48,26855,1,4
256,192,26970,12,4,28824
256,352,29750,5,2
256,352,30213,1,0
256,352,30676,1,0
256,352,31140,1,0
408,360,31603,5,2
480,328,31835,1,0
480,248,32066,2,2,B|488:176|440:128|384:120,1,164.999992847443
320,128,32646,1,4
40,304,33225,5,0
104,256,33456,1,2
32,224,33688,1,0
32,144,33919,2,2,B|24:72|72:24|128:16,1,164.999992847443
192,24,34499,1,4
464,24,35310,5,2
392,72,35541,1,2
320,120,35773,1,4
48,96,36236,1,2
120,144,36469,1,2
192,192,36699,1,4
160,368,37163,6,2,B|200:320|256:312|312:320|352:368,2,219.999990463257
80,376,38321,1,0
32,312,38553,1,2
72,240,38785,1,4
32,168,39016,6,2,B|33:85|113:45|201:69,3,219.999990463257
256,120,40638,1,0
328,168,40870,2,2,B|407:190|487:150|488:66,3,219.999990463257,2|2|2|2
256,24,42723,5,4
152,192,43186,1,0
360,192,43649,1,2
256,360,44113,1,4
256,192,44576,12,4,45966
480,200,46429,6,2,B|336:160|448:72|304:16,1,263.999994850159
256,96,47124,1,0
256,96,47240,1,2
256,192,47472,1,4
32,184,48283,6,2,B|176:224|64:312|208:368,1,263.999994850159
256,288,48978,1,0
256,288,49094,1,2
256,192,49326,1,4
456,352,50136,6,2,B|400:312|376:176|448:104,1,263.999994850159
400,32,50831,1,0
400,32,50947,1,2
320,80,51178,1,4
56,32,51989,6,2,B|112:72|136:208|64:280,1,263.999994850159
112,352,52684,1,0
112,352,52800,1,2
192,304,53031,1,4
296,24,53843,5,2
216,24,54074,1,0
256,96,54306,1,2
256,176,54537,1,0
256,176,54653,1,2
256,256,54885,1,4
368,368,55696,5,8
296,336,55927,1,0
224,368,56159,1,8
152,336,56391,1,0
152,336,56507,1,4
256,192,56622,12,4,58476
256,16,59403,5,2
256,192,59866,1,0
256,368,60330,1,0
