osu file format v9

[General]
AudioFilename: Muse - You Fucking Motherfucker.mp3
AudioLeadIn: 1511
PreviewTime: 16548
Countdown: 1
SampleSet: Normal
StackLeniency: 0.7
Mode: 0
LetterboxInBreaks: 1

[Editor]
DistanceSpacing: 0.6
BeatDivisor: 4
GridSize: 8

[Metadata]
Title:You Fucking Motherfucker
Artist:Muse
Creator:Mashley
Version:Easy
Source:
Tags:starlight hidden track randomjibberish

[Difficulty]
HPDrainRate:2
CircleSize:3
OverallDifficulty:2
ApproachRate:3
SliderMultiplier:1.39999990463257
SliderTickRate:2

[Events]
//Background and Video events
0,0,"muse.jpg"
//Break Periods
//Storyboard Layer 0 (Background)
//Storyboard Layer 1 (Fail)
//Storyboard Layer 2 (Pass)
//Storyboard Layer 3 (Foreground)
//Storyboard Sound Samples
//Background Colour Transformations
3,100,0,0,0

[TimingPoints]
98.354330708661,463.320463320463,4,1,0,40,1,0
16721,-83.3333333333333,4,1,0,40,0,0
29289,-100,4,1,0,40,0,0
31606,-100,4,1,0,40,0,1
39019,-100,4,1,0,40,0,0
46316,-83.3333333333333,4,1,0,40,0,0
46432,-83.3333333333333,4,1,0,40,0,1
56509,-83.3333333333333,4,1,0,40,0,0

[Colours]
Combo1 : 77,158,67
Combo2 : 146,255,94
Combo3 : 24,231,40
Combo4 : 45,176,26

[HitObjects]
256,40,98,5,2
256,40,561,1,0
256,40,1024,1,0
256,40,1488,1,0
320,0,1951,6,0,B|448:64|312:152|456:240,1,279.999980926514,4|8
464,312,3341,1,0
396,363,3804,6,0,B|108:363,1,279.999980926514,4|8
48,312,5194,1,0
80,232,5658,5,6
256,200,6584,5,6
432,232,7511,5,6
432,232,7974,1,6
432,232,8438,1,6
432,232,8901,1,6
424,152,9364,6,4,B|376:40|256:16|136:40|88:152,1,419.999971389771,4|8
88,232,11218,6,4,B|136:344|256:368|376:344|424:232,1,419.999971389771,4|8
424,152,13071,6,0,B|424:0,2,139.999990463257,4|0|2
88,232,14924,6,0,B|88:384,2,139.999990463257,4|0|2
256,192,16777,6,0,B|256:32|448:32|448:192,1,335.999985122681,0|2
256,192,18631,6,0,B|256:352|64:352|64:192,1,335.999985122681,0|2
256,192,20484,6,0,B|416:192|416:384|256:384,1,335.999985122681,0|2
256,192,22337,6,0,B|96:192|96:0|256:0,1,335.999985122681,0|2
424,192,24191,6,0,B|72:192,1,335.999985122681,0|2
256,192,26044,12,4,28824
256,344,29750,5,2
256,344,30213,1,0
256,344,30676,1,0
256,344,31140,1,0
192,384,31603,6,0,B|64:320|200:232|56:144,1,279.999980926514,4|8
48,72,32993,1,0
116,21,33456,6,0,B|404:21,1,279.999980926514,4|8
464,72,34846,1,0
432,152,35310,5,6
432,152,35541,1,6
256,184,36236,5,6
256,184,36469,1,6
80,152,37163,5,6
80,152,37626,1,6
80,152,38090,1,6
80,152,38553,1,6
88,232,39016,6,4,B|136:344|256:368|376:344|424:232,1,419.999971389771,4|8
424,152,40870,6,4,B|376:40|256:16|136:40|88:152,1,419.999971389771,4|8
16,192,42723,5,4
16,272,43186,1,0
16,352,43649,1,2
496,192,44576,5,4
496,112,45039,1,0
496,32,45502,1,2
256,192,46429,6,0,B|256:312|64:312|64:192,1,293.999986982345,0|2
64,144,47472,1,4
256,192,48283,6,0,B|256:72|448:72|448:192,1,293.999986982345,0|2
448,240,49326,1,4
256,192,50136,6,0,B|136:192|136:0|256:0,1,293.999986982345,0|2
304,0,51179,1,4
256,192,51990,6,0,B|376:192|376:384|256:384,1,293.999986982345,0|2
208,384,53033,1,4
80,192,53843,6,0,B|392:192,1,293.999986982345,0|2
424,192,54885,1,4
256,192,55696,12,4,58476
256,88,59403,5,2
256,192,59866,1,0
256,296,60330,1,0
