osu file format v10

[General]
AudioFilename: Muse - Uprising.mp3
AudioLeadIn: 0
PreviewTime: 246201
Countdown: 0
SampleSet: Normal
StackLeniency: 0.5
Mode: 0
LetterboxInBreaks: 0

[Editor]
Bookmarks: 47451,274482
DistanceSpacing: 0.8
BeatDivisor: 6
GridSize: 4

[Metadata]
Title:Uprising
TitleUnicode:
Artist:Muse
ArtistUnicode:
Creator:Aleks719
Version:Revolution
Source:
Tags:The Resistance album version Knight & Day the 08 team_bourdon MystykAMV RandomJibberish
BeatmapID:139470
BeatmapSetID:44536

[Difficulty]
HPDrainRate:7
CircleSize:4
OverallDifficulty:7
ApproachRate:8
SliderMultiplier:1.6
SliderTickRate:3

[Events]
//Background and Video events
0,0,"muse.jpg"
//Break Periods
2,189994,196701
2,227651,241232
//Storyboard Layer 0 (Background)
//Storyboard Layer 1 (Fail)
//Storyboard Layer 2 (Pass)
//Storyboard Layer 3 (Foreground)
//Storyboard Sound Samples
//Background Colour Transformations
3,100,163,162,255

[TimingPoints]
2451,468.75,4,1,2,60,1,0
39169,-100,4,1,1,60,0,0
40107,-100,4,1,2,60,0,0
61669,-100,4,1,1,60,0,0
62451,-100,4,1,2,60,0,0
76669,-100,4,1,1,60,0,0
84951,-100,4,1,2,70,0,1
114169,-100,4,1,1,70,0,1
114951,-100,4,1,1,20,0,0
119169,-83.3333333333333,4,1,1,30,0,0
120107,-66.6666666666667,4,1,1,40,0,0
121044,-100,4,1,1,50,0,0
121982,-100,4,1,1,60,0,0
122451,-100,4,1,1,75,0,0
136279,-100,4,1,1,60,0,0
136435,-100,4,1,1,75,0,0
159482,-100,4,1,1,50,0,0
159951,-100,4,1,1,75,0,1
189951,-100,4,1,1,60,0,0
246201,-100,4,1,1,75,0,1
276201,-100,4,1,2,60,0,0
294404,-100,4,1,1,60,0,0
297138,-100,4,1,1,50,0,0
299013,-100,4,1,1,40,0,0
300888,-100,4,1,1,30,0,0

[Colours]
Combo1 : 124,39,194
Combo2 : 85,185,100
Combo3 : 46,55,169
Combo4 : 177,48,70
Combo5 : 228,220,109

[HitObjects]
256,68,9951,1,4,0:0:0
164,132,10263,2,0,B|136:76,1,53.3333333333333
136,192,10732,2,0,B|98:141,1,53.3333333333333
120,256,11201,2,0,B|74:212,1,53.3333333333333,0|8,0:0|0:0,0:0:0
120,320,11669,2,0,B|62:295,1,53.3333333333333,8|0,0:0|0:0,0:0:0
348,132,12138,2,0,B|376:76,1,53.3333333333333
376,192,12607,2,0,B|413:141,1,53.3333333333333
392,256,13076,2,0,B|437:212,1,53.3333333333333,0|8,0:0|0:0,0:0:0
392,320,13544,2,0,B|449:295,1,53.3333333333333,8|0,0:0|0:0,0:0:0
256,380,14169,5,0,0:0:0
196,276,14482,1,0,0:0:0
196,276,14638,1,0,0:0:0
316,276,14951,1,0,0:0:0
316,276,15107,1,8,0:0:0
256,176,15419,2,0,B|256:140,2,26.6666666666667,2|0|2,0:0|0:0|0:0,0:0:0
144,140,15888,1,0,0:0:0
144,140,16044,2,0,B|204:124|228:72,1,106.666666666667,0|0,0:0|0:0,0:0:0
256,68,16513,1,0,0:0:0
368,140,16826,1,0,0:0:0
367,139,16982,2,0,B|308:124|286:76,1,106.666666666667,8|8,0:0|0:0,0:0:0
256,68,17451,5,2,0:0:0
256,316,17919,1,0,0:0:0
176,112,18388,1,2,0:0:0
336,272,18701,1,0,0:0:0
336,272,18857,1,8,0:0:0
128,192,19169,1,8,0:0:0
128,192,19326,1,2,0:0:0
256,316,19794,5,0,0:0:0
336,112,20263,1,2,0:0:0
176,272,20576,1,0,0:0:0
176,272,20732,1,8,0:0:0
384,192,21044,1,8,0:0:0
384,192,21201,1,2,0:0:0
256,192,21357,12,2,23075,0:0:0
256,192,23544,5,0,0:0:0
256,192,24013,1,0,0:0:0
160,128,24326,1,0,0:0:0
160,128,24482,2,0,B|124:240,1,106.666666666667,8|8,0:0|0:0,0:0:0
120,252,24951,5,0,0:0:0
256,364,25419,1,0,0:0:0
392,252,25888,1,0,0:0:0
328,92,26201,1,0,0:0:0
308,96,26357,2,0,B|256:104|256:104|204:96,1,106.666666666667,8|8,0:0|0:0,0:0:0
184,92,26826,1,0,0:0:0
344,176,27294,1,0,0:0:0
168,176,27763,1,0,0:0:0
200,288,28076,2,0,B|192:344,1,53.3333333333333,0|8,0:0|0:0,0:0:0
312,288,28544,2,0,B|320:344,1,53.3333333333333,8|0,0:0|0:0,0:0:0
168,176,29013,5,0,0:0:0
168,176,29169,1,0,0:0:0
256,88,29482,1,0,0:0:0
256,88,29638,1,0,0:0:0
344,176,29951,1,0,0:0:0
344,176,30107,1,8,0:0:0
256,260,30419,2,0,B|256:216,2,26.6666666666667,10|0|2,0:0|0:0|0:0,0:0:0
368,296,30888,5,0,0:0:0
384,288,31044,2,0,B|416:272|416:272|432:200,1,106.666666666667
484,212,31513,2,0,B|424:124,1,106.666666666667
428,72,31982,2,0,B|404:124|336:120,1,106.666666666667,8|8,0:0|0:0,0:0:0
316,116,32451,5,0,0:0:0
165,61,32919,1,0,0:0:0
110,211,33388,1,0,0:0:0
261,266,33857,1,8,0:0:0
204,52,34169,5,8,0:0:0
204,52,34326,1,0,0:0:0
101,174,34794,1,0,0:0:0
225,278,35263,1,0,0:0:0
328,156,35732,1,8,0:0:0
212,168,36044,5,8,0:0:0
212,168,36201,2,0,B|176:196|176:196|160:232|144:264|144:264|104:296,2,160
260,264,37451,2,0,B|304:224,1,53.3333333333333,0|8,0:0|0:0,0:0:0
64,216,37919,2,0,B|32:244,2,26.6666666666667,10|0|2,0:0|0:0|0:0,0:0:0
156,160,38388,5,8,0:0:0
156,160,38544,1,8,0:0:0
60,108,38857,1,8,0:0:0
60,108,39013,1,8,0:0:0
452,276,39326,1,8,0:0:0
452,276,39482,1,6,0:0:0
356,224,39794,1,6,0:0:0
356,224,39951,1,0,0:0:0
24,336,40419,5,8,0:0:0
28,352,40888,2,0,B|80:288|172:300,1,160,0|8,0:0|0:0,0:0:0
276,328,41669,1,8,0:0:0
276,328,41826,1,0,0:0:0
488,48,42294,5,8,0:0:0
484,32,42763,2,0,B|432:96|340:84,1,160,0|8,0:0|0:0,0:0:0
236,56,43544,1,8,0:0:0
236,56,43701,1,0,0:0:0
216,168,44169,6,0,B|220:216|289:256|296:306,2,160,8|0|8,0:0|0:0|0:0,0:0:0
280,52,45419,1,8,0:0:0
280,52,45576,1,0,0:0:0
296,168,46044,6,0,B|291:216|222:256|215:306,2,160,8|0|8,0:0|0:0|0:0,0:0:0
232,52,47294,1,8,0:0:0
232,52,47451,1,4,0:0:0
68,204,47919,6,0,B|108:188|132:220|172:204,1,106.666666666667,0|0,0:0|0:0,0:0:0
192,192,48388,1,2,0:0:0
256,108,48701,1,2,0:0:0
444,180,49326,6,0,B|404:196|380:164|340:180,1,106.666666666667
320,192,49795,1,0,0:0:0
256,276,50107,2,0,B|300:200|256:124,1,160,2|0,0:0|0:0,0:0:0
244,108,50732,1,2,0:0:0
244,108,51044,1,2,0:0:0
104,340,51513,5,0,0:0:0
88,324,51669,2,0,B|68:272|88:220,1,106.666666666667,2|0,0:0|0:0,0:0:0
108,208,52138,1,0,0:0:0
128,196,52294,1,0,0:0:0
148,184,52451,1,0,0:0:0
168,172,52607,1,0,0:0:0
188,160,52763,2,0,B|208:108|188:56,2,106.666666666667,0|0|0,0:0|0:0|0:0,0:0:0
184,180,53544,6,0,B|260:224|336:180,1,160,0|0,0:0|0:0,0:0:0
436,136,54326,1,0,0:0:0
436,136,54482,1,2,0:0:0
348,76,54794,1,2,0:0:0
32,196,55419,5,2,0:0:0
48,192,55888,1,2,0:0:0
64,188,56357,1,2,0:0:0
168,164,56669,5,0,0:0:0
168,164,56826,2,0,B|220:144|272:164,1,106.666666666667
316,208,57294,2,0,B|296:156|316:104,1,106.666666666667
400,52,57763,2,0,B|420:104|400:156,1,106.666666666667
392,176,58232,1,2,0:0:0
392,176,58544,1,2,0:0:0
48,336,59169,6,0,B|144:284,1,106.666666666667
160,336,59638,2,0,B|124:288|156:228,1,106.666666666667
164,216,60107,1,2,0:0:0
152,84,60419,1,2,0:0:0
160,64,60576,2,0,B|256:116,1,106.666666666667,0|0,0:0|0:0,0:0:0
228,160,61044,2,0,B|264:84|360:80,1,160,0|0,0:0|0:0,0:0:0
504,92,61826,5,2,0:0:0
504,92,61982,1,0,0:0:0
352,220,62294,1,6,0:0:0
160,336,62763,5,0,0:0:0
160,336,62919,1,2,0:0:0
196,236,63232,1,0,0:0:0
196,236,63388,1,2,0:0:0
92,260,63701,1,2,0:0:0
92,260,63857,1,0,0:0:0
28,172,64169,5,0,0:0:0
28,172,64326,2,0,B|40:116|100:96,1,106.666666666667
88,44,64794,2,0,B|188:92,1,106.666666666667
204,100,65263,1,2,0:0:0
284,168,65576,1,0,0:0:0
284,168,65732,1,2,0:0:0
332,264,66044,1,2,0:0:0
204,100,66513,5,0,0:0:0
204,100,66669,1,2,0:0:0
284,168,66982,1,0,0:0:0
284,168,67138,1,2,0:0:0
388,192,67451,1,2,0:0:0
388,192,67607,1,0,0:0:0
492,216,67919,5,0,0:0:0
492,216,68076,2,0,B|480:272|420:292,1,106.666666666667
444,340,68544,2,0,B|336:324,1,106.666666666667
316,320,69013,1,0,0:0:0
68,340,69326,2,0,B|120:332,1,53.3333333333333,0|2,0:0|0:0,0:0:0
228,320,69794,1,2,0:0:0
296,96,70419,6,0,B|304:68|296:40|256:20|216:40|208:68|216:96,2,160,2|2|2,0:0|0:0|0:0,0:0:0
224,188,71669,2,0,B|184:228,1,53.3333333333333,0|0,0:0|0:0,0:0:0
288,264,72138,2,0,B|328:224,1,53.3333333333333,0|0,0:0|0:0,0:0:0
108,192,72607,2,0,B|68:232,1,53.3333333333333,0|2,0:0|0:0,0:0:0
404,192,73076,2,0,B|444:152,1,53.3333333333333,0|2,0:0|0:0,0:0:0
256,224,73544,1,2,0:0:0
40,40,74169,5,2,0:0:0
40,40,74638,1,2,0:0:0
84,140,74951,2,0,B|64:192,1,53.3333333333333,0|0,0:0|0:0,0:0:0
140,264,75419,2,0,B|160:316,1,53.3333333333333,0|2,0:0|0:0,0:0:0
200,192,75888,2,0,B|220:140,1,53.3333333333333,0|2,0:0|0:0,0:0:0
260,44,76357,1,2,0:0:0
364,164,76826,5,2,0:0:0
364,164,76982,1,0,0:0:0
308,308,77294,1,6,0:0:0
60,164,77763,5,0,0:0:0
60,164,77919,2,0,B|112:104|68:44|24:40,2,160,8|0|8,0:0|0:0|0:0,0:0:0
84,280,79169,1,8,0:0:0
84,280,79326,1,0,0:0:0
452,164,79794,6,0,B|400:104|444:44|488:40,2,160,8|0|8,0:0|0:0|0:0,0:0:0
428,280,81044,1,8,0:0:0
428,280,81201,1,0,0:0:0
180,192,81669,6,0,B|256:148|332:192,1,160,8|0,0:0|0:0,0:0:0
208,264,82607,2,0,B|236:240|256:244|276:240|304:264,1,106.666666666667,8|8,0:0|0:0,0:0:0
256,324,83076,1,0,0:0:0
240,32,83544,5,8,0:0:0
172,252,84013,2,0,B|140:204|148:148,1,106.666666666667,0|8,0:0|0:0,0:0:0
288,168,84482,2,0,B|320:216|312:272,1,106.666666666667,0|8,0:0|0:0,0:0:0
228,212,84951,6,0,B|192:144|220:68|304:56|408:64|408:200|332:244|412:324|516:296,1,480,4|8,0:0|0:0,0:0:0
288,168,86826,2,0,B|324:236|296:312|212:324|108:316|108:180|184:136|104:56|0:84,1,480,4|8,0:0|0:0,0:0:0
40,168,88544,5,8,0:0:0
40,168,88701,1,0,0:0:0
228,212,89013,1,0,0:0:0
228,212,89169,1,2,0:0:0
88,344,89482,1,2,0:0:0
88,344,89638,1,0,0:0:0
120,172,89951,1,0,0:0:0
128,136,90107,1,2,0:0:0
148,104,90263,1,0,0:0:0
180,84,90419,1,0,0:0:0
216,72,90576,1,2,0:0:0
472,168,90888,5,0,0:0:0
472,168,91044,1,2,0:0:0
424,344,91357,1,2,0:0:0
424,344,91513,1,0,0:0:0
284,212,91826,1,0,0:0:0
248,204,91982,1,2,0:0:0
216,184,92138,1,0,0:0:0
196,152,92294,1,0,0:0:0
184,116,92451,6,0,B|124:68|32:80,1,160,2|8,0:0|0:0,0:0:0
328,116,93388,2,0,B|388:68|480:80,1,160,2|8,0:0|0:0,0:0:0
384,163,94169,2,0,B|408:148|434:149,1,53.3333333333333,8|0,0:0|0:0,0:0:0
128,163,94638,2,0,B|104:148|78:149,1,53.3333333333333,0|8,0:0|0:0,0:0:0
428,224,95263,1,2,0:0:0
84,224,95732,1,8,0:0:0
256,192,96201,12,2,98076,0:0:0
192,152,98388,5,0,0:0:0
192,152,98544,1,8,0:0:0
320,152,98857,1,8,0:0:0
320,152,99013,1,0,0:0:0
328,280,99326,1,0,0:0:0
292,292,99482,1,8,0:0:0
256,300,99638,1,0,0:0:0
220,292,99794,1,8,0:0:0
184,280,99951,6,0,B|124:236|140:136|244:128|280:160|292:212,1,266.666666666667,4|0,0:0|0:0,0:0:0
221,206,100888,2,0,B|232:160|268:128|372:136|388:236|328:280,1,266.666666666667,2|0,0:0|0:0,0:0:0
384,332,101826,2,0,B|256:412|132:332,1,266.666666666667,2|0,0:0|0:0,0:0:0
64,300,102763,2,0,B|80:260|124:256|124:256|136:228,1,106.666666666667,2|0,0:0|0:0,0:0:0
168,160,103232,2,0,B|208:176|212:220|212:220|240:232,1,106.666666666667,8|8,0:0|0:0,0:0:0
308,264,103701,1,2,0:0:0
256,192,103857,12,2,105575,0:0:0
256,192,105732,12,8,106982,0:0:0
292,340,107451,6,0,B|356:332|364:268|364:268|364:112,1,266.666666666667,4|0,0:0|0:0,0:0:0
364,40,108388,2,0,B|300:48|292:112|292:112|292:268,1,266.666666666667,2|0,0:0|0:0,0:0:0
220,268,109326,2,0,B|220:112|220:112|212:48|148:40,1,266.666666666667,2|0,0:0|0:0,0:0:0
148,111,110263,2,0,B|148:268|148:268|156:332|220:340,1,266.666666666667,2|0,0:0|0:0,0:0:0
256,192,111201,12,4,113076,0:0:0
264,268,113388,6,0,B|308:304,1,53.3333333333333,0|8,0:0|0:0,0:0:0
248,116,113857,2,0,B|204:80,1,53.3333333333333,8|0,0:0|0:0,0:0:0
256,192,114326,1,2,0:0:0
256,192,114482,1,8,0:0:0
256,192,114794,1,6,0:0:0
160,192,118701,5,2,0:0:0
352,140,119013,2,0,B|352:192,1,53.3333333333333,2|8,0:0|0:0,0:0:0
80,252,119482,2,0,B|80:188,1,64.0000015258789,2|2,0:0|0:0,0:0:0
432,124,119951,2,0,B|432:188,1,64.0000015258789,2|8,0:0|0:0,0:0:0
4,272,120419,2,0,B|4:192,1,79.9999976158143,2|2,0:0|0:0,0:0:0
508,112,120888,2,0,B|508:192,1,79.9999976158143,2|8,0:0|0:0,0:0:0
316,300,121357,5,2,0:0:0
296,296,121513,1,2,0:0:0
276,288,121669,1,0,0:0:0
260,276,121826,1,2,0:0:0
248,260,121982,1,2,0:0:0
240,240,122138,1,0,0:0:0
236,220,122294,1,2,0:0:0
240,200,122451,1,6,0:0:0
336,44,122919,6,0,B|296:32|256:44|256:44|216:32|176:44,2,160,8|0|8,0:0|0:0|0:0,0:0:0
216,120,124169,1,0,0:0:0
176,196,124326,2,0,B|216:208|256:196|256:196|296:208|336:196,2,160,0|8|0,0:0|0:0|0:0,0:0:0
296,120,125576,1,0,0:0:0
296,120,125732,1,8,0:0:0
176,196,126044,1,8,0:0:0
176,196,126201,1,0,0:0:0
184,344,126513,5,0,0:0:0
184,344,126669,1,8,0:0:0
328,344,126982,1,0,0:0:0
328,344,127138,1,0,0:0:0
376,208,127451,1,0,0:0:0
376,208,127607,1,8,0:0:0
256,128,127919,1,8,0:0:0
256,128,128076,1,0,0:0:0
136,208,128388,1,0,0:0:0
136,208,128544,1,8,0:0:0
184,344,128857,2,0,B|232:268|256:320|308:244,1,160,0|0,0:0|0:0,0:0:0
236,216,129482,2,0,B|260:180|288:168|328:176,1,106.666666666667,8|8,0:0|0:0,0:0:0
480,360,130263,5,0,0:0:0
480,360,130419,2,0,B|512:260,1,106.666666666667,8|0,0:0|0:0,0:0:0
468,304,130888,2,0,B|428:204,1,106.666666666667
416,268,131357,2,0,B|328:192,1,106.666666666667,8|8,0:0|0:0,0:0:0
360,320,131826,6,0,B|279:250,1,106.666666666667,0|0,0:0|0:0,0:0:0
266,313,132295,2,0,B|226:213,1,106.666666666667,8|0,0:0|0:0,0:0:0
182,259,132764,2,0,B|214:157,1,106.666666666667,0|0,0:0|0:0,0:0:0
224,136,133232,1,8,0:0:0
224,136,133544,1,8,0:0:0
56,308,134013,5,0,0:0:0
56,308,134169,2,0,B|72:252|36:208,1,106.666666666667,8|0,0:0|0:0,0:0:0
88,224,134638,2,0,B|84:168|120:124,1,106.666666666667
216,100,135107,2,0,B|220:156|184:200,1,106.666666666667,8|8,0:0|0:0,0:0:0
180,220,135576,1,0,0:0:0
68,272,135888,2,2,B|112:216|64:192|120:124,1,160,0|2,0:0|0:0,0:0:0
356,84,136825,5,2,0:0:0
356,84,136982,1,8,0:0:0
356,84,137294,1,6,0:0:0
256,352,137763,5,0,0:0:0
256,352,137919,2,0,B|196:336|176:284,1,106.666666666667,8|0,0:0|0:0,0:0:0
112,284,138388,2,0,B|172:268|192:216,1,106.666666666667
196,200,138857,1,8,0:0:0
180,72,139169,1,8,0:0:0
180,72,139326,1,0,0:0:0
52,88,139638,1,0,0:0:0
52,88,139794,1,8,0:0:0
68,216,140107,1,0,0:0:0
68,216,140263,1,0,0:0:0
196,200,140576,1,0,0:0:0
232,204,140732,1,8,0:0:0
264,220,140888,1,0,0:0:0
288,248,141044,1,8,0:0:0
300,284,141201,1,0,0:0:0
180,324,141513,5,0,0:0:0
180,324,141669,1,8,0:0:0
424,112,142138,1,0,0:0:0
116,380,142607,1,8,0:0:0
8,300,142919,1,8,0:0:0
8,300,143076,2,0,B|84:260|104:176,1,160,0|8,0:0|0:0,0:0:0
0,140,143857,2,0,B|72:172|144:144,1,160,0|2,0:0|0:0,0:0:0
176,132,144482,1,8,0:0:0
176,132,144794,1,10,0:0:0
416,260,145419,5,8,0:0:0
420,252,145888,1,0,0:0:0
424,244,146357,2,0,B|436:220|436:220|436:188,2,53.3333333333333,8|0|8,0:0|0:0|0:0,0:0:0
416,260,146826,2,0,B|376:272|336:260|336:260|296:272|256:260,1,160,0|8,0:0|0:0,0:0:0
380,192,147607,1,0,0:0:0
380,192,147763,1,0,0:0:0
336,336,148076,1,0,0:0:0
336,336,148232,1,8,0:0:0
296,192,148544,1,8,0:0:0
296,192,149013,5,0,0:0:0
296,192,149169,2,0,B|236:184|196:228,1,106.666666666667,8|0,0:0|0:0,0:0:0
176,276,149638,2,0,B|128:176,1,106.666666666667
176,144,150107,2,0,B|116:152|76:108,1,106.666666666667,8|8,0:0|0:0,0:0:0
56,16,150576,2,0,B|28:124,1,106.666666666667
0,144,151044,2,0,B|24:240,1,106.666666666667,8|0,0:0|0:0,0:0:0
32,272,151513,1,0,0:0:0
176,364,151825,5,2,0:0:0
176,364,151982,1,8,0:0:0
140,220,152294,1,6,0:0:0
340,116,152763,5,2,0:0:0
340,116,152919,2,0,B|336:176|384:208,1,106.666666666667,8|2,0:0|0:0,0:0:0
460,224,153388,2,0,B|464:164|416:132,1,106.666666666667,2|2,0:0|0:0,0:0:0
396,124,153857,1,8,0:0:0
264,120,154169,1,2,0:0:0
264,120,154638,1,2,0:0:0
264,120,154794,1,8,0:0:0
152,188,155107,2,0,B|200:224,1,53.3333333333333,2|2,0:0|0:0,0:0:0
112,312,155576,1,2,0:0:0
112,312,155732,1,8,0:0:0
152,164,156044,2,0,B|104:128,1,53.3333333333333,8|2,0:0|0:0,0:0:0
8,56,156513,5,2,0:0:0
8,56,156669,1,8,0:0:0
136,36,156982,1,2,0:0:0
136,36,157138,1,2,0:0:0
252,88,157451,1,2,0:0:0
252,88,157607,1,8,0:0:0
304,200,157919,2,0,B|404:192|432:100,1,160,2|2,0:0|0:0,0:0:0
432,92,158544,1,8,0:0:0
384,264,158857,5,2,0:0:0
348,276,159013,1,2,0:0:0
312,288,159169,1,0,0:0:0
276,296,159326,1,2,0:0:0
240,296,159482,1,8,0:0:0
200,288,159638,1,8,0:0:0
164,276,159794,1,8,0:0:0
128,264,159951,6,2,B|188:220|172:120|68:112|32:144|20:196,1,266.666666666667,4|0,0:0|0:0,0:0:0
88,208,160888,2,0,B|99:254|135:286|232:276|256:176|192:128,1,266.666666666667,2|0,0:0|0:0,0:0:0
152,188,161826,2,2,B|92:232|108:332|212:340|248:308|268:256,1,266.666666666667,2|0,0:0|0:0,0:0:0
280,196,162763,2,0,B|296:236|340:240|340:240|352:268,1,106.666666666667,2|0,0:0|0:0,0:0:0
380,332,163232,2,0,B|420:316|424:272|424:272|452:260,1,106.666666666667,8|8,0:0|0:0,0:0:0
472,252,163701,1,2,0:0:0
256,192,163857,12,2,165575,0:0:0
184,300,166044,5,8,0:0:0
304,368,166357,1,2,0:0:0
304,368,166513,1,2,0:0:0
444,360,166826,1,2,0:0:0
444,360,166982,1,8,0:0:0
472,224,167294,5,10,0:0:0
472,224,167451,1,2,0:0:0
284,180,167763,1,0,0:0:0
284,180,167919,1,10,0:0:0
424,48,168232,1,2,0:0:0
424,48,168388,1,0,0:0:0
392,220,168701,1,0,0:0:0
384,256,168857,1,10,0:0:0
364,288,169013,1,0,0:0:0
332,308,169169,1,8,0:0:0
296,320,169326,1,2,0:0:0
40,224,169638,5,0,0:0:0
40,224,169794,1,10,0:0:0
88,48,170107,1,2,0:0:0
88,48,170263,1,0,0:0:0
228,180,170576,1,0,0:0:0
264,188,170732,1,10,0:0:0
296,208,170888,1,0,0:0:0
316,240,171044,1,8,0:0:0
328,276,171201,6,2,B|388:324|480:312,1,160,2|8,0:0|0:0,0:0:0
184,276,172138,2,2,B|124:324|32:312,1,160,2|8,0:0|0:0,0:0:0
434,243,172919,2,0,B|412:244|384:229,1,53.3333333333333,8|0,0:0|0:0,0:0:0
77,243,173388,2,0,B|100:244|128:229,1,53.3333333333333,0|8,0:0|0:0,0:0:0
428,168,174013,1,2,0:0:0
84,168,174482,1,10,0:0:0
256,32,174951,5,4,0:0:0
164,164,175263,2,0,B|216:152,1,53.3333333333333,0|8,0:0|0:0,0:0:0
348,164,175732,2,0,B|296:152,1,53.3333333333333,0|2,0:0|0:0,0:0:0
128,268,176201,2,0,B|180:256,1,53.3333333333333,0|8,0:0|0:0,0:0:0
384,268,176669,2,0,B|332:256,1,53.3333333333333,0|2,0:0|0:0,0:0:0
104,372,177138,2,0,B|156:360,1,53.3333333333333,0|8,0:0|0:0,0:0:0
408,372,177607,2,0,B|356:360,1,53.3333333333333,0|2,0:0|0:0,0:0:0
256,32,178076,2,0,B|256:92,1,53.3333333333333,0|8,0:0|0:0,0:0:0
8,212,178544,5,0,0:0:0
8,212,178701,2,2,B|88:284|176:212|240:164|176:108|176:108|112:164|176:196|256:340|336:196|400:164|336:108|336:108|272:164|336:212|424:284|504:212,1,960,6|0,0:0|0:0,0:0:0
336,116,181826,1,0,0:0:0
336,116,181982,1,8,0:0:0
176,116,182294,1,8,0:0:0
176,116,182451,1,6,0:0:0
320,352,182919,6,0,B|336:296|396:280,1,106.666666666667,8|0,0:0|0:0,0:0:0
412,276,183388,1,2,0:0:0
192,352,183857,2,0,B|176:296|116:280,1,106.666666666667,8|8,0:0|0:0,0:0:0
100,276,184326,1,2,0:0:0
340,228,184794,2,0,B|288:212|288:212|264:164,1,106.666666666667,8|0,0:0|0:0,0:0:0
256,144,185263,1,2,0:0:0
172,228,185732,2,0,B|224:212|224:212|248:164,1,106.666666666667,8|8,0:0|0:0,0:0:0
256,144,186201,6,2,B|242:103|270:62|316:41|354:61,1,160,6|8,0:0|0:0,0:0:0
380,80,186826,1,0,0:0:0
392,108,186982,1,2,0:0:0
392,140,187138,1,0,0:0:0
376,168,187294,1,2,0:0:0
380,200,187451,1,2,0:0:0
400,224,187607,2,0,B|420:272,1,53.3333333333333,8|0,0:0|0:0,0:0:0
436,308,187919,2,0,B|384:320,1,53.3333333333333,2|0,0:0|0:0,0:0:0
344,336,188232,2,2,B|332:376,2,26.6666666666667,2|0|0,0:0|0:0|0:0,0:0:0
312,308,188544,2,0,B|256:304,1,53.3333333333333,8|2,0:0|0:0,0:0:0
224,328,188857,2,0,B|172:316,1,53.3333333333333,2|0,0:0|0:0,0:0:0
128,308,189169,1,0,0:0:0
84,300,189326,6,2,B|80:240,1,53.3333333333333,2|0,0:0|0:0,0:0:0
76,120,189794,1,6,0:0:0
128,140,197451,5,8,0:0:0
384,140,197919,1,8,0:0:0
40,228,198388,1,2,0:0:0
40,228,198544,2,0,B|76:272|136:264,1,106.666666666667,2|8,0:0|0:0,0:0:0
168,260,199013,1,0,0:0:0
196,248,199169,1,8,0:0:0
216,224,199326,1,2,0:0:0
384,140,199794,5,8,0:0:0
472,228,200263,1,2,0:0:0
472,228,200419,2,0,B|436:272|376:264,1,106.666666666667,2|8,0:0|0:0,0:0:0
344,260,200888,1,0,0:0:0
316,248,201044,1,8,0:0:0
296,224,201201,1,2,0:0:0
256,360,201669,5,8,0:0:0
68,276,202138,1,2,0:0:0
92,256,202294,1,2,0:0:0
112,228,202451,1,0,0:0:0
124,192,202607,1,8,0:0:0
112,156,202763,1,0,0:0:0
92,128,202919,1,8,0:0:0
68,108,203076,1,2,0:0:0
256,24,203544,5,8,0:0:0
444,108,204013,1,2,0:0:0
420,128,204169,1,2,0:0:0
400,156,204326,1,0,0:0:0
388,192,204482,1,8,0:0:0
400,228,204638,1,0,0:0:0
420,256,204794,1,8,0:0:0
444,276,204951,6,0,B|484:324|444:372,1,106.666666666667,2|0,0:0|0:0,0:0:0
500,288,205419,2,0,B|460:240|500:192,1,106.666666666667,8|0,0:0|0:0,0:0:0
444,108,205888,2,0,B|484:156|444:204,1,106.666666666667,2|0,0:0|0:0,0:0:0
352,144,206357,2,0,B|312:96|352:48,1,106.666666666667,8|8,0:0|0:0,0:0:0
344,160,206826,2,0,B|384:208|344:256,1,106.666666666667,2|0,0:0|0:0,0:0:0
204,256,207294,2,0,B|225:197|287:208,1,106.666666666667,8|0,0:0|0:0,0:0:0
356,332,207763,2,0,B|294:342|272:283,1,106.666666666667,2|0,0:0|0:0,0:0:0
268,264,208232,1,8,0:0:0
268,244,208388,1,0,0:0:0
272,224,208544,1,8,0:0:0
280,204,208701,1,0,0:0:0
400,56,209169,5,10,0:0:0
280,104,209482,2,2,B|232:72,1,53.3333333333333,2|0,0:0|0:0,0:0:0
128,148,209951,1,2,0:0:0
128,148,210107,2,0,B|36:208,1,106.666666666667,8|10,0:0|0:0,0:0:0
20,220,210576,1,0,0:0:0
120,340,210888,2,0,B|168:308,1,53.3333333333333,2|8,0:0|0:0,0:0:0
256,172,211357,2,2,B|208:204,1,53.3333333333333,2|2,0:0|0:0,0:0:0
0,128,211982,2,2,B|92:68,1,106.666666666667,10|2,0:0|0:0,0:0:0
108,60,212451,5,4,0:0:0
256,28,212919,1,8,0:0:0
404,60,213388,1,2,0:0:0
404,60,213544,2,0,B|392:112|392:112|404:164,1,106.666666666667,2|8,0:0|0:0,0:0:0
456,180,214013,2,0,B|436:236,2,53.3333333333333,0|8|2,0:0|0:0|0:0,0:0:0
364,380,214794,5,8,0:0:0
256,260,215263,1,2,0:0:0
256,260,215419,2,0,B|268:208|268:208|256:156,1,106.666666666667,2|8,0:0|0:0,0:0:0
300,120,215888,2,0,B|320:64,2,53.3333333333333,0|8|2,0:0|0:0|0:0,0:0:0
256,260,216669,5,8,0:0:0
72,252,217138,1,2,0:0:0
101,240,217294,1,2,0:0:0
130,220,217451,1,0,0:0:0
153,191,217607,1,8,0:0:0
154,153,217763,1,0,0:0:0
145,120,217919,1,8,0:0:0
129,93,218076,1,2,0:0:0
256,260,218544,5,8,0:0:0
448,92,219013,1,2,0:0:0
418,102,219169,1,2,0:0:0
390,122,219326,1,0,0:0:0
366,151,219482,1,8,0:0:0
365,189,219638,1,0,0:0:0
374,222,219794,1,8,0:0:0
390,249,219951,6,0,B|412:308|360:344,1,106.666666666667,2|0,0:0|0:0,0:0:0
296,372,220419,2,0,B|274:313|326:277,1,106.666666666667,8|0,0:0|0:0,0:0:0
308,184,220888,2,0,B|304:244|244:260,1,106.666666666667,2|0,0:0|0:0,0:0:0
232,184,221357,2,0,B|236:124|296:108,1,106.666666666667,8|8,0:0|0:0,0:0:0
304,36,221826,2,0,B|256:76|208:36,1,106.666666666667,2|0,0:0|0:0,0:0:0
96,104,222294,2,0,B|124:52|180:44,1,106.666666666667,8|0,0:0|0:0,0:0:0
168,132,222763,2,0,B|140:184|84:192,1,106.666666666667,2|0,0:0|0:0,0:0:0
64,200,223232,1,8,0:0:0
44,212,223388,1,0,0:0:0
24,224,223544,1,8,0:0:0
12,244,223701,1,0,0:0:0
212,312,224169,6,0,B|316:292,1,106.666666666667,10|2,0:0|0:0,0:0:0
332,348,224638,2,0,B|388:252,1,106.666666666667,0|2,0:0|0:0,0:0:0
396,236,225107,1,8,0:0:0
464,84,225419,1,2,0:0:0
464,84,225576,1,0,0:0:0
268,140,225888,2,0,B|240:192,1,53.3333333333333,2|8,0:0|0:0,0:0:0
116,224,226357,2,0,B|144:172,1,53.3333333333333,2|2,0:0|0:0,0:0:0
316,252,226982,2,2,B|264:348,1,106.666666666667,10|2,0:0|0:0,0:0:0
256,364,227451,1,4,0:0:0
256,12,241982,5,4,0:0:0
208,92,242294,1,6,0:0:0
208,92,242451,2,2,B|152:72,2,53.3333333333333,2|0|2,0:0|0:0|0:0,0:0:0
304,92,242919,2,2,B|360:72,2,53.3333333333333,2|0|2,0:0|0:0|0:0,0:0:0
216,164,243388,2,2,B|164:168,2,53.3333333333333,2|0|2,0:0|0:0|0:0,0:0:0
296,164,243857,2,2,B|348:168,2,53.3333333333333,2|0|2,0:0|0:0|0:0,0:0:0
208,240,244326,6,0,B|160:264,2,53.3333333333333,8|0|0,0:0|0:0|0:0,0:0:0
212,320,244794,1,8,0:0:0
216,336,244951,1,0,0:0:0
220,352,245107,1,8,0:0:0
300,340,245263,2,0,B|348:364,2,53.3333333333333,0|0|0,0:0|0:0|0:0,0:0:0
328,264,245732,1,8,0:0:0
304,252,245889,1,8,0:0:0
280,240,246044,1,8,0:0:0
256,228,246201,6,2,B|192:228|192:228|144:228|136:188|144:148|192:148|192:148|256:148|256:148|304:148|316:108|304:68|256:68|256:68|176:68,1,480,2|8,0:0|0:0,0:0:0
68,68,247919,1,8,0:0:0
68,68,248076,1,2,0:0:0
44,172,248388,1,0,0:0:0
44,172,248544,2,0,B|32:232|68:272,1,106.666666666667,8|0,0:0|0:0,0:0:0
40,320,249013,2,0,B|84:292|144:304,1,106.666666666667,2|0,0:0|0:0,0:0:0
164,308,249482,1,8,0:0:0
256,228,249794,5,8,0:0:0
256,228,249951,2,2,B|320:228|320:228|368:228|376:188|368:148|320:148|320:148|256:148|256:148|208:148|196:108|208:68|256:68|256:68|336:68,1,480,4|8,0:0|0:0,0:0:0
444,68,251669,1,8,0:0:0
444,68,251826,1,2,0:0:0
468,172,252138,1,0,0:0:0
468,172,252294,2,0,B|480:232|444:272,1,106.666666666667,8|2,0:0|0:0,0:0:0
472,320,252763,2,0,B|428:292|368:304,1,106.666666666667,2|0,0:0|0:0,0:0:0
348,308,253232,1,10,0:0:0
212,348,253544,5,8,0:0:0
212,348,253701,1,2,0:0:0
300,252,254013,1,0,0:0:0
300,252,254169,1,8,0:0:0
196,144,254482,1,0,0:0:0
196,144,254638,1,2,0:0:0
256,24,254951,1,0,0:0:0
256,24,255107,1,8,0:0:0
316,144,255419,1,8,0:0:0
316,144,255576,1,2,0:0:0
212,252,255888,1,0,0:0:0
212,252,256044,1,8,0:0:0
300,348,256357,1,0,0:0:0
300,348,256513,2,2,B|304:292|256:276|208:292|212:348,1,160,2|8,0:0|0:0,0:0:0
328,188,257294,5,8,0:0:0
328,188,257451,2,2,B|388:236|480:224,1,160,2|8,0:0|0:0,0:0:0
184,188,258388,2,2,B|124:236|32:224,1,160,2|8,0:0|0:0,0:0:0
78,53,259169,2,0,B|100:52|128:67,1,53.3333333333333,8|0,0:0|0:0,0:0:0
435,53,259638,2,0,B|412:52|384:67,1,53.3333333333333,0|8,0:0|0:0,0:0:0
76,144,260263,1,2,0:0:0
436,144,260732,1,10,0:0:0
256,368,261201,5,4,0:0:0
376,192,261513,2,0,B|324:164,1,53.3333333333333,0|8,0:0|0:0,0:0:0
292,208,261826,2,2,B|240:236,2,53.3333333333333,0|0|2,0:0|0:0|0:0,0:0:0
108,152,262451,2,0,B|160:180,1,53.3333333333333,0|8,0:0|0:0,0:0:0
192,136,262764,2,0,B|244:108,2,53.3333333333333,0|0|2,0:0|0:0|0:0,0:0:0
180,248,263388,1,0,0:0:0
180,248,263544,1,8,0:0:0
252,328,263857,1,0,0:0:0
252,328,264013,1,2,0:0:0
360,340,264326,1,0,0:0:0
360,340,264482,1,8,0:0:0
256,192,264794,5,8,0:0:0
256,192,264951,2,0,B|228:236|164:248,1,106.666666666667,2|0,0:0|0:0,0:0:0
132,320,265419,2,0,B|192:332|216:380,1,106.666666666667,10|2,0:0|0:0,0:0:0
296,380,265888,2,0,B|320:333|380:321,1,106.666666666667,0|0,0:0|0:0,0:0:0
412,317,266357,1,10,0:0:0
444,305,266513,1,0,0:0:0
468,285,266669,1,8,0:0:0
484,257,266826,1,2,0:0:0
468,108,267138,5,0,0:0:0
468,108,267294,1,10,0:0:0
364,32,267607,1,2,0:0:0
364,32,267763,1,0,0:0:0
240,60,268076,1,0,0:0:0
220,84,268232,1,10,0:0:0
192,100,268388,1,0,0:0:0
164,112,268544,1,8,0:0:0
132,116,268701,6,2,B|56:156|64:256,1,160,6|8,0:0|0:0,0:0:0
256,376,269638,2,2,B|332:336|324:236,1,160,2|8,0:0|0:0,0:0:0
256,104,270419,1,8,0:0:0
236,96,270576,2,2,B|184:124|172:180,1,106.666666666667,2|0,0:0|0:0,0:0:0
108,172,271044,2,0,B|160:200|172:256,1,106.666666666667,8|0,0:0|0:0,0:0:0
132,304,271513,6,2,B|284:244,1,160,2|8,0:0|0:0,0:0:0
380,80,272294,1,8,0:0:0
380,80,272451,2,2,B|228:140,1,160,2|8,0:0|0:0,0:0:0
200,152,273076,1,0,0:0:0
168,164,273232,1,2,0:0:0
140,176,273388,1,0,0:0:0
108,188,273544,2,0,B|56:208,1,53.3333333333333,2|2,0:0|0:0,0:0:0
28,216,273857,2,0,B|8:276,1,53.3333333333333,8|0,0:0|0:0,0:0:0
0,296,274169,2,0,B|20:344,1,53.3333333333333,2|0,0:0|0:0,0:0:0
52,356,274482,2,2,B|72:400,2,26.6666666666667,2|0|0,0:0|0:0|0:0,0:0:0
80,336,274794,2,0,B|136:340,1,53.3333333333333,8|2,0:0|0:0,0:0:0
156,320,275107,2,0,B|216:324,1,53.3333333333333,2|0,0:0|0:0,0:0:0
236,308,275419,1,0,0:0:0
256,280,275576,6,2,B|252:220,1,53.3333333333333,2|0,0:0|0:0,0:0:0
240,96,276044,1,6,0:0:0
48,244,279951,6,0,B|124:288|200:244,1,160,2|2,0:0|0:0,0:0:0
464,140,280888,2,0,B|388:96|312:140,1,160,2|2,0:0|0:0,0:0:0
200,244,281669,1,0,0:0:0
200,244,281826,1,2,0:0:0
336,280,282138,1,0,0:0:0
336,280,282294,1,2,0:0:0
312,140,282607,1,0,0:0:0
312,140,282763,1,2,0:0:0
128,312,283076,1,0,0:0:0
128,312,283232,1,2,0:0:0
352,380,283544,1,0,0:0:0
352,380,283701,1,6,0:0:0
228,216,284013,5,0,0:0:0
228,216,284169,2,0,B|232:252|280:268|284:304,1,106.666666666667,8|0,0:0|0:0,0:0:0
227,304,284638,2,0,B|231:267|279:251|283:215,1,106.666666666667
256,164,285107,1,8,0:0:0
256,56,285419,2,0,B|256:20,2,26.6666666666667,2|0|2,0:0|0:0|0:0,0:0:0
336,240,286044,2,0,B|296:228|296:228|216:232|216:232|176:220,1,160,8|0,0:0|0:0,0:0:0
309,316,286982,2,0,B|276:312|276:312|236:316|236:316|204:312,1,106.666666666667,8|8,0:0|0:0,0:0:0
180,308,287451,5,2,0:0:0
52,288,287919,1,8,0:0:0
4,168,288388,1,2,0:0:0
72,60,288857,2,0,B|120:40|176:56,1,106.666666666667,8|8,0:0|0:0,0:0:0
200,64,289326,2,0,B|288:88|352:32,2,160,2|8|2,0:0|0:0|0:0,0:0:0
388,104,290732,2,0,B|452:96|488:148,1,106.666666666667,8|8,0:0|0:0,0:0:0
496,164,291201,5,2,0:0:0
412,300,291669,1,8,0:0:0
256,344,292138,1,0,0:0:0
100,300,292607,1,8,0:0:0
24,224,292919,2,0,B|-8:248,2,26.6666666666667,2|0|2,0:0|0:0|0:0,0:0:0
128,196,293388,5,8,0:0:0
128,196,293544,2,0,B|175:228|238:211,1,106.666666666667,8|0,0:0|0:0,0:0:0
197,171,294013,2,0,B|254:174|299:128,1,106.666666666667,8|8,0:0|0:0,0:0:0
243,118,294482,2,2,B|294:92|311:29,1,106.666666666667,2|2,0:0|0:0,0:0:0
452,220,295419,6,0,B|400:280|444:340|488:344,2,160,10|0|8,0:0|0:0|0:0,0:0:0
436,92,296669,2,0,B|416:108|384:104,1,53.3333333333333,8|0,0:0|0:0,0:0:0
60,220,297294,6,0,B|112:280|68:340|24:344,2,160,10|0|8,0:0|0:0|0:0,0:0:0
76,92,298544,2,0,B|96:108|128:104,1,53.3333333333333,8|0,0:0|0:0,0:0:0
256,248,299169,5,10,0:0:0
332,112,299638,2,0,B|256:156|180:112,1,160,0|8,0:0|0:0,0:0:0
284,48,300419,1,8,0:0:0
228,48,300576,1,0,0:0:0
168,268,301044,5,10,0:0:0
344,268,301513,1,0,0:0:0
256,116,301982,1,8,0:0:0
256,212,302294,1,8,0:0:0
256,212,302451,1,0,0:0:0
