osu file format v6

[General]
AudioFilename: 03 - Undisclosed Desires.mp3
AudioLeadIn: 1000
PreviewTime: 49819
Countdown: 1
SampleSet: Normal
StackLeniency: 0.7
Mode: 0
LetterboxInBreaks: 1

[Editor]
Bookmarks: 16719,17236,24995,58095,91719,124307,150428,165687
DistanceSpacing: 0.800000011920929
BeatDivisor: 2
GridSize: 8

[Metadata]
Title:Undisclosed Desires
Artist:Muse
Creator:Ephemeral
Version:Reconcile
Source:The Resistance
Tags:muse rock alternative undisclosed desires

[Difficulty]
HPDrainRate:4
CircleSize:4
OverallDifficulty:5
SliderMultiplier:1.6
SliderTickRate:2

[Events]
//Background and Video events
0,0,"bg.jpg"
//Break Periods
2,83128,90521
//Storyboard Layer 0 (Background)
//Storyboard Layer 1 (Fail)
//Storyboard Layer 2 (Pass)
//Storyboard Layer 3 (Foreground)
//Storyboard Sound Samples
//Background Colour Transformations
3,100,0,0,0

[TimingPoints]
164,517.241379310345,4,1,0,50,1,0
30945,-200,4,1,0,50,0,0
32238,-100,4,1,0,50,0,0
49825,-100,4,1,0,50,0,1
82928,-100,4,1,0,50,0,0
116032,-100,4,1,0,50,0,1
150422,-100,4,1,0,50,0,0

[Colours]
Combo1 : 0,105,155
Combo2 : 192,192,192

[HitObjects]
72,80,17232,1,8
136,80,17491,1,0
328,80,18267,1,8
432,152,18784,2,0,B|496:224|432:304,1,160,0|8
312,288,19819,5,0
312,288,20077,1,8
120,288,20853,1,0
88,232,21112,1,0
152,232,21370,1,8
120,176,21629,1,0
312,192,22405,5,8
256,192,22664,12,0,24991
80,80,25508,6,0,B|120:48|152:80,1,80,8|0
80,256,26543,1,8
192,192,27060,1,0
240,232,27319,1,8
392,120,28095,5,0
360,176,28353,1,0
424,176,28612,1,8
392,304,29129,2,0,B|352:328|312:312,1,80
264,192,29905,1,0
120,320,30681,1,8
120,320,30939,2,0,B|56:248|176:160|96:80,1,240
224,88,32232,5,0
224,88,32750,1,8
256,144,33008,1,0
192,144,33267,2,0,B|144:176|232:248|184:296,2,160
320,144,34819,2,0,B|352:192|424:104|472:152,2,160
400,240,36370,5,8
296,312,36888,1,0
248,264,37146,1,0
312,248,37405,1,8
248,136,37922,1,0
304,112,38181,1,8
408,184,38698,1,8
256,192,39215,12,0,41026
104,96,41543,6,0,B|184:40|256:152|336:80,1,240,8|0
336,207,42836,2,0,B|260:276|188:164|108:220,2,240,0|8|0
336,207,44646,1,8
168,112,45164,1,8
232,112,45422,1,0
200,168,45681,6,0,B|144:208|248:264|184:312,2,160
304,248,47232,1,8
256,192,47750,12,0,49301
96,312,49819,5,4
224,312,50336,2,0,B|224:144,2,160,8|0|0
352,320,51888,1,0
416,320,52146,1,0
384,264,52405,1,8
384,200,52664,1,0
224,312,53439,5,8
104,264,53957,2,0,B|56:192|104:112,1,160,0|8
160,224,54991,2,0,B|112:184|192:120|152:72,1,160,0|8
216,88,55767,2,0,B|216:64|216:64|216:8|296:72|296:72|376:8|376:72|376:72|360:176|344:216|288:240|288:240|248:216|224:176|224:96|216:64,1,560
152,248,58095,1,4
152,88,59129,5,0
80,192,59646,1,8
208,200,60164,2,0,B|248:224|232:272,1,80
168,248,60681,2,0,B|154:293|194:317,1,80,8|0
193,316,61198,1,0
320,304,61715,5,8
423,231,62232,2,0,B|463:208|448:163,3,80,0|0|8|0
448,163,63267,1,0
336,104,63784,1,8
256,192,64301,12,4,66370
104,80,66888,5,8
224,120,67405,1,0
120,192,67922,1,8
240,224,68439,2,0,B|304:168,1,80
344,216,68957,2,0,B|280:272,1,80,8|0
336,312,69474,1,0
232,240,69991,5,8
352,192,70508,2,0,B|408:120|352:40,1,160
256,120,71543,1,8
157,43,72060,2,0,B|104:120|160:192,2,160
256,120,73612,1,0
320,120,73870,1,8
288,176,74129,1,0
288,240,74388,1,8
288,240,74646,1,4
168,192,75164,5,8
216,72,75681,2,0,B|296:32|376:96,1,160,0|8
240,128,76715,2,0,B|170:185|90:145,2,160,0|8|0
368,152,78267,1,8
256,216,78784,6,0,B|176:256|96:208,2,160,0|8|0
256,88,80336,2,0,B|336:48|416:96,2,160,8|0|8
256,216,81888,1,0
256,88,82405,1,8
256,152,82664,1,0
256,216,82922,1,4
88,216,91715,5,8
88,216,91974,2,0,B|96:128|200:104,1,160
320,96,93008,1,0
288,152,93267,1,8
352,152,93526,1,0
160,151,94301,6,0,B|112:151|112:95,1,80
296,48,95336,1,8
344,88,95595,1,0
280,104,95853,2,0,B|240:136|280:184,1,80
456,232,96888,1,8
256,192,97405,12,4,98957
256,64,99474,6,0,B|168:64|112:128,2,160,8|0|8
256,64,101026,2,0,B|344:64|400:128,2,160,0|8|0
256,192,102577,1,8
256,64,103095,1,8
224,120,103353,1,0
288,120,103612,1,4
256,240,104129,5,8
256,240,104388,1,0
160,152,104905,1,8
256,64,105422,2,0,B|344:40|392:128,2,160
336,160,106715,1,8
232,232,107232,1,0
272,280,107491,1,0
256,192,107750,12,0,108784
256,192,109301,12,0,111370
256,48,111888,6,0,B|168:48|120:136,1,160,8|0
125,126,112664,1,0
304,184,113439,2,0,B|248:184|248:240,1,80,8|0
248,229,113957,1,0
368,272,114474,1,8
432,272,114732,1,0
400,216,114991,1,0
400,88,115508,1,8
304,176,116026,5,4
192,240,116543,1,8
88,168,117060,2,0,B|96:80|184:40,1,160,0|8
304,56,118095,2,0,B|352:56|360:112,3,80,0|0|8|0
358,104,119129,1,0
232,120,119646,5,8
288,232,120164,1,0
256,288,120422,1,0
320,288,120681,1,8
288,160,121198,1,0
288,160,121715,1,8
256,192,122232,12,4,124301
384,88,124819,5,8
320,200,125336,1,0
200,176,125853,1,8
224,48,126370,2,0,B|264:16|304:48,1,80
297,43,126888,1,8
328,96,127146,1,0
328,96,127405,1,0
256,272,127922,5,8
128,240,128439,2,0,B|72:168|128:88,1,160,0|8
125,91,129215,1,0
176,56,129474,1,0
256,152,129991,1,8
255,151,130250,2,0,B|309:228|253:300,2,160
368,88,131801,1,8
424,112,132060,1,0
368,144,132319,1,8
328,192,132577,1,4
240,96,133095,6,0,B|160:64|80:104,1,160,8|0
200,152,134129,1,8
328,152,134646,2,0,B|368:176|344:224,1,80
280,200,135164,2,0,B|216:264|120:224,1,160,8|0
80,112,136198,5,8
200,72,136715,1,0
200,72,136974,1,0
392,64,137750,1,8
352,112,138008,1,0
416,120,138267,1,0
256,192,138784,12,4,140853
256,312,141370,6,0,B|176:352|96:304,1,160,8|0
160,192,142405,1,8
96,79,142922,2,0,B|170:35|250:75,2,160,0|8|0
184,168,144474,1,8
312,192,144991,5,0
312,192,145250,1,0
344,312,145767,2,0,B|416:272|424:176,1,160,8|0
423,180,146543,2,0,B|424:96|360:32,2,160,0|8|0
368,144,147836,1,8
192,64,148612,1,8
256,192,148870,12,4,150422
