osu file format v6

[General]
AudioFilename: 03 - Undisclosed Desires.mp3
AudioLeadIn: 1000
PreviewTime: 49819
Countdown: 1
SampleSet: Normal
StackLeniency: 0.7
Mode: 0
LetterboxInBreaks: 1

[Editor]
Bookmarks: 16719,17236,24995,40250,91719,124307,150428,165687
DistanceSpacing: 1
BeatDivisor: 4
GridSize: 8

[Metadata]
Title:Undisclosed Desires
Artist:Muse
Creator:Ephemeral
Version:Recognize
Source:The Resistance
Tags:muse rock alternative undisclosed desires

[Difficulty]
HPDrainRate:7
CircleSize:5
OverallDifficulty:8
SliderMultiplier:1.6
SliderTickRate:2

[Events]
//Background and Video events
0,0,"bg.jpg"
//Break Periods
2,83643,91119
//Storyboard Layer 0 (Background)
//Storyboard Layer 1 (Fail)
//Storyboard Layer 2 (Pass)
//Storyboard Layer 3 (Foreground)
//Storyboard Sound Samples
//Background Colour Transformations
3,100,0,0,0

[TimingPoints]
164,517.241379310345,4,1,0,50,1,0
38961,-200,4,1,0,50,0,0
40508,-100,4,1,0,50,0,0
49823,-100,4,1,0,50,0,1
83443,-100,4,1,0,50,0,0
116032,-100,4,1,0,50,0,1
150428,-100,4,1,0,50,0,0

[Colours]
Combo1 : 0,105,155
Combo2 : 192,192,192

[HitObjects]
88,120,17232,1,8
160,96,17491,2,0,B|240:64|320:104,1,160,0|0
376,160,18267,1,8
352,240,18526,2,0,B|424:304,2,80
288,288,19301,1,8
128,304,19819,5,0
72,248,20077,1,0
88,168,20336,1,8
224,88,20853,1,0
224,168,21112,1,0
296,128,21370,1,8
296,208,21629,2,0,B|296:312|200:312,1,160
136,264,22405,1,8
256,192,22664,12,4,24991
416,88,25508,5,8
360,144,25767,2,0,B|296:200|208:184,1,160
168,256,26543,1,8
32,168,27060,2,0,B|96:112|184:128,1,160,0|8
336,80,28095,1,0
288,144,28353,1,0
368,152,28612,1,8
224,80,29129,6,0,B|208:32|152:56,1,80
168,128,29646,1,8
88,144,29905,2,0,B|128:232|232:192,1,160
256,264,30681,1,8
256,192,30939,12,4,32750
96,88,33008,5,8
168,56,33267,2,0,B|248:32|328:72,2,160
160,136,34560,2,0,B|232:176|320:144,1,160,8|0
368,88,35336,1,8
432,232,35853,1,0
352,248,36112,1,0
384,176,36370,1,8
224,160,36888,1,8
200,232,37146,5,8
152,168,37405,2,0,B|96:88|168:24,1,160
200,104,38181,1,8
352,56,38698,2,0,B|400:48|432:88,1,80,0|8
400,112,39215,2,0,B|352:80|304:80|304:128|368:160,1,160,0|0
276,191,40508,5,8
216,136,41026,1,12
200,216,41284,5,8
144,152,41543,2,0,B|112:64|200:16,1,160,0|8
248,72,42319,1,0
256,192,42836,12,8,44646
256,192,44905,5,0
216,120,45164,1,8
296,120,45422,1,8
256,48,45681,2,0,B|168:48,1,80,4|0
104,88,46198,1,8
88,168,46457,2,0,B|104:208|160:200,1,80
304,144,47232,1,8
394,193,47491,2,0,B|331:264|255:282|168:265|106:193,2,320,0|0|8
256,192,49819,5,4
416,88,50336,6,0,B|360:32|256:56,1,160,8|0
392,152,51370,1,8
256,64,51888,2,0,B|328:112,1,80
240,120,52405,2,0,B|320:176,1,80,8|0
224,184,52922,1,0
296,208,53181,1,0
240,264,53439,1,8
88,224,53957,2,0,B|56:184|88:144,1,80
152,184,54474,1,8
256,40,54991,5,0
256,40,55250,1,0
256,40,55508,1,8
176,136,55767,2,0,B|176:112|176:112|176:56|256:120|256:120|336:56|336:120|336:120|320:224|296:264|256:288|256:288|216:264|192:224|168:176|184:144|176:112,1,560
256,184,57836,1,0
256,184,58095,1,4
328,88,58612,6,0,B|296:48|248:64,1,80,8|0
272,136,59129,1,0
208,184,59388,2,0,B|240:224|288:208,1,80,0|8
432,168,60164,1,0
376,224,60422,1,0
360,144,60681,1,8
304,200,60939,2,0,B|232:160,1,80
368,80,61715,1,8
440,224,62232,6,0,B|376:280|288:272,1,160,0|8
248,200,63008,1,0
216,272,63267,1,0
80,184,63784,1,8
256,192,64043,12,8,65853
64,168,66112,5,8
112,232,66370,1,4
256,312,66888,2,0,B|344:312|392:232,1,160,8|0
240,184,67922,1,8
360,88,68439,1,0
400,152,68698,1,0
320,152,68957,2,0,B|368:224,1,80,8|0
440,216,69474,1,0
280,216,69991,1,8
176,96,70508,6,0,B|88:120|72:216,1,160,0|8
232,176,71543,1,0
176,232,71801,1,0
256,248,72060,1,8
256,192,72319,12,4,74646
376,192,75164,5,8
256,80,75681,1,0
136,192,76198,1,8
256,296,76715,1,0
200,232,76974,1,0
280,224,77232,1,8
344,272,77491,1,0
280,224,77750,1,0
160,128,78267,1,8
160,128,78784,6,0,B|280:128,1,80
248,208,79301,2,0,B|320:192|320:32|240:8,1,240,8|0
176,48,80336,1,8
176,128,80595,2,0,B|107:144|107:304|180:326,1,240
224,256,81629,1,2
256,96,82146,1,0
288,168,82405,1,8
328,96,82664,2,0,B|392:152|392:256|328:312,1,240,0|4
88,72,91715,5,8
168,56,91974,2,0,B|256:80|272:168,1,160
192,152,92750,1,8
72,256,93267,1,0
144,232,93526,1,0
128,312,93784,1,8
280,280,94301,2,0,B|224:272|248:208,1,80
243,222,94819,1,8
384,152,95336,2,0,B|440:160|416:224,1,80,0|8
288,120,96112,2,0,B|248:96|208:128,1,80,0|8
384,160,96888,1,8
256,192,97146,12,4,98957
120,128,99474,6,0,B|168:56|264:32|360:56|400:136|400:136,2,320
280,144,102060,1,0
200,144,102319,1,0
240,208,102577,1,8
96,272,103095,1,8
56,200,103353,1,0
136,200,103612,6,0,B|160:280|264:288,1,160,0|8
336,280,104388,1,0
384,216,104646,2,0,B|424:192|400:144,1,80
280,40,105422,2,0,B|200:16|120:64,1,160
184,112,106198,1,8
112,144,106457,1,0
176,184,106715,1,0
296,144,107232,1,8
328,216,107491,1,8
303,295,107750,6,0,B|310:292|236:341|140:314|69:245|64:158,2,320
256,232,110077,1,0
176,232,110336,1,10
216,160,110595,1,0
136,160,110853,1,8
296,160,111370,1,8
256,88,111629,1,0
336,88,111888,6,0,B|440:88|440:192,1,160
368,152,112664,2,0,B|400:184|368:232,1,80
256,112,113439,1,8
256,192,113698,12,8,115508
408,72,116026,5,4
248,72,116543,2,0,B|336:72,1,80,8|0
328,152,117060,2,0,B|240:152,1,80,0|0
168,152,117577,2,0,B|168:64,1,80,8|0
88,72,118095,1,0
48,144,118353,1,0
88,216,118612,1,8
64,296,118870,1,0
144,280,119129,1,0
184,128,119646,5,8
320,40,120164,2,0,B|400:24|472:80,2,160
360,112,121457,1,2
376,192,121715,2,0,B|296:208|224:152,2,160
264,80,123267,1,0
208,16,123526,1,2
176,88,123784,1,8
128,24,124043,1,8
96,96,124301,1,4
56,248,124819,6,8,B|104:320|200:312,1,160,8|0
96,184,125853,1,8
256,192,126370,2,0,B|208:176|176:200,1,80,8|0
224,264,126888,2,0,B|312:304|368:232,1,160,8|0
416,80,127922,5,4
256,96,128439,1,0
320,136,128698,1,0
248,168,128957,1,8
184,120,129215,1,0
176,200,129474,1,0
192,40,129991,1,8
256,192,130250,12,0,132577
376,72,133095,5,8
216,64,133612,2,0,B|128:96|144:192,1,160,0|8
304,160,134646,1,0
232,200,134905,1,0
304,240,135164,1,8
376,200,135422,1,0
304,160,135681,1,0
176,64,136198,5,8
64,184,136715,2,0,B|40:264|96:336,1,160,0|8
208,224,137750,1,0
152,160,138008,1,0
232,144,138267,1,8
296,184,138526,2,2,B|296:248|376:232|424:248|424:168|424:88|376:104|296:80|296:152|296:152,2,320,2|0|2
346,170,140853,5,4
216,80,141370,5,8
80,160,141888,1,0
40,232,142146,1,0
120,232,142405,1,8
232,120,142922,2,0,B|288:192,1,80
344,136,143439,2,0,B|288:72,1,80,8|0
360,32,143957,1,0
472,144,144474,1,8
344,240,144991,6,0,B|256:240,1,80
264,152,145508,2,0,B|360:152,2,80,8|0|0
264,72,146284,1,0
184,72,146543,2,0,B|184:240,2,160,8|0|8
104,72,147836,2,0,B|104:240,1,160
168,272,148612,1,8
256,192,148870,12,4,150422
