osu file format v9

[General]
AudioFilename: Muse - Resistance.mp3
AudioLeadIn: 0
PreviewTime: 99593
Countdown: 0
SampleSet: Soft
StackLeniency: 0.7
Mode: 0
LetterboxInBreaks: 0

[Editor]
Bookmarks: 47371,55371,72926,100482,101371,104037,104926,107593,108482,111148,112037,152815,168926,212926
DistanceSpacing: 0.8
BeatDivisor: 4
GridSize: 4

[Metadata]
Title:Resistance
Artist:Muse
Creator:Gonzvlo
Version:Average
Source:
Tags:Matthew Bellamy Larto cesc MetalMario201

[Difficulty]
HPDrainRate:5
CircleSize:4
OverallDifficulty:5
ApproachRate:5
SliderMultiplier:1.4
SliderTickRate:2

[Events]
//Background and Video events
0,0,"BG.jpg"
//Break Periods
2,156144,167724
//Storyboard Layer 0 (Background)
//Storyboard Layer 1 (Fail)
//Storyboard Layer 2 (Pass)
//Storyboard Layer 3 (Foreground)
//Storyboard Sound Samples
//Background Colour Transformations
3,100,163,162,255

[TimingPoints]
46240,444.5102978219,4,2,1,60,1,0
72689,-100,4,1,1,60,0,0
128029,-100,4,1,1,60,0,1
152700,-100,4,1,1,60,0,0
224044,-100,4,1,1,60,0,1
245380,-100,4,1,1,60,0,0
249158,-133.333333333333,4,1,1,60,0,0
254937,-100,4,1,1,60,0,0
278941,-100,4,1,1,60,0,0
279163,-90.9090909090909,4,1,1,60,0,1
295165,-100,4,1,1,100,0,0

[Colours]
Combo1 : 252,10,10
Combo2 : 12,203,60
Combo3 : 55,72,227
Combo4 : 175,22,207
Combo5 : 242,108,9

[HitObjects]
176,80,47351,1,2
176,80,47573,1,0
256,0,48018,1,0
336,80,48462,1,2
352,192,48907,2,0,B|280:208|256:112|256:112|232:208|160:192,1,280,0|2
344,376,50907,6,0,B|320:328|256:312|192:328|168:376,1,210,2|0
200,264,52018,1,2
312,264,52463,1,0
256,168,52907,2,0,B|256:96,1,70,0|2
112,336,54241,6,0,B|98:281|177:272|177:272|147:198|202:185,1,210,0|2
312,186,55352,2,0,B|363:198|333:272|333:272|412:281|399:335,1,210,2|0
256,248,56685,2,0,B|256:283,2,35,2|0|2
256,136,57352,1,0
344,0,58019,6,0,B|320:48|256:64|192:48|168:0,1,210,2|2
200,112,59130,1,2
312,112,59575,1,0
256,208,60019,1,0
256,208,60242,1,2
160,344,61575,6,0,B|184:376|256:392|328:376|352:344,1,210,2|0
312,240,62686,2,0,B|296:280|256:280|216:280|200:240,1,140,2|0
256,144,63575,1,0
256,144,63798,1,2
40,360,65131,6,0,B|56:288|144:256|208:280,1,210,2|0
256,176,66242,1,2
303,281,66687,2,0,B|368:256|456:288|472:360,1,210,0|2
480,80,68465,6,0,B|360:40|424:192|312:160,1,210,0|2
196,162,69576,2,0,B|88:192|152:40|32:80,1,210,2|0
224,80,70910,2,0,B|256:56|288:80,1,70,2|0
368,152,71577,5,4
144,152,72466,1,4
256,152,72910,5,0
176,232,73355,1,8
256,312,73799,1,0
336,232,74244,1,8
216,152,74688,2,0,B|176:160|144:112|176:64|216:72,1,140,0|8
296,152,75577,2,0,B|336:160|368:112|336:64|296:72,1,140,0|8
256,40,76244,2,0,B|256:0,2,35
368,16,76911,6,0,B|408:88|352:144,1,140,8|0
320,200,77577,1,0
256,192,77800,1,8
192,184,78022,1,0
159,240,78244,2,0,B|104:296|144:368,2,140,0|8|0
256,192,79578,1,8
256,136,79800,2,0,B|256:96,2,35
200,248,80467,6,0,B|176:296|136:280|96:264|72:312,2,140,8|0|8
256,136,81800,1,0
256,136,82245,1,8
313,250,82689,2,0,B|336:296|376:280|416:264|432:300,2,140,0|8|0
256,136,84023,5,8
256,136,84467,1,0
152,96,84912,2,0,B|172:20|256:-12|340:20|360:96,2,280,8|8|8
256,144,87134,6,0,B|256:216,1,70
256,272,87579,2,0,B|256:352,1,70,8|0
200,336,88023,2,0,B|161:327|135:296|138:247|159:228,1,140,0|8
256,168,88912,1,0
351,227,89357,2,0,B|373:247|376:296|350:327|312:336,2,140,8|0|8
320,0,91135,6,0,B|352:96|256:136|160:96|192:0,2,280,8|8|8
256,28,93135,2,0,B|256:236,1,210,0|8
148,168,94247,1,0
48,304,94691,6,0,B|88:234|165:253,1,140,8|0
200,304,95358,1,0
256,336,95580,1,8
312,304,95802,1,0
345,254,96025,2,0,B|423:234|464:304,1,140,0|8
512,192,96914,2,0,B|433:211|393:142,1,140,0|8
312,64,97803,5,0
288,116,98025,1,0
256,160,98247,1,8
224,116,98469,1,0
200,64,98692,1,0
118,142,99136,2,0,B|78:211|0:192,1,140,8|0
48,288,100025,6,0,B|72:320|104:328,1,70,8|0
168,328,100470,2,0,B|184:296|224:287,1,70
289,287,100914,2,0,B|328:296|344:328,1,70,8|0
408,327,101359,2,0,B|440:320|464:288,1,70
456,224,101803,2,0,B|392:176|336:248|256:184|256:184|176:248|120:176|56:224,1,420,8|0
48,112,103581,6,0,B|72:80|104:72,1,70,8|0
168,72,104026,2,0,B|184:104|224:113,1,70
289,112,104470,2,0,B|327:103|343:71,1,70,8|0
408,72,104915,2,0,B|439:79|463:111,1,70
456,176,105359,2,0,B|392:224|336:152|256:216|256:216|176:152|120:224|56:176,1,420,8|0
88,280,107137,6,0,B|120:360|200:336,1,140,8|0
256,304,107804,1,0
312,336,108026,2,0,B|391:359|423:279,1,140,8|0
320,246,108915,2,0,B|356:174|256:78|156:174|192:246,1,280,8|0
256,218,110027,2,0,B|256:10,1,210,0|8
256,136,111138,5,0
316,264,111583,1,8
256,288,111805,1,0
196,264,112027,1,0
256,192,112472,8,0,113805
200,80,114250,5,8
256,116,114472,1,0
312,80,114694,1,0
200,80,115139,1,8
256,44,115361,1,0
312,80,115583,1,0
336,192,116028,2,0,B|368:272|416:192|464:112|496:192,2,210,8|0|0
312,304,117806,5,8
256,268,118028,1,0
200,304,118250,1,0
312,304,118695,1,8
256,340,118917,1,0
200,304,119139,1,0
176,192,119584,2,0,B|144:112|96:192|48:272|16:192,2,210,8|0|0
144,304,121362,6,0,B|232:352|256:64|280:352|368:304,1,280,8|8
256,336,122695,2,0,B|256:128,1,210
256,126,123584,1,0
360,160,124029,2,0,B|336:240|256:264|176:240|152:160,1,280,8|8
256,128,125362,2,0,B|312:96|256:72|208:48|256:16,1,140,0|8
152,112,126251,5,0
256,208,126696,1,8
360,112,127140,1,8
304,80,127363,1,0
256,40,127585,1,8
208,80,127807,1,0
152,112,128029,1,4
256,192,128141,8,0,130696
176,128,131141,6,0,B|104:240|-40:192|104:144|176:256,1,280,8|8
212,304,132252,1,0
256,256,132474,1,0
300,304,132697,1,0
337,253,132919,2,0,B|408:144|552:192|408:240|336:128,1,280,8|8
448,104,134253,6,0,B|384:40|256:0|128:40|64:104,2,420,0|8|4
440,176,137142,5,0
372,192,137364,1,8
308,216,137586,1,0
204,216,138031,1,0
140,192,138253,1,8
72,176,138475,1,0
64,108,138698,6,0,B|128:44|256:4|384:44|448:108,2,420,4|8|0
192,120,141809,6,0,B|240:184|192:248,1,140,8|0
256,280,142476,1,0
320,248,142698,2,0,B|272:184|320:120,2,140,8|0|8
352,360,144032,2,0,B|216:304|296:304|160:360,2,210,4|0|8
256,192,145810,8,8,148921
168,148,149366,5,0
208,100,149588,1,0
256,56,149810,1,8
304,100,150033,1,0
344,148,150255,1,4
256,236,150699,1,8
256,236,150922,1,0
256,236,151144,1,4
368,280,151588,5,8
344,340,151811,1,0
288,368,152033,1,8
224,368,152255,1,0
168,340,152477,1,8
144,280,152700,1,4
200,160,168924,6,0,B|160:208|152:256|160:304|200:352,2,210,0|0|8
256,192,170480,1,0
312,160,170702,2,0,B|352:208|360:256|352:304|312:352,2,210,0|0|8
256,152,172258,2,0,B|256:104,2,35
192,56,172925,6,0,B|272:16|240:16|320:56,2,140,8|0|8
176,168,174258,2,0,B|368:264|352:368|256:424|160:368|144:264|336:168,1,560
368,64,176481,5,8
256,88,176926,1,0
144,64,177370,1,8
200,160,177815,2,0,B|304:216|208:216|312:160,2,140,0|8|0
192,272,179148,2,0,B|160:360|256:424|352:360|320:272,2,280,8|8|8
256,304,181148,2,0,B|256:96,1,210,0|8
256,344,182704,5,0
256,344,182926,2,0,B|256:379,2,35
200,248,183593,1,8
256,272,183815,1,0
312,248,184038,1,0
360,152,184482,2,0,B|288:104|256:200|256:200|224:104|152:152,1,280,8|8
256,80,185816,2,0,B|256:288,1,210
384,176,187149,5,8
336,280,187594,1,0
256,200,188038,1,8
176,280,188483,1,0
128,176,188927,1,8
168,72,189372,2,0,B|184:32|256:0|328:32|344:72,2,210,0|0|8
152,184,191150,5,0
196,140,191372,1,0
256,128,191594,1,8
316,140,191817,1,0
360,184,192039,1,4
256,256,192483,1,8
320,368,192928,5,0
192,368,193372,1,8
168,244,193817,2,0,B|184:284|264:284|256:244|248:204|328:204|344:244,2,210,0|0|8
68,164,195595,1,0
192,152,196039,6,0,B|256:104|320:152,1,140,8|0
352,208,196706,1,0
320,264,196928,2,0,B|255:312|191:264,1,140,8|0
80,272,197818,2,0,B|120:344|192:368|256:392|320:368|392:344|432:272,1,420,8|0
320,264,199596,6,0,B|256:312|192:264,1,140,8|0
160,208,200262,1,0
191,152,200485,2,0,B|256:104|320:152,1,140,8|0
432,112,201374,2,0,B|392:40|320:16|256:-8|192:16|120:40|80:112,1,420,8|0
200,128,203152,6,0,B|151:192|200:256,1,140,8|0
256,288,203818,1,0
312,256,204041,2,0,B|360:191|312:127,1,140,8|0
360,16,204930,2,0,B|432:56|456:128|480:192|456:256|432:328|360:368,1,420,8|0
312,256,206708,6,0,B|360:191|312:127,1,140,8|0
256,96,207374,1,0
199,127,207597,2,0,B|151:192|200:256,1,140,8|0
152,368,208486,2,0,B|80:328|56:256|32:192|56:128|80:56|152:15,1,420,8|0
256,64,210264,5,8
200,96,210486,1,0
192,160,210708,1,0
256,248,211153,1,8
312,224,211375,1,0
320,160,211597,1,0
400,240,212042,2,0,B|304:352,1,140,8|0
256,312,212709,1,0
203,346,212931,2,0,B|111:239,1,140,8|0
192,160,213820,5,8
208,220,214042,1,0
256,248,214264,1,0
320,180,214709,1,8
304,120,214931,1,0
256,92,215153,1,0
352,36,215598,6,0,B|304:28|256:-8|256:-8|208:28|160:36,2,210,8|0|0
352,36,217376,1,0
256,80,217820,5,0
320,152,218265,2,0,B|296:176|256:184|216:176|192:152,1,140,8|0
224,256,219154,2,0,B|256:232|288:256,2,70,8|0|0
200,364,220043,1,8
256,368,220265,1,0
312,364,220488,1,0
400,256,220932,6,0,B|304:144,1,140,8|0
200,152,221821,2,0,B|108:258,1,140,8|0
200,328,222710,5,8
256,360,222932,1,0
312,328,223155,1,0
256,216,223599,2,0,B|256:140,1,70
256,192,224044,8,0,226711
336,352,227155,6,0,B|256:344|256:256|256:256|256:344|176:352,1,280,8|8
176,240,228489,2,0,B|168:144|256:120|344:144|336:240,1,280,0|4
256,320,229822,2,0,B|256:40,3,280,0|0|0|8
336,120,232934,5,8
348,176,233156,1,0
328,228,233378,1,8
184,228,233823,1,8
164,176,234045,1,0
176,120,234267,1,8
64,100,234712,6,0,B|128:36|256:-4|384:36|448:100,2,420,4|8|0
320,264,237823,6,0,B|272:200|320:136,1,140,8|4
256,96,238490,1,0
192,136,238712,2,0,B|240:200|192:264,2,140,8|0|8
160,24,240046,2,0,B|296:80|216:80|352:24,2,210,4|0|8
256,192,241824,8,0,244936
208,32,245380,5,4
256,0,245602,1,0
304,32,245825,1,8
256,136,246269,1,0
256,136,247158,1,0
380,260,248047,6,0,B|328:320|256:332|184:320|132:260,1,280
180,192,249381,1,8
256,228,249825,1,0
332,192,250270,1,8
256,156,250714,6,0,B|256:103,8,52.4999984353781,0|0|8|0|8|0|8|0|4
140,276,253381,2,0,B|160:360|260:400|352:360|372:276,1,314.999990612269,0|8
256,240,255159,5,0
256,240,255382,1,0
256,192,256048,8,0,261382
192,192,262049,5,0
320,192,262494,1,0
256,192,262938,8,0,268495
256,112,268939,5,8
256,176,269161,1,0
256,304,269606,1,0
256,192,270050,8,4,277385
256,48,279163,5,0
256,112,279385,1,0
256,176,279607,1,8
384,160,280052,2,0,B|384:256|336:336|256:368|176:336|128:256|128:160,1,461.999986231328,0|8
256,176,281830,1,0
180,68,282274,6,0,B|272:48|256:40|240:48|328:68,3,153.999995410442,8|0|8|0
308,132,283830,1,0
256,168,284053,2,0,B|308:200|288:252|256:264|216:272|208:340|256:360,2,230.999993115664,8|0|0
256,168,285831,1,8
256,360,286275,1,0
424,352,286720,5,8
384,296,286942,1,0
324,260,287164,1,0
188,260,287609,1,8
128,296,287831,1,0
88,352,288053,1,0
72,240,288498,6,0,B|16:168|72:96,2,153.999995410442,4|0|4
192,240,289831,2,0,B|248:168|192:96,1,153.999995410442,4|4
317,98,290720,6,0,B|264:168|320:240,1,153.999995410442,0|4
440,240,291609,2,0,B|496:168|440:96,1,153.999995410442,0|4
317,98,292498,6,0,B|264:168|320:240,1,153.999995410442,0|4
192,239,293387,2,0,B|248:168|194:98,1,153.999995410442,0|4
256,8,294276,5,8
256,8,294499,1,0
256,8,294721,1,8
256,8,294943,2,0,B|256:112,1,76.9999977052212,0|4
