osu file format v12

[General]
AudioFilename: 03 - Panic Station.mp3
AudioLeadIn: 0
PreviewTime: 76193
Countdown: 1
SampleSet: Normal
StackLeniency: 0.7
Mode: 0
LetterboxInBreaks: 0

[Editor]
Bookmarks: 9907,28193,37336,48764,57907,67050,76193,85336,96764,105907,115050,124193,133336,142479,151622
DistanceSpacing: 0.8
BeatDivisor: 4
GridSize: 4

[Metadata]
Title:Panic Station
TitleUnicode:Panic Station
Artist:Muse
ArtistUnicode:Muse
Creator:Mashley
Version:iNiD33d
Source:
Tags:D33d
BeatmapID:185182
BeatmapSetID:60189

[Difficulty]
HPDrainRate:7
CircleSize:3
OverallDifficulty:7
ApproachRate:6
SliderMultiplier:2.8
SliderTickRate:2

[Events]
//Background and Video events
0,0,"tumblr_m52ug4Vit31rxf2wto1_1280.png",0,0
//Break Periods
2,49012,56905
2,97012,104905
2,124441,127762
//Storyboard Layer 0 (Background)
//Storyboard Layer 1 (Fail)
//Storyboard Layer 2 (Pass)
//Storyboard Layer 3 (Foreground)
//Storyboard Sound Samples
//Background Colour Transformations
3,100,0,0,0

[TimingPoints]
812.962264150943,571.428571428571,4,1,0,100,1,0
66096,-83.3333333333333,4,1,0,100,0,0
67096,-100,4,1,0,100,0,0
76241,-100,4,1,0,100,0,1
77810,-102.040816326531,4,1,0,100,0,1
78239,-100,4,1,0,100,0,1
86953,-102.040816326531,4,1,0,100,0,1
87668,-100,4,1,0,100,0,1
92241,-100,4,1,0,100,0,0
133384,-100,4,1,0,100,0,1
134953,-102.040816326531,4,1,0,100,0,1
135382,-100,4,1,0,100,0,1
143668,-100,4,1,0,100,0,1
144096,-102.040816326531,4,1,0,100,0,1
144525,-100,4,1,0,100,0,1
151527,-100,4,1,0,100,0,0
151670,-100,4,1,0,100,0,1
167670,-100,4,1,0,100,0,0

[Colours]
Combo1 : 157,225,55
Combo2 : 208,26,26
Combo3 : 81,106,206
Combo4 : 240,87,12

[HitObjects]
256,360,9955,1,4,3:0:0:0:
416,136,10527,1,8,0:0:0:0:
476,264,10812,1,0,3:0:0:0:
336,248,11098,2,0,B|308:172|204:172|176:248,2,210,2|8|0,0:0|3:0|3:0,0:0:0:0:
256,276,12098,1,2,3:0:0:0:
260,280,12241,1,4,3:0:0:0:
96,220,12527,1,0,0:0:0:0:
160,64,12812,2,0,B|216:112|296:112|352:64,1,210,8|2,1:0|2:0,3:0:0:0:
432,256,13670,2,0,B|348:188|216:256|296:352|164:424|80:352,1,420,4|4,1:2|3:0,2:0:0:0:
96,40,15098,5,8,0:0:0:0:
36,168,15384,1,0,3:0:0:0:
176,152,15670,2,0,B|204:76|308:76|336:152,2,210,2|8|0,0:0|3:0|3:0,0:0:0:0:
120,224,16670,1,2,3:0:0:0:
120,224,16812,1,4,3:0:0:0:
168,360,17098,1,0,0:0:0:0:
304,312,17384,1,8,0:0:0:0:
256,176,17670,1,0,0:0:0:0:
256,176,17812,1,2,2:0:0:0:
512,248,19098,6,0,B|440:368,1,140,4|0,3:0|3:0,0:0:0:0:
320,296,19670,2,0,B|392:176,1,140,8|0,0:0|3:0,0:0:0:0:
464,56,20241,1,2,0:0:0:0:
184,56,20812,2,0,B|116:52|52:116|56:192,1,210,8|6,1:0|3:0,3:0:0:0:
192,360,21670,1,0,0:0:0:0:
320,304,21955,1,8,0:0:0:0:
192,248,22241,1,0,0:0:0:0:
320,192,22527,1,0,0:0:0:0:
256,64,22812,2,0,B|216:0|120:0|80:64,1,210,4|2,2:0|2:0,0:0:0:0:
0,248,23670,6,0,B|72:368,1,140,4|0,3:0|3:0,0:0:0:0:
192,296,24241,2,0,B|120:176,1,140,8|0,0:0|3:0,0:0:0:0:
48,56,24812,1,4,3:0:0:0:
328,56,25384,2,0,B|396:52|460:116|456:192,1,210,8|10,1:0|3:0,3:0:0:0:
320,360,26241,1,0,0:0:0:0:
192,304,26527,1,8,0:0:0:0:
320,248,26812,1,0,0:0:0:0:
320,248,26955,1,4,2:0:0:0:
496,360,27384,1,4,1:3:0:0:
0,195,28241,6,0,B|0:103|84:19|184:19,3,280,4|8|0|8,1:0|1:0|3:0|1:0,0:0:0:0:
448,104,30527,2,0,B|536:232|416:408|256:360,1,420,4|8,3:0|3:0,3:0:0:0:
228,224,31670,2,0,B|256:300|368:312|416:212|368:148,1,280,4|10,3:0|1:0,3:0:0:0:
176,376,32812,6,0,B|84:376|0:292|0:192,3,280,0|8|8|8,1:0|1:0|3:0|1:0,0:0:0:0:
40,112,34670,1,2,3:0:0:0:
152,32,34955,2,4,B|264:20|344:96,1,210,4|2,1:0|3:0,0:0:0:0:
392,232,35670,1,8,0:0:0:0:
256,232,35955,1,2,3:0:0:0:
200,360,36241,1,4,3:0:0:0:
56,360,36527,1,2,3:0:0:0:
0,232,36812,1,8,0:0:0:0:
512,195,37384,6,0,B|512:103|428:19|328:19,3,280,4|8|0|8,1:0|1:0|3:0|1:0,0:0:0:0:
64,104,39670,2,0,B|-24:232|96:408|256:360,1,420,4|8,3:0|3:0,3:0:0:0:
284,224,40812,2,0,B|256:300|144:312|96:212|144:148,1,280,4|10,3:0|1:0,3:0:0:0:
448,104,41955,6,0,B|536:232|416:408|256:360,1,420,4|2,3:0|3:0,3:0:0:0:
144,280,43098,2,0,B|108:208|184:132|256:168,2,210,2|0|2,3:2|0:0|3:0,0:0:0:0:
256,192,44241,12,4,48812,0:0:0:0:
16,240,57955,5,4,3:1:0:0:
48,376,58241,1,0,3:0:0:0:
152,280,58527,1,8,0:0:0:0:
288,320,58812,1,0,3:0:0:0:
392,224,59098,2,0,P|488:224|512:320,2,210,2|8|2,1:0|3:0|3:0,0:0:0:0:
360,88,60241,1,4,1:3:0:0:
224,48,60527,1,4,3:0:0:0:
120,144,60812,1,8,0:0:0:0:
256,184,61098,1,0,3:0:0:0:
256,184,61241,1,2,2:0:0:0:
152,280,61527,1,0,0:0:0:0:
152,280,61670,1,4,3:0:0:0:
496,240,62527,5,4,3:1:0:0:
464,376,62812,1,0,3:0:0:0:
360,280,63098,1,8,0:0:0:0:
224,320,63384,1,0,3:0:0:0:
120,224,63670,2,0,P|24:224|0:320,2,210,2|8|2,1:0|3:0|3:0,0:0:0:0:
256,184,64812,1,4,1:3:0:0:
184,304,65098,1,4,3:0:0:0:
328,304,65384,1,8,0:0:0:0:
400,184,65670,1,0,3:0:0:0:
400,184,65812,1,2,2:0:0:0:
376,48,66098,2,2,B|320:12|264:36|248:60|192:84|136:48,1,251.999992309571,2|12,0:0|0:0,0:0:0:0:
0,248,67098,6,0,B|72:368,1,140,4|0,3:0|3:0,0:0:0:0:
192,296,67670,2,0,B|120:176,1,140,8|0,1:0|3:0,0:0:0:0:
48,56,68241,1,2,0:0:0:0:
328,56,68812,2,0,B|396:52|460:116|456:192,1,210,8|6,1:0|3:0,3:0:0:0:
320,360,69670,1,0,0:0:0:0:
192,304,69955,1,8,0:0:0:0:
320,248,70241,1,0,0:0:0:0:
192,192,70527,1,0,0:0:0:0:
256,64,70812,2,0,B|296:0|392:0|432:64,1,210,4|2,2:0|2:0,0:0:0:0:
512,248,71670,6,0,B|440:368,1,140,4|0,3:0|3:0,0:0:0:0:
320,296,72241,2,0,B|392:176,1,140,8|0,1:0|3:0,0:0:0:0:
464,56,72812,1,2,0:0:0:0:
184,56,73384,2,0,B|116:52|52:116|56:192,1,210,8|10,1:0|3:0,3:0:0:0:
192,360,74241,1,0,0:0:0:0:
320,304,74527,1,8,0:0:0:0:
192,248,74812,1,0,0:0:0:0:
192,248,74955,1,4,2:0:0:0:
0,192,76241,6,2,B|0:100|84:16|184:16,1,280,6|8,1:0|0:0,0:0:0:0:
312,64,77098,1,8,3:0:0:0:
184,112,77384,2,0,B|136:112|96:152|96:204,1,140,4|2,3:0|3:0,0:0:0:0:
40,277,77812,2,0,B|104:325|192:277|188:205,1,205.799998115845,0|2,1:0|3:0,0:0:0:0:
329,20,78527,6,0,B|428:19|512:103|512:195,1,280,4|8,3:0|0:0,3:0:0:0:
480,328,79384,1,8,3:0:0:0:
415,206,79670,2,0,B|416:155|376:115|328:115,1,140,4|2,3:0|3:0,0:0:0:0:
200,64,80241,1,10,0:0:0:0:
32,232,80670,6,0,B|48:304|112:352|184:352,1,210,4|2,1:0|3:0,0:0:0:0:
328,352,81384,1,8,0:0:0:0:
368,220,81670,1,2,3:0:0:0:
256,140,81955,1,4,3:0:0:0:
144,220,82241,1,2,3:0:0:0:
184,352,82527,1,10,0:0:0:0:
184,352,82670,1,2,3:0:0:0:
48,320,82955,6,2,B|-24:232|0:120,1,210,6|2,0:0|3:0,0:0:0:0:
136,80,83670,2,8,B|80:128|96:208,1,140,8|2,0:0|3:0,0:0:0:0:
224,256,84241,2,10,B|280:208|264:128,1,140,0|2,0:0|0:0,0:0:0:0:
392,176,84812,2,8,B|407:254|351:302,1,140,8|2,0:0|3:0,0:0:0:0:
512,192,85384,6,0,B|512:100|428:16|328:16,1,280,4|8,1:0|0:0,0:0:0:0:
200,64,86241,1,8,3:0:0:0:
328,112,86527,2,0,B|376:112|416:152|416:204,1,140,4|2,3:0|3:0,0:0:0:0:
472,277,86955,2,0,B|408:325|320:277|324:205,1,205.799998115845,0|2,0:0|3:0,0:0:0:0:
183,20,87670,6,0,B|84:19|0:103|0:195,1,280,4|8,3:0|0:0,3:0:0:0:
32,328,88527,1,8,3:0:0:0:
97,206,88812,2,0,B|96:155|136:115|184:115,1,140,4|2,3:0|3:0,0:0:0:0:
256,224,89384,1,10,0:0:0:0:
480,232,89812,6,0,B|464:304|400:352|328:352,1,210,4|2,0:0|3:0,0:0:0:0:
184,352,90527,1,8,0:0:0:0:
144,220,90812,1,2,3:0:0:0:
256,140,91098,1,4,3:0:0:0:
368,220,91384,1,2,3:0:0:0:
328,352,91670,1,10,0:0:0:0:
328,352,91812,1,2,3:0:0:0:
256,192,92241,12,4,96812,0:0:0:0:
48,16,105955,21,4,3:0:0:0:
464,16,106527,1,8,0:0:0:0:
256,376,107098,1,4,3:0:0:0:
256,52,107670,2,0,B|256:264,1,210,8|4,0:0|0:0,0:0:0:0:
512,192,108527,5,4,3:0:0:0:
440,72,108812,1,8,0:0:0:0:
368,192,109098,1,4,3:0:0:0:
440,312,109384,1,4,3:0:0:0:
184,192,109955,2,2,P|80:196|28:280,1,210,10|2,0:0|0:3,0:0:0:0:
48,368,110527,5,4,3:0:0:0:
464,368,111098,1,8,0:0:0:0:
256,8,111670,1,4,3:0:0:0:
256,332,112241,2,0,B|256:120,1,210,8|4,0:0|0:0,0:0:0:0:
0,192,113098,5,4,3:0:0:0:
72,312,113384,1,8,0:0:0:0:
144,192,113670,1,4,3:0:0:0:
144,48,113955,1,8,0:0:0:0:
144,48,114098,1,8,0:0:0:0:
368,48,114384,1,8,0:0:0:0:
368,48,114527,1,8,0:0:0:0:
312,120,114670,1,8,3:0:0:0:
256,192,114812,1,4,3:0:0:0:
88,144,115098,5,4,0:0:0:0:
168,264,115384,1,8,3:0:0:0:
48,336,115670,1,8,0:0:0:0:
184,376,115955,1,8,3:0:0:0:
328,376,116241,1,4,3:0:0:0:
256,256,116527,1,8,3:0:0:0:
184,136,116812,2,0,B|120:184|56:136,1,140,8|0,0:0|3:0,0:0:0:0:
120,72,117241,1,6,0:0:0:0:
344,216,117670,5,8,3:0:0:0:
464,288,117955,1,8,0:0:0:0:
328,328,118241,1,8,3:0:0:0:
184,328,118527,1,4,3:0:0:0:
256,208,118812,1,8,3:0:0:0:
328,88,119098,2,0,B|392:136|456:88,1,140,8|0,0:0|3:0,0:0:0:0:
392,24,119527,1,6,0:0:0:0:
168,168,119955,5,8,3:0:0:0:
48,240,120241,1,8,0:0:0:0:
184,280,120527,1,8,3:0:0:0:
328,280,120812,1,4,3:0:0:0:
432,184,121098,1,8,3:0:0:0:
320,96,121384,2,0,B|256:48|192:96,1,140,10|0,0:0|3:0,0:0:0:0:
168,184,121812,2,0,B|208:248|304:248|344:184,1,210,4|10,0:0|3:0,0:0:0:0:
480,144,122527,5,8,0:0:0:0:
448,280,122812,1,10,3:0:0:0:
328,352,123098,1,4,3:0:0:0:
184,352,123384,1,10,3:0:0:0:
64,280,123670,1,8,0:0:0:0:
32,144,123955,1,2,3:0:0:0:
32,144,124098,1,2,2:0:0:0:
32,144,124241,1,4,0:0:0:0:
256,192,128812,12,12,132812,3:0:0:0:
512,195,133384,6,2,B|512:103|428:19|328:19,1,280,6|8,1:0|0:0,0:0:0:0:
200,64,134241,1,8,3:0:0:0:
328,115,134527,2,0,B|376:115|416:155|416:207,1,140,4|2,3:0|3:0,0:0:0:0:
472,280,134955,2,0,B|408:328|320:280|324:208,1,205.799998115845,0|2,1:0|3:0,0:0:0:0:
183,20,135670,6,0,B|84:19|0:103|0:195,1,280,4|8,3:0|0:0,3:0:0:0:
32,328,136527,1,8,3:0:0:0:
97,206,136812,2,0,B|96:155|136:115|184:115,1,140,4|2,3:0|3:0,0:0:0:0:
312,64,137384,1,10,0:0:0:0:
480,232,137812,6,0,B|464:304|400:352|328:352,1,210,4|2,1:0|3:0,0:0:0:0:
184,352,138527,1,8,0:0:0:0:
144,220,138812,1,2,3:0:0:0:
256,140,139098,1,4,3:0:0:0:
368,220,139384,1,2,3:0:0:0:
328,352,139670,1,10,0:0:0:0:
328,352,139812,1,2,3:0:0:0:
464,320,140098,6,2,B|536:232|512:120,1,210,6|2,0:0|3:0,0:0:0:0:
376,80,140812,2,8,B|432:128|416:208,1,140,8|2,0:0|3:0,0:0:0:0:
288,256,141384,2,10,B|232:208|248:128,1,140,0|2,0:0|0:0,0:0:0:0:
120,176,141955,2,8,B|105:254|161:302,1,140,8|2,0:0|3:0,0:0:0:0:
0,195,142527,6,0,B|0:103|84:19|184:19,1,280,4|8,1:0|0:0,0:0:0:0:
312,72,143384,1,8,3:0:0:0:
184,115,143670,2,0,B|136:115|96:155|96:207,1,140,4|2,3:0|3:0,0:0:0:0:
40,280,144098,2,0,B|104:328|192:280|188:208,1,205.799998115845,0|2,0:0|3:0,0:0:0:0:
329,20,144812,6,0,B|428:19|512:103|512:195,1,280,4|8,3:0|0:0,3:0:0:0:
480,328,145670,1,8,3:0:0:0:
415,206,145955,2,0,B|416:155|376:115|328:115,1,140,4|2,3:0|3:0,0:0:0:0:
200,72,146527,1,10,0:0:0:0:
32,232,146955,6,0,B|48:304|112:352|184:352,1,210,4|2,0:0|3:0,0:0:0:0:
328,352,147670,1,8,0:0:0:0:
368,220,147955,1,2,3:0:0:0:
256,140,148241,1,4,3:0:0:0:
144,220,148527,1,2,3:0:0:0:
184,352,148812,1,10,0:0:0:0:
184,352,148955,1,2,3:0:0:0:
256,192,149384,12,4,151527,0:0:0:0:
136,372,151955,21,0,0:0:0:0:
208,252,152241,1,8,0:0:0:0:
280,132,152527,1,2,3:0:0:0:
176,40,152812,2,0,B|128:40|88:80|88:132,1,140,4|0,3:0|0:0,0:0:0:0:
0,132,153241,2,0,B|0:180|40:220|92:220,1,140,2|0,3:0|3:0,0:0:0:0:
168,172,153670,1,0,3:0:0:0:
168,172,153812,1,2,3:0:0:0:
168,172,153955,1,4,3:0:0:0:
128,304,154241,5,2,3:0:0:0:
256,360,154527,1,8,0:0:0:0:
384,304,154812,1,2,3:0:0:0:
256,248,155098,1,4,3:0:0:0:
256,104,155384,1,2,3:0:0:0:
384,40,155670,2,0,B|452:68|480:136,1,140,10|0,0:0|3:0,0:0:0:0:
480,232,156098,6,0,B|464:304|400:352|328:352,1,210,4|2,1:0|3:0,0:0:0:0:
184,352,156812,1,8,0:0:0:0:
144,220,157098,1,2,3:0:0:0:
256,140,157384,1,4,3:0:0:0:
368,220,157670,1,2,3:0:0:0:
328,352,157955,1,10,0:0:0:0:
328,352,158098,1,2,3:0:0:0:
464,320,158384,6,2,B|536:232|512:120,1,210,6|2,0:0|3:0,0:0:0:0:
376,80,159098,2,8,B|432:128|416:208,1,140,8|2,0:0|3:0,0:0:0:0:
288,256,159670,2,10,B|232:208|248:128,1,140,0|2,0:0|0:0,0:0:0:0:
144,36,160241,1,8,0:0:0:0:
144,36,160384,1,0,0:3:0:0:
120,176,160670,1,4,0:0:0:0:
376,372,161098,5,0,0:0:0:0:
304,252,161384,1,8,0:0:0:0:
232,132,161670,1,2,3:0:0:0:
336,40,161955,2,0,B|384:40|424:80|424:132,1,140,4|0,3:0|0:0,0:0:0:0:
512,133,162384,2,0,B|512:181|472:221|420:221,1,140,2|0,3:0|3:0,0:0:0:0:
344,173,162812,1,0,3:0:0:0:
344,173,162955,1,2,3:0:0:0:
344,173,163098,1,4,3:0:0:0:
384,304,163384,5,2,3:0:0:0:
256,360,163670,1,8,0:0:0:0:
128,304,163955,1,2,3:0:0:0:
256,248,164241,1,4,3:0:0:0:
256,104,164527,1,2,3:0:0:0:
128,48,164812,2,0,B|60:76|32:144,1,140,10|0,0:0|3:0,0:0:0:0:
32,232,165241,6,0,B|48:304|112:352|184:352,1,210,4|2,0:0|3:0,0:0:0:0:
328,352,165955,1,8,0:0:0:0:
368,220,166241,1,2,3:0:0:0:
256,140,166527,1,4,3:0:0:0:
144,220,166812,1,2,3:0:0:0:
184,352,167098,1,10,0:0:0:0:
184,352,167241,1,2,3:0:0:0:
256,192,167670,12,4,172241,0:0:0:0:
