osu file format v12

[General]
AudioFilename: 03 - Panic Station.mp3
AudioLeadIn: 0
PreviewTime: 76193
Countdown: 1
SampleSet: Normal
StackLeniency: 0.7
Mode: 0
LetterboxInBreaks: 0

[Editor]
DistanceSpacing: 0.8
BeatDivisor: 4
GridSize: 8

[Metadata]
Title:Panic Station
TitleUnicode:Panic Station
Artist:Muse
ArtistUnicode:Muse
Creator:Mashley
Version:Stress
Source:
Tags:D33d
BeatmapID:228572
BeatmapSetID:60189

[Difficulty]
HPDrainRate:4
CircleSize:3
OverallDifficulty:3
ApproachRate:4
SliderMultiplier:2
SliderTickRate:2

[Events]
//Background and Video events
0,0,"tumblr_m52ug4Vit31rxf2wto1_1280.png",0,0
//Break Periods
2,49012,56635
2,97012,104635
2,124241,127492
//Storyboard Layer 0 (Background)
//Storyboard Layer 1 (Fail)
//Storyboard Layer 2 (Pass)
//Storyboard Layer 3 (Foreground)
//Storyboard Sound Samples
//Background Colour Transformations
3,100,0,0,0

[TimingPoints]
812.962264150943,571.428571428571,4,1,0,100,1,0
76241,-100,4,1,0,100,0,1
92241,-100,4,1,0,100,0,0
133384,-100,4,1,0,100,0,1
151527,-100,4,1,0,100,0,0
151670,-100,4,1,0,100,0,1
167670,-100,4,1,0,100,0,0

[Colours]
Combo1 : 157,225,55
Combo2 : 208,26,26
Combo3 : 81,106,206
Combo4 : 240,87,12

[HitObjects]
16,128,9955,5,0,0:0:0:0:
8,288,10527,1,8,0:0:0:0:
160,352,11098,1,0,0:0:0:0:
256,224,11670,2,2,B|312:152|200:168|256:88,1,150,2|6,0:0|0:0,0:0:0:0:
368,56,12527,5,0,0:0:0:0:
408,128,12812,1,8,0:0:0:0:
448,200,13098,1,0,0:0:0:0:
488,272,13384,1,0,0:0:0:0:
488,272,13955,1,12,0:0:0:0:
352,352,14527,5,0,0:0:0:0:
256,224,15098,1,8,0:0:0:0:
160,352,15670,1,0,0:0:0:0:
72,224,16241,2,2,P|32:176|48:88,1,150,2|6,0:0|0:0,0:0:0:0:
136,16,17098,5,0,0:0:0:0:
216,16,17384,1,8,0:0:0:0:
296,16,17670,1,0,0:0:0:0:
376,16,17955,1,0,0:0:0:0:
376,16,18527,1,12,0:0:0:0:
496,120,19098,5,0,0:0:0:0:
464,280,19670,1,8,0:0:0:0:
312,336,20241,1,0,0:0:0:0:
256,184,20812,2,2,L|256:16,1,150,2|6,0:0|0:0,0:0:0:0:
144,56,21670,5,0,0:0:0:0:
104,128,21955,1,8,0:0:0:0:
64,200,22241,1,0,0:0:0:0:
24,272,22527,1,0,0:0:0:0:
24,272,23098,1,12,0:0:0:0:
160,352,23670,5,0,0:0:0:0:
256,224,24241,1,8,0:0:0:0:
352,352,24812,1,0,0:0:0:0:
440,224,25384,2,2,P|480:176|464:88,2,150,2|2|0,0:0|0:0|0:0,0:0:0:0:
368,192,26527,1,8,0:0:0:0:
296,160,26812,1,0,0:0:0:0:
224,128,27098,1,0,0:0:0:0:
224,128,27670,1,12,0:0:0:0:
120,8,28241,6,2,P|32:56|32:160,2,200
216,136,29955,1,8,0:0:0:0:
80,240,30527,1,2,0:0:0:0:
128,304,30812,1,0,0:0:0:0:
192,256,31098,2,0,L|352:136,2,200,8|4|8,0:0|0:0|0:0,0:0:0:0:
320,344,32812,5,0,0:0:0:0:
440,240,33384,1,8,0:0:0:0:
344,112,33955,1,0,0:0:0:0:
224,216,34527,2,0,P|152:184|64:192,2,150,8|0|0,0:0|0:0|0:0,0:0:0:0:
256,288,35670,5,8,0:0:0:0:
312,232,35955,1,0,0:0:0:0:
384,208,36241,1,0,0:0:0:0:
368,128,36527,1,2,0:0:0:0:
288,152,36812,1,8,0:0:0:0:
392,8,37384,6,2,P|480:56|480:160,2,200
312,8,38812,2,0,P|336:64|384:88,1,100,0|8,0:0|0:0,0:0:0:0:
392,224,39670,1,2,0:0:0:0:
384,304,39955,1,0,0:0:0:0:
320,256,40241,2,0,L|160:136,2,200,8|4|8,0:0|0:0|0:0,0:0:0:0:
256,112,41955,5,0,0:0:0:0:
104,64,42527,1,8,0:0:0:0:
48,216,43098,1,0,0:0:0:0:
192,280,43670,1,8,0:0:0:0:
256,192,44241,12,4,48812,0:0:0:0:
360,8,57955,5,4,0:0:0:0:
480,120,58527,1,8,0:0:0:0:
328,160,59098,1,0,0:0:0:0:
208,264,59670,2,2,B|264:328|336:336,1,150,2|6,0:0|0:0,0:0:0:0:
448,288,60527,5,0,0:0:0:0:
456,208,60812,1,8,0:0:0:0:
464,128,61098,1,0,0:0:0:0:
472,48,61384,1,0,0:0:0:0:
400,80,61670,1,4,0:0:0:0:
152,8,62527,5,0,0:0:0:0:
32,120,63098,1,8,0:0:0:0:
184,160,63670,1,0,0:0:0:0:
304,264,64241,2,2,B|248:328|176:336,1,150,2|6,0:0|0:0,0:0:0:0:
64,288,65098,5,0,0:0:0:0:
56,208,65384,1,8,0:0:0:0:
48,128,65670,1,0,0:0:0:0:
36,48,65955,1,0,0:0:0:0:
36,48,66241,1,6,0:0:0:0:
360,32,67098,5,0,0:0:0:0:
256,152,67670,1,8,0:0:0:0:
152,32,68241,1,0,0:0:0:0:
48,152,68812,2,2,L|48:312,1,150,2|6,0:0|0:0,0:0:0:0:
160,344,69670,5,0,0:0:0:0:
216,288,69955,1,8,0:0:0:0:
296,288,70241,1,0,0:0:0:0:
352,344,70527,2,0,P|432:336|368:192,1,300
383,270,71670,5,0,0:0:0:0:
256,368,72241,1,8,0:0:0:0:
129,270,72812,1,0,0:0:0:0:
184,96,73384,2,2,L|336:96,1,150,2|6,0:0|0:0,0:0:0:0:
328,216,74241,21,0,0:0:0:0:
296,288,74527,1,8,0:0:0:0:
216,288,74812,1,0,0:0:0:0:
184,216,75098,1,0,0:0:0:0:
256,72,75670,1,12,0:0:0:0:
392,8,76241,6,2,P|480:56|480:160,2,200
296,136,77955,1,8,0:0:0:0:
432,240,78527,1,2,0:0:0:0:
384,304,78812,1,0,0:0:0:0:
320,256,79098,2,0,L|160:136,2,200,8|4|8,0:0|0:0|0:0,0:0:0:0:
192,344,80812,5,0,0:0:0:0:
72,240,81384,1,8,0:0:0:0:
168,112,81955,1,0,0:0:0:0:
288,216,82527,2,0,P|360:184|448:192,2,150,8|0|0,0:0|0:0|0:0,0:0:0:0:
256,288,83670,5,8,0:0:0:0:
200,232,83955,1,0,0:0:0:0:
128,208,84241,1,0,0:0:0:0:
144,128,84527,1,2,0:0:0:0:
224,152,84812,1,8,0:0:0:0:
120,8,85384,6,2,P|32:56|32:160,2,200
200,8,86812,2,0,P|168:72|136:88,1,100,0|8,0:0|0:0,0:0:0:0:
120,224,87670,1,2,0:0:0:0:
128,304,87955,1,0,0:0:0:0:
192,256,88241,2,0,L|352:136,2,200,8|4|8,0:0|0:0|0:0,0:0:0:0:
256,112,89955,5,0,0:0:0:0:
408,64,90527,1,8,0:0:0:0:
464,216,91098,1,0,0:0:0:0:
320,272,91670,1,8,0:0:0:0:
256,192,92241,12,4,96812,0:0:0:0:
112,344,105955,5,0,0:0:0:0:
64,280,106241,1,0,0:0:0:0:
16,216,106527,1,8,0:0:0:0:
48,56,107098,2,0,P|120:8|240:72,1,200,0|8,0:0|0:0,0:0:0:0:
120,168,108241,5,0,0:0:0:0:
256,88,108812,1,8,0:0:0:0:
256,248,109384,1,0,0:0:0:0:
392,168,109955,1,6,0:0:0:0:
400,344,110527,5,0,0:0:0:0:
448,280,110812,1,0,0:0:0:0:
496,216,111098,1,8,0:0:0:0:
464,56,111670,2,0,P|392:8|272:72,1,200,0|8,0:0|0:0,0:0:0:0:
168,240,113098,5,0,0:0:0:0:
216,304,113384,1,8,0:0:0:0:
296,304,113670,1,0,0:0:0:0:
344,240,113955,1,8,0:0:0:0:
256,104,114527,1,8,0:0:0:0:
256,184,114812,1,0,0:0:0:0:
176,192,115098,6,2,B|104:192|48:144|40:64,1,200
192,48,116241,1,4,0:0:0:0:
256,0,116527,1,8,0:0:0:0:
320,48,116812,1,2,0:0:0:0:
464,72,117384,6,2,B|456:145|400:193|328:193,1,200
320,336,118527,1,4,0:0:0:0:
256,384,118812,1,8,0:0:0:0:
192,336,119098,1,2,0:0:0:0:
48,280,119670,6,2,P|8:192|48:104,1,200
184,160,120812,1,0,0:0:0:0:
256,192,121098,1,8,0:0:0:0:
328,224,121384,1,2,0:0:0:0:
464,280,121955,6,2,P|504:192|464:104,1,200
328,160,123098,1,0,0:0:0:0:
256,192,123384,1,8,0:0:0:0:
184,224,123670,1,2,0:0:0:0:
256,192,128812,12,4,132241,0:0:0:0:
72,48,133384,5,2,0:0:0:0:
40,120,133670,1,0,0:0:0:0:
48,200,133955,1,8,0:0:0:0:
16,360,134527,2,0,P|80:280|176:288,1,200,4|8,0:0|0:0,0:0:0:0:
328,312,135670,6,0,L|440:336,1,100,2|0,0:0|0:0,0:0:0:0:
496,288,136241,2,0,L|520:176,1,100,8|0,0:0|0:0,0:0:0:0:
464,128,136812,2,0,L|360:112,1,100,4|0,0:0|0:0,0:0:0:0:
288,104,137384,2,2,P|184:64|144:24,2,150,2|2|0,0:0|0:0|0:0,0:0:0:0:
256,176,138527,5,8,0:0:0:0:
96,144,139098,1,0,0:0:0:0:
48,208,139384,1,0,0:0:0:0:
128,224,139670,1,8,0:0:0:0:
256,320,140241,6,0,B|360:344|360:344|456:256,1,200,0|8,0:0|0:0,0:0:0:0:
376,216,141098,1,0,0:0:0:0:
400,136,141384,2,0,B|296:112|296:112|200:200,1,200,0|8,0:0|0:0,0:0:0:0:
104,88,142527,5,4,0:0:0:0:
192,88,142812,1,0,0:0:0:0:
256,32,143098,1,8,0:0:0:0:
408,88,143670,1,0,0:0:0:0:
320,88,143955,1,0,0:0:0:0:
256,144,144241,1,8,0:0:0:0:
184,312,144812,6,0,L|72:336,1,100,2|0,0:0|0:0,0:0:0:0:
16,288,145384,2,0,L|-8:176,1,100,8|0,0:0|0:0,0:0:0:0:
48,128,145955,2,0,L|152:112,1,100,4|0,0:0|0:0,0:0:0:0:
224,104,146527,2,2,P|328:64|368:24,2,150,2|2|0,0:0|0:0|0:0,0:0:0:0:
184,32,147670,5,8,0:0:0:0:
120,80,147955,2,0,P|112:184|192:272,1,200
152,336,148812,1,8,0:0:0:0:
232,312,149098,1,0,0:0:0:0:
312,328,149384,6,2,L|472:184,1,200
408,136,150241,1,0,0:0:0:0:
352,80,150527,1,4,0:0:0:0:
256,208,151098,1,8,0:0:0:0:
120,376,151670,38,2,P|32:328|32:224,2,200
200,376,153098,2,0,P|168:312|136:296,1,100,0|8,0:0|0:0,0:0:0:0:
120,160,153955,1,2,0:0:0:0:
128,80,154241,1,0,0:0:0:0:
192,128,154527,2,0,L|352:248,2,200,8|4|8,0:0|0:0|0:0,0:0:0:0:
328,48,156241,5,0,0:0:0:0:
400,72,156527,1,0,0:0:0:0:
472,104,156812,1,8,0:0:0:0:
416,264,157384,1,0,0:0:0:0:
344,232,157670,1,0,0:0:0:0:
272,192,157955,2,0,P|200:160|112:168,2,150,8|4|0,0:0|0:0|0:0,0:0:0:0:
272,272,159098,5,8,0:0:0:0:
112,296,159670,1,0,0:0:0:0:
160,360,159955,1,0,0:0:0:0:
240,352,160241,1,8,0:0:0:0:
392,376,160812,6,2,P|480:328|480:224,2,200
312,376,162241,2,0,P|344:312|376:296,1,100,0|8,0:0|0:0,0:0:0:0:
400,160,163098,1,2,0:0:0:0:
384,80,163384,1,0,0:0:0:0:
320,128,163670,2,0,L|160:248,2,200,8|4|8,0:0|0:0|0:0,0:0:0:0:
256,272,165384,5,0,0:0:0:0:
176,296,165670,1,0,0:0:0:0:
104,328,165955,1,8,0:0:0:0:
48,168,166527,1,0,0:0:0:0:
120,136,166812,1,0,0:0:0:0:
192,112,167098,1,8,0:0:0:0:
256,192,167670,12,4,171098,0:0:0:0:
8,64,172241,5,8,0:0:0:0:
8,224,172812,1,8,0:0:0:0:
152,152,173384,1,8,0:0:0:0:
176,312,173955,6,2,L|336:312,1,150,2|6,0:0|0:0,0:0:0:0:
256,216,174812,1,0,0:0:0:0:
312,160,175098,1,0,0:0:0:0:
256,104,175384,1,0,0:0:0:0:
200,160,175670,1,0,0:0:0:0:
504,64,176812,5,8,0:0:0:0:
504,224,177383,1,8,0:0:0:0:
360,152,177955,1,8,0:0:0:0:
336,312,178526,6,2,L|176:312,1,150,2|6,0:0|0:0,0:0:0:0:
256,216,179383,1,0,0:0:0:0:
312,160,179669,1,0,0:0:0:0:
256,104,179955,1,0,0:0:0:0:
200,160,180241,1,0,0:0:0:0:
200,160,180812,1,12,0:0:0:0:
