osu file format v12

[General]
AudioFilename: 03 - Panic Station.mp3
AudioLeadIn: 0
PreviewTime: 76193
Countdown: 1
SampleSet: Normal
StackLeniency: 0.7
Mode: 0
LetterboxInBreaks: 0

[Editor]
Bookmarks: 14479
DistanceSpacing: 0.8
BeatDivisor: 4
GridSize: 8

[Metadata]
Title:Panic Station
TitleUnicode:Panic Station
Artist:Muse
ArtistUnicode:Muse
Creator:Mashley
Version:Panic
Source:
Tags:D33d
BeatmapID:185138
BeatmapSetID:60189

[Difficulty]
HPDrainRate:7
CircleSize:4
OverallDifficulty:7
ApproachRate:8
SliderMultiplier:3.5
SliderTickRate:2

[Events]
//Background and Video events
0,0,"tumblr_m52ug4Vit31rxf2wto1_1280.png",0,0
//Break Periods
2,49012,56764
2,97012,105205
2,124241,128062
//Storyboard Layer 0 (Background)
//Storyboard Layer 1 (Fail)
//Storyboard Layer 2 (Pass)
//Storyboard Layer 3 (Foreground)
//Storyboard Sound Samples
//Background Colour Transformations
3,100,0,0,0

[TimingPoints]
812.962264150943,571.428571428571,4,1,0,100,1,0
66170,-83.3333333333333,4,1,0,100,0,0
67027,-100,4,1,0,100,0,0
76241,-100,4,1,0,100,0,1
92241,-100,4,1,0,100,0,0
133384,-100,4,1,0,100,0,1
151527,-100,4,1,0,100,0,0
151670,-100,4,1,0,100,0,1
167670,-100,4,1,0,100,0,0

[Colours]
Combo1 : 157,225,55
Combo2 : 208,26,26
Combo3 : 81,106,206
Combo4 : 240,87,12

[HitObjects]
56,240,9955,6,0,B|72:344|176:352,1,175
208,232,10527,1,8,0:0:0:0:
152,120,10812,1,0,0:0:0:0:
232,32,11098,2,0,B|312:0|432:24|472:112|456:216,1,350,0|8,0:0|0:0,0:0:0:0:
424,328,11955,1,0,0:0:0:0:
424,328,12098,1,4,0:0:0:0:
240,304,12527,6,0,B|200:384|88:376,1,175,0|8,0:0|0:0,0:0:0:0:
64,256,13098,1,0,0:0:0:0:
64,256,13241,2,0,B|112:168|48:80,1,175
80,24,13670,2,2,B|256:0,2,175
456,240,14527,6,0,B|440:344|336:352,1,175
304,232,15098,1,8,0:0:0:0:
360,120,15384,1,0,0:0:0:0:
280,32,15670,2,0,B|200:0|80:24|40:112|56:216,1,350,0|8,0:0|0:0,0:0:0:0:
88,328,16527,1,0,0:0:0:0:
88,328,16670,1,4,0:0:0:0:
200,176,17098,6,0,B|104:152|104:40,1,175,0|8,0:0|0:0,0:0:0:0:
224,64,17670,1,0,0:0:0:0:
224,64,17812,2,0,B|400:104,1,175
464,120,18241,2,0,B|504:200|456:288,1,175,12|0,0:0|0:0,0:0:0:0:
384,272,18670,2,0,B|208:232,1,175,12|0,0:0|0:0,0:0:0:0:
152,272,19098,5,0,0:0:0:0:
48,208,19384,1,0,0:0:0:0:
104,104,19670,1,8,0:0:0:0:
216,160,19955,1,0,0:0:0:0:
288,56,20241,2,0,B|384:40|456:104,1,175
480,216,20812,2,2,B|328:336,1,175
288,368,21241,1,12,0:0:0:0:
104,336,21670,5,0,0:0:0:0:
104,336,21955,1,0,0:0:0:0:
56,224,22241,1,0,0:0:0:0:
56,224,22384,1,0,0:0:0:0:
192,64,22812,2,0,B|107:87,1,87.5,2|0,0:0|0:0,0:0:0:0:
240,136,23241,2,0,B|336:104,2,87.5,8|0|0,0:0|0:0|0:0,0:0:0:0:
184,200,23670,6,0,B|192:296|288:344,1,175,4|0,0:0|0:0,0:0:0:0:
392,296,24241,1,8,0:0:0:0:
360,176,24527,1,0,0:0:0:0:
432,56,24812,2,2,P|328:32|256:152,2,262.5,2|2|0,0:0|0:0|0:0,0:0:0:0:
440,216,25955,5,0,0:0:0:0:
336,280,26241,1,0,0:0:0:0:
232,216,26527,1,8,0:0:0:0:
120,256,26812,1,0,0:0:0:0:
120,256,26955,1,2,0:0:0:0:
424,48,27384,5,4,0:0:0:0:
56,32,28241,6,0,B|16:80|64:112|112:144|56:192,1,175,4|0,0:0|0:0,0:0:0:0:
24,304,28812,1,8,0:0:0:0:
144,344,29098,1,0,0:0:0:0:
288,352,29384,2,0,P|280:264|344:200,1,175
400,240,29812,2,0,B|488:80,1,175,8|0,0:0|0:0,0:0:0:0:
432,32,30241,2,0,B|392:16|344:16,1,87.5,0|8,0:0|0:0,0:0:0:0:
272,24,30527,5,0,0:0:0:0:
152,56,30812,1,0,0:0:0:0:
32,32,31098,1,8,0:0:0:0:
72,152,31384,1,0,0:0:0:0:
16,264,31670,2,0,B|24:320|128:336|160:280,1,175,4|0,0:0|0:0,0:0:0:0:
272,336,32241,2,0,B|240:160,1,175,8|0,0:0|0:0,0:0:0:0:
224,88,32670,6,0,B|264:24|336:24|384:80,1,175,4|0,0:0|0:0,0:0:0:0:
384,144,33098,2,0,B|415:316,2,175,0|8|0,0:0|0:0|0:0,0:0:0:0:
296,224,33955,1,0,0:0:0:0:
176,184,34241,2,0,B|96:248,1,87.5
48,280,34527,6,0,B|-8:184|32:88|112:56,1,262.5,0|4,0:0|0:0,0:0:0:0:
224,96,35241,1,0,0:0:0:0:
224,96,35384,1,0,0:0:0:0:
320,24,35670,2,0,B|304:112|392:184,1,175,8|0,0:0|0:0,0:0:0:0:
496,224,36241,2,0,B|448:320|352:328,1,175
248,280,36812,1,8,0:0:0:0:
248,280,36955,1,0,0:0:0:0:
128,320,37241,2,0,B|32:272|8:160|48:64,1,262.5,0|4,0:0|0:0,0:0:0:0:
136,24,37955,5,8,0:0:0:0:
136,24,38098,1,0,0:0:0:0:
224,104,38384,1,0,0:0:0:0:
224,104,38527,1,0,0:0:0:0:
168,208,38812,1,0,0:0:0:0:
168,208,38955,1,8,0:0:0:0:
264,280,39241,1,0,0:0:0:0:
264,280,39384,1,0,0:0:0:0:
384,320,39670,5,4,0:0:0:0:
352,200,39955,1,0,0:0:0:0:
456,136,40241,2,0,B|448:40|360:0,1,175,8|0,0:0|0:0,0:0:0:0:
248,56,40812,2,0,B|224:144|120:168,1,175
32,248,41384,2,0,B|88:336|216:320|240:200,2,262.5,8|0|0,0:0|0:0|0:0,0:0:0:0:
16,128,42527,1,8,0:0:0:0:
104,40,42812,1,0,0:0:0:0:
200,112,43098,2,0,B|152:208|224:304|320:296|400:224|376:144,1,350,0|8,0:0|0:0,0:0:0:0:
256,192,43812,12,4,48812,0:0:0:0:
256,352,57955,5,4,0:0:0:0:
168,264,58241,1,0,0:0:0:0:
48,256,58527,2,0,B|-16:160|80:88,1,175,8|0,0:0|0:0,0:0:0:0:
176,48,59098,2,2,B|168:120|224:168|320:184|384:104,2,262.5,2|2|0,0:0|0:0|0:0,0:0:0:0:
296,72,60241,2,0,B|240:152|312:248,1,175,4|0,0:0|0:0,0:0:0:0:
224,328,60812,1,8,0:0:0:0:
104,312,61098,1,0,0:0:0:0:
104,312,61241,2,0,B|48:240|80:144,1,175
128,88,61670,2,0,B|288:168,2,175,0|8|0,0:0|0:0|0:0,0:0:0:0:
368,40,62527,5,0,0:0:0:0:
368,160,62812,1,0,0:0:0:0:
488,200,63098,2,0,B|504:288|432:360,1,175,8|0,0:0|0:0,0:0:0:0:
312,336,63670,2,2,B|336:272|304:184|200:176|144:240,2,262.5,2|2|0,0:0|0:0|0:0,0:0:0:0:
240,312,64670,1,0,0:0:0:0:
176,352,64812,6,0,B|80:384|8:320,1,175,4|0,0:0|0:0,0:0:0:0:
72,216,65384,1,8,0:0:0:0:
8,112,65670,1,0,0:0:0:0:
80,136,65812,2,0,B|144:64|248:104,1,175,4|0,0:0|0:0,0:0:0:0:
280,160,66241,6,2,B|336:248,1,104.999996795654
304,312,66527,2,2,B|200:328,1,104.999996795654
160,264,66812,2,2,B|200:168,1,104.999996795654
232,96,67098,5,4,0:0:0:0:
120,40,67384,1,0,0:0:0:0:
32,128,67670,1,8,0:0:0:0:
144,184,67955,1,0,0:0:0:0:
88,296,68241,2,0,B|160:352|272:304,1,175,4|0,0:0|0:0,0:0:0:0:
224,240,68670,2,0,B|304:184|392:232,1,175,8|0,0:0|0:0,0:0:0:0:
440,288,69098,2,0,B|480:256|480:256|480:216,1,87.5,0|8,0:0|0:0,0:0:0:0:
480,144,69384,5,0,0:0:0:0:
400,56,69670,1,0,0:0:0:0:
280,24,69955,1,8,0:0:0:0:
160,56,70241,1,0,0:0:0:0:
160,56,70384,2,0,B|88:112|104:216,1,175,4|0,0:0|0:0,0:0:0:0:
48,256,70812,1,8,0:0:0:0:
160,304,71098,1,0,0:0:0:0:
160,304,71241,1,8,0:0:0:0:
192,232,71384,2,0,B|232:136,1,87.5,0|8,0:0|0:0,0:0:0:0:
248,80,71670,6,0,P|328:56|376:120,1,175,4|0,0:0|0:0,0:0:0:0:
472,224,72241,1,8,0:0:0:0:
336,272,72527,1,0,0:0:0:0:
224,352,72812,2,2,P|184:280|80:272,1,175,2|0,0:0|0:0,0:0:0:0:
40,304,73241,2,0,L|-16:128,1,175,8|0,0:0|0:0,0:0:0:0:
16,72,73670,2,0,P|48:40|88:32,1,87.5
136,88,73955,5,4,0:0:0:0:
272,48,74241,1,0,0:0:0:0:
240,184,74527,2,0,P|288:240|376:200,1,175,8|0,0:0|0:0,0:0:0:0:
312,168,74955,1,0,0:0:0:0:
160,312,75241,1,0,0:0:0:0:
96,344,75384,1,0,0:0:0:0:
48,288,75527,1,8,0:0:0:0:
112,256,75670,2,0,P|96:160|152:96,1,175,8|0,0:0|0:0,0:0:0:0:
464,352,76241,5,4,0:0:0:0:
344,320,76527,2,0,B|272:256|320:160,1,175,0|8,0:0|0:0,0:0:0:0:
224,88,77098,1,2,0:0:0:0:
104,48,77384,2,0,B|32:104,1,87.5
8,168,77670,2,0,B|56:240,1,87.5,0|2,0:0|0:0,0:0:0:0:
160,312,78098,1,0,0:0:0:0:
224,280,78241,1,8,0:0:0:0:
272,336,78384,1,2,0:0:0:0:
336,304,78527,5,4,0:0:0:0:
456,288,78812,1,0,0:0:0:0:
440,168,79098,1,8,0:0:0:0:
320,184,79384,1,2,0:0:0:0:
216,120,79670,2,0,B|272:48,1,87.5
216,8,79955,2,0,B|162:77,1,87.5,0|2,0:0|0:0,0:0:0:0:
48,120,80384,2,0,B|24:160|40:208,2,87.5,0|8|2,0:0|0:0|0:0,0:0:0:0:
104,168,80812,5,4,0:0:0:0:
104,288,81098,2,0,B|192:336|264:264,1,175,0|8,0:0|0:0,0:0:0:0:
368,328,81670,1,2,0:0:0:0:
440,232,81955,1,0,0:0:0:0:
400,168,82098,1,0,0:0:0:0:
440,104,82241,1,0,0:0:0:0:
400,40,82384,1,2,0:0:0:0:
296,104,82670,2,0,B|208:104,2,87.5,0|8|2,0:0|0:0|0:0,0:0:0:0:
328,168,83098,6,0,B|296:256|200:280,1,175,4|0,0:0|0:0,0:0:0:0:
96,344,83670,1,8,0:0:0:0:
88,224,83955,1,2,0:0:0:0:
32,120,84241,1,0,0:0:0:0:
72,56,84384,2,0,B|104:16|152:32,1,87.5
216,56,84670,1,2,0:0:0:0:
264,112,84812,1,0,0:0:0:0:
304,176,84955,2,0,B|336:216|384:200,1,87.5
448,176,85241,1,2,0:0:0:0:
392,128,85384,5,4,0:0:0:0:
488,272,85670,2,0,B|440:352|328:344,1,175,0|8,0:0|0:0,0:0:0:0:
272,320,86098,2,0,B|192:264|200:160,1,175
144,112,86527,2,0,B|104:96|56:104,2,87.5,0|0|0,0:0|0:0|0:0,0:0:0:0:
216,80,86955,5,2,0:0:0:0:
328,24,87241,1,0,0:0:0:0:
392,64,87384,1,0,0:0:0:0:
360,136,87527,1,2,0:0:0:0:
424,176,87670,1,4,0:0:0:0:
352,272,87955,1,0,0:0:0:0:
240,320,88241,2,0,B|144:352|80:272,2,175,8|2|0,0:0|0:0|0:0,0:0:0:0:
176,216,89098,1,0,0:0:0:0:
200,96,89384,1,2,0:0:0:0:
304,40,89670,5,0,0:0:0:0:
304,40,89812,2,0,B|312:128|416:168,1,175,4|0,0:0|0:0,0:0:0:0:
488,168,90241,1,0,0:0:0:0:
448,280,90527,2,0,B|376:336,1,87.5,8|0,0:0|0:0,0:0:0:0:
320,384,90812,2,0,B|248:304,1,87.5,2|0,0:0|0:0,0:0:0:0:
216,264,91098,1,4,0:0:0:0:
160,216,91241,1,0,0:0:0:0:
96,248,91384,1,0,0:0:0:0:
152,296,91527,1,2,0:0:0:0:
232,128,91812,1,0,0:0:0:0:
176,80,91955,1,8,0:0:0:0:
112,112,92098,1,2,0:0:0:0:
256,192,92241,12,4,96812,0:0:0:0:
32,304,105955,6,0,B|112:360|200:304,1,175,4|0,0:0|0:0,0:0:0:0:
256,264,106384,1,0,0:0:0:0:
316,306,106527,2,0,B|400:360|480:304,2,175,8|0|4,0:0|0:0|0:0,0:0:0:0:
256,144,107384,1,0,0:0:0:0:
320,32,107670,1,2,0:0:0:0:
192,32,107955,1,0,0:0:0:0:
192,32,108098,1,12,0:0:0:0:
8,80,108384,5,0,0:0:0:0:
48,144,108527,2,0,B|48:240,1,87.5
104,280,108812,2,0,B|192:280,1,87.5
256,240,109098,2,0,B|256:152,1,87.5
320,104,109384,2,0,B|408:104,1,87.5
464,144,109670,2,0,B|464:231,1,87.5
408,280,109955,2,2,B|320:280,3,87.5
256,224,110527,5,4,0:0:0:0:
216,352,110812,1,0,0:0:0:0:
176,288,110955,1,0,0:0:0:0:
136,224,111098,1,8,0:0:0:0:
256,0,111527,2,0,B|256:88,1,87.5
376,224,111955,1,0,0:0:0:0:
336,288,112098,1,0,0:0:0:0:
296,352,112241,1,8,0:0:0:0:
56,192,112670,5,0,0:0:0:0:
56,192,112812,1,4,0:0:0:0:
8,64,113098,2,0,B|184:64,1,175,0|8,0:0|0:0,0:0:0:0:
256,64,113527,1,0,0:0:0:0:
456,192,113812,5,0,0:0:0:0:
456,192,113955,1,4,0:0:0:0:
504,320,114241,2,0,B|328:320,1,175,0|8,0:0|0:0,0:0:0:0:
256,320,114670,1,0,0:0:0:0:
184,320,114812,6,0,B|96:320,1,87.5
24,320,115098,2,2,B|0:232|24:144,1,175,2|0,0:0|0:0,0:0:0:0:
112,32,115670,2,2,B|136:120|112:208,1,175,2|0,0:0|0:0,0:0:0:0:
152,264,116098,1,0,0:0:0:0:
224,248,116241,2,2,B|288:288|320:200|392:248,2,175
256,112,117098,5,0,0:0:0:0:
256,40,117241,1,6,0:0:0:0:
456,112,117670,2,0,B|520:192|456:272,1,175,0|8,0:0|0:0,0:0:0:0:
384,272,118098,2,0,B|320:192|384:112,1,175,0|0,0:0|0:0,0:0:0:0:
328,72,118527,1,4,0:0:0:0:
256,192,118812,1,0,0:0:0:0:
184,312,119098,1,8,0:0:0:0:
48,192,119384,5,0,0:0:0:0:
48,192,119527,2,2,B|-32:152|-32:80|8:8|112:24,1,262.5,2|0,0:0|0:0,0:0:0:0:
232,32,120241,2,0,B|256:72|232:120,1,87.5,8|2,0:0|0:0,0:0:0:0:
280,168,120527,2,0,B|256:208|280:256,1,87.5,0|0,0:0|0:0,0:0:0:0:
256,320,120812,1,4,0:0:0:0:
376,248,121098,1,0,0:0:0:0:
496,176,121384,1,2,0:0:0:0:
384,88,121670,5,0,0:0:0:0:
384,88,121812,2,2,B|112:88,1,262.5,2|0,0:0|0:0,0:0:0:0:
280,352,122527,2,0,B|256:312|280:264,1,87.5,8|2,0:0|0:0,0:0:0:0:
232,216,122812,2,0,B|256:176|232:128,1,87.5,0|0,0:0|0:0,0:0:0:0:
256,64,123098,1,4,0:0:0:0:
136,136,123384,1,0,0:0:0:0:
16,208,123670,1,2,0:0:0:0:
256,192,128812,12,12,132812,0:0:0:0:
48,32,133384,5,4,0:0:0:0:
168,64,133670,2,0,B|240:128|192:224,1,175,0|8,0:0|0:0,0:0:0:0:
288,296,134241,1,2,0:0:0:0:
408,336,134527,2,0,B|480:280,1,87.5
504,216,134812,2,0,B|456:144,1,87.5,0|2,0:0|0:0,0:0:0:0:
352,72,135241,1,0,0:0:0:0:
288,104,135384,1,8,0:0:0:0:
240,48,135527,1,2,0:0:0:0:
176,80,135670,5,4,0:0:0:0:
56,96,135955,1,0,0:0:0:0:
72,216,136241,1,8,0:0:0:0:
192,200,136527,1,2,0:0:0:0:
296,264,136812,2,0,B|240:336,1,87.5
296,376,137098,2,0,B|350:307,1,87.5,0|2,0:0|0:0,0:0:0:0:
464,264,137527,2,0,B|488:224|472:176,2,87.5,0|8|2,0:0|0:0|0:0,0:0:0:0:
408,216,137955,5,4,0:0:0:0:
408,96,138241,2,0,B|320:48|248:120,1,175,0|8,0:0|0:0,0:0:0:0:
144,56,138812,1,2,0:0:0:0:
72,152,139098,1,0,0:0:0:0:
112,216,139241,1,0,0:0:0:0:
72,280,139384,1,0,0:0:0:0:
112,344,139527,1,2,0:0:0:0:
216,280,139812,2,0,B|304:280,2,87.5,0|8|2,0:0|0:0|0:0,0:0:0:0:
184,216,140241,6,0,B|216:128|312:104,1,175,4|0,0:0|0:0,0:0:0:0:
416,40,140812,1,8,0:0:0:0:
424,160,141098,1,2,0:0:0:0:
480,264,141384,1,0,0:0:0:0:
440,328,141527,2,0,B|408:368|360:352,1,87.5
296,328,141812,1,2,0:0:0:0:
248,272,141955,1,0,0:0:0:0:
208,208,142098,2,0,B|176:168|128:184,1,87.5
64,208,142384,1,2,0:0:0:0:
120,256,142527,5,4,0:0:0:0:
24,112,142812,2,0,B|72:32|184:40,1,175,0|8,0:0|0:0,0:0:0:0:
240,64,143241,2,0,B|320:120|312:224,1,175
368,272,143670,2,0,B|408:288|456:280,2,87.5,0|0|0,0:0|0:0|0:0,0:0:0:0:
296,304,144098,5,2,0:0:0:0:
184,360,144384,1,0,0:0:0:0:
120,320,144527,1,8,0:0:0:0:
152,248,144670,1,2,0:0:0:0:
88,208,144812,1,4,0:0:0:0:
160,112,145098,1,0,0:0:0:0:
272,64,145384,2,0,B|368:32|432:112,2,175,8|2|0,0:0|0:0|0:0,0:0:0:0:
336,168,146241,1,0,0:0:0:0:
312,288,146527,1,2,0:0:0:0:
208,344,146812,5,0,0:0:0:0:
208,344,146955,2,0,B|200:256|96:216,1,175,4|0,0:0|0:0,0:0:0:0:
24,216,147384,1,0,0:0:0:0:
64,104,147670,2,0,B|136:48,1,87.5,8|0,0:0|0:0,0:0:0:0:
192,0,147955,2,0,B|264:80,1,87.5,2|0,0:0|0:0,0:0:0:0:
296,120,148241,1,4,0:0:0:0:
352,168,148384,1,0,0:0:0:0:
416,136,148527,1,0,0:0:0:0:
360,88,148670,1,2,0:0:0:0:
240,160,148955,5,0,0:0:0:0:
184,200,149098,1,8,0:0:0:0:
128,240,149241,1,2,0:0:0:0:
72,280,149384,2,0,B|112:360|224:368,1,175,4|0,0:0|0:0,0:0:0:0:
440,104,149955,2,0,B|400:24|288:16,1,175,8|0,0:0|0:0,0:0:0:0:
352,152,150527,5,4,0:0:0:0:
352,232,150670,1,0,0:0:0:0:
296,288,150812,1,8,0:0:0:0:
216,288,150955,1,2,0:0:0:0:
160,232,151098,1,4,0:0:0:0:
160,152,151241,1,0,0:0:0:0:
216,96,151384,1,8,0:0:0:0:
296,96,151527,1,2,0:0:0:0:
360,56,151670,6,0,B|408:8|488:24|504:88,1,175,4|0,0:0|0:0,0:0:0:0:
408,184,152241,1,8,0:0:0:0:
360,312,152527,1,2,0:0:0:0:
256,216,152812,1,4,0:0:0:0:
200,168,152955,1,0,0:0:0:0:
256,120,153098,1,0,0:0:0:0:
312,168,153241,1,2,0:0:0:0:
216,280,153527,2,0,B|256:312|296:280,2,87.5,0|8|2,0:0|0:0|0:0,0:0:0:0:
160,320,153955,5,4,0:0:0:0:
32,264,154241,1,0,0:0:0:0:
136,176,154527,1,8,0:0:0:0:
8,120,154812,1,2,0:0:0:0:
128,48,155098,2,0,B|208:8|304:24,1,175,4|0,0:0|0:0,0:0:0:0:
424,80,155670,2,2,B|328:72|256:120,1,175,2|0,0:0|0:0,0:0:0:0:
216,184,156098,2,0,B|320:184|384:248,1,175,8|0,0:0|0:0,0:0:0:0:
408,304,156527,5,4,0:0:0:0:
256,368,156812,1,8,0:0:0:0:
104,304,157098,1,2,0:0:0:0:
256,240,157384,1,4,0:0:0:0:
200,192,157527,1,0,0:0:0:0:
256,144,157670,1,0,0:0:0:0:
312,192,157812,1,2,0:0:0:0:
216,80,158098,2,0,B|256:48|296:80,2,87.5,0|8|2,0:0|0:0|0:0,0:0:0:0:
152,48,158527,5,4,0:0:0:0:
0,112,158812,2,0,B|-64:192|0:272,1,175,0|8,0:0|0:0,0:0:0:0:
112,360,159384,2,0,B|176:280|112:200,1,175,2|0,0:0|0:0,0:0:0:0:
88,128,159812,1,0,0:0:0:0:
128,64,159955,1,8,0:0:0:0:
188,24,160098,1,2,0:0:0:0:
256,8,160241,1,4,0:0:0:0:
324,24,160384,1,0,0:0:0:0:
384,64,160527,1,8,0:0:0:0:
424,128,160670,1,2,0:0:0:0:
488,152,160812,6,0,B|432:224|456:320,1,175
320,344,161384,1,8,0:0:0:0:
304,208,161670,1,2,0:0:0:0:
168,224,161955,1,4,0:0:0:0:
104,192,162098,2,0,B|64:176|40:128,1,87.5,8|0,0:0|0:0,0:0:0:0:
16,64,162384,5,2,0:0:0:0:
152,16,162670,1,0,0:0:0:0:
200,72,162812,1,8,0:0:0:0:
272,88,162955,1,2,0:0:0:0:
344,80,163098,1,4,0:0:0:0:
480,128,163384,1,0,0:0:0:0:
368,208,163670,2,0,B|288:256|312:368,2,175,8|2|0,0:0|0:0|0:0,0:0:0:0:
256,128,164527,1,0,0:0:0:0:
144,208,164812,1,2,0:0:0:0:
24,32,165241,6,0,B|88:96|192:64,1,175,8|0,0:0|0:0,0:0:0:0:
256,40,165670,1,4,0:0:0:0:
256,40,165955,1,8,0:0:0:0:
416,32,166241,1,2,0:0:0:0:
488,168,166527,1,4,0:0:0:0:
456,232,166670,1,8,0:0:0:0:
384,224,166812,1,0,0:0:0:0:
352,288,166955,1,2,0:0:0:0:
184,232,167241,2,0,B|144:208|88:216,2,87.5,0|8|2,0:0|0:0|0:0,0:0:0:0:
256,192,167670,12,12,171670,0:0:0:0:
472,32,172241,5,8,0:0:0:0:
256,352,172812,1,8,0:0:0:0:
40,32,173384,1,8,0:0:0:0:
136,184,173955,2,2,B|208:136|312:152,1,175
376,184,174384,1,6,0:0:0:0:
256,56,174812,5,0,0:0:0:0:
256,328,175098,1,0,0:0:0:0:
120,192,175384,1,0,0:0:0:0:
392,192,175670,1,0,0:0:0:0:
152,288,176241,6,2,B|224:224,1,87.5
296,152,176527,2,2,B|361:93,1,87.5
472,32,176812,5,8,0:0:0:0:
40,32,177384,1,8,0:0:0:0:
256,352,177955,1,8,0:0:0:0:
376,184,178527,2,2,B|304:136|200:152,1,175
136,184,178955,1,6,0:0:0:0:
256,56,179384,5,0,0:0:0:0:
120,192,179670,1,0,0:0:0:0:
392,192,179955,1,0,0:0:0:0:
256,328,180241,1,0,0:0:0:0:
152,96,180812,6,2,B|224:160,1,87.5,14|2,0:0|0:0,0:0:0:0:
296,232,181098,2,2,B|361:290,1,87.5
