osu file format v12

[General]
AudioFilename: 03 - Panic Station.mp3
AudioLeadIn: 0
PreviewTime: 76193
Countdown: 1
SampleSet: Normal
StackLeniency: 0.7
Mode: 0
LetterboxInBreaks: 0

[Editor]
DistanceSpacing: 0.9
BeatDivisor: 4
GridSize: 4

[Metadata]
Title:Panic Station
TitleUnicode:Panic Station
Artist:Muse
ArtistUnicode:Muse
Creator:Mashley
Version:Calm
Source:
Tags:D33d
BeatmapID:180042
BeatmapSetID:60189

[Difficulty]
HPDrainRate:2
CircleSize:2
OverallDifficulty:2
ApproachRate:3
SliderMultiplier:1.3
SliderTickRate:2

[Events]
//Background and Video events
0,0,"tumblr_m52ug4Vit31rxf2wto1_1280.png",0,0
//Break Periods
2,49012,56515
2,97012,104515
2,124249,127372
//Storyboard Layer 0 (Background)
//Storyboard Layer 1 (Fail)
//Storyboard Layer 2 (Pass)
//Storyboard Layer 3 (Foreground)
//Storyboard Sound Samples
//Background Colour Transformations
3,100,0,0,0

[TimingPoints]
812.962264150943,571.428571428571,4,1,0,100,1,0
76241,-100,4,1,0,100,0,1
92241,-100,4,1,0,100,0,0
133384,-100,4,1,0,100,0,1
151527,-100,4,1,0,100,0,0
151670,-100,4,1,0,100,0,1
167670,-100,4,1,0,100,0,0

[Colours]
Combo1 : 157,225,55
Combo2 : 208,26,26
Combo3 : 81,106,206
Combo4 : 240,87,12

[HitObjects]
72,48,9955,5,4,0:0:0:0:
48,152,10527,1,8,0:0:0:0:
136,216,11098,1,0,0:0:0:0:
368,312,12241,2,0,B|336:366|256:382|176:366|144:310,1,260,0|2,0:0|0:0,0:0:0:0:
456,336,14527,5,4,0:0:0:0:
480,232,15098,1,8,0:0:0:0:
392,168,15670,1,0,0:0:0:0:
256,24,16812,2,0,B|184:64|184:160|256:192|328:224|328:320|256:360,1,390,0|2,0:0|0:0,0:0:0:0:
176,296,19098,5,4,0:0:0:0:
96,232,19670,1,8,0:0:0:0:
16,168,20241,1,0,0:0:0:0:
144,8,21384,2,0,B|175:62|255:78|335:62|367:6,1,260
344,216,23670,6,0,B|256:288|168:216,2,195,4|0|8,0:0|0:0|0:0,0:0:0:0:
256,160,25955,1,0,0:0:0:0:
256,56,26527,1,8,0:0:0:0:
256,56,27098,1,0,0:0:0:0:
48,40,28241,6,0,B|144:56|176:160|128:248,2,260
32,144,31098,1,8,0:0:0:0:
16,248,31670,1,0,0:0:0:0:
200,344,32812,5,0,0:0:0:0:
256,256,33384,1,8,0:0:0:0:
312,168,33955,1,0,0:0:0:0:
464,40,35098,5,0,0:0:0:0:
480,144,35670,1,8,0:0:0:0:
496,248,36241,1,0,0:0:0:0:
256,352,37384,6,0,B|256:216,1,130,0|2,0:0|0:0,0:0:0:0:
200,136,38527,2,0,B|216:112|256:96|296:112|312:136,1,130,0|2,0:0|0:0,0:0:0:0:
352,40,39670,6,0,B|448:56|480:160|432:248,2,260
256,72,42527,1,8,0:0:0:0:
160,40,43098,1,0,0:0:0:0:
256,192,44241,12,4,48812,0:0:0:0:
32,104,57955,53,4,0:0:0:0:
120,48,58527,1,8,0:0:0:0:
208,104,59098,1,0,0:0:0:0:
368,248,60241,2,0,B|320:304|256:328|192:304|144:248,1,260
480,104,62527,5,4,0:0:0:0:
392,48,63098,1,8,0:0:0:0:
304,104,63670,1,0,0:0:0:0:
144,248,64812,2,0,B|192:304|256:328|320:304|368:248,2,260,0|2|4,0:0|0:0|0:0,0:0:0:0:
200,160,67670,5,8,0:0:0:0:
256,72,68241,1,0,0:0:0:0:
460,76,69384,2,0,P|510:192|460:308,1,260
256,72,71670,5,4,0:0:0:0:
312,160,72241,1,8,0:0:0:0:
368,248,72812,2,0,B|320:304|256:328|192:304|144:248,2,260
464,40,76241,6,0,B|368:56|336:160|384:248,2,260,4|0|0,0:0|0:0|0:0,0:0:0:0:
480,144,79098,1,8,0:0:0:0:
496,248,79670,1,0,0:0:0:0:
312,344,80812,5,0,0:0:0:0:
256,256,81384,1,8,0:0:0:0:
200,168,81955,1,0,0:0:0:0:
48,40,83098,5,0,0:0:0:0:
32,144,83670,1,8,0:0:0:0:
16,248,84241,1,0,0:0:0:0:
256,352,85384,6,0,B|256:216,1,130,0|2,0:0|0:0,0:0:0:0:
312,136,86527,2,0,B|296:112|256:96|216:112|200:136,1,130,0|2,0:0|0:0,0:0:0:0:
160,40,87670,6,0,B|64:56|32:160|80:248,2,260
256,72,90527,1,8,0:0:0:0:
352,40,91098,1,0,0:0:0:0:
256,192,92241,12,4,96812,0:0:0:0:
24,304,105955,53,0,0:0:0:0:
120,344,106527,1,8,0:0:0:0:
216,304,107098,1,0,0:0:0:0:
120,256,107670,2,2,B|120:128,1,97.5
200,52,108812,2,0,P|256:24|312:52,1,130,8|0,0:0|0:0,0:0:0:0:
488,304,110527,5,0,0:0:0:0:
392,344,111098,1,8,0:0:0:0:
296,304,111670,1,0,0:0:0:0:
392,256,112241,2,2,B|392:128,1,97.5
312,52,113384,2,0,P|256:24|200:52,1,130,8|0,0:0|0:0,0:0:0:0:
64,192,115098,6,2,B|32:288|88:352|192:376|272:336|288:224,1,390,6|2,0:0|0:0,0:0:0:0:
224,152,117384,2,2,B|238:48|318:8|422:32|478:96|446:192,1,390
448,296,119670,5,0,0:0:0:0:
352,336,120241,1,8,0:0:0:0:
256,296,120812,1,0,0:0:0:0:
160,336,121384,1,8,0:0:0:0:
64,296,121955,2,0,P|8:200|104:96,1,260
192,64,123670,1,8,0:0:0:0:
256,192,128812,12,12,132241,0:0:0:0:
48,344,133384,6,0,B|144:328|176:224|128:136,2,260,4|0|0,0:0|0:0|0:0,0:0:0:0:
32,240,136241,1,8,0:0:0:0:
16,136,136812,1,0,0:0:0:0:
200,40,137955,5,0,0:0:0:0:
256,128,138527,1,8,0:0:0:0:
312,216,139098,1,0,0:0:0:0:
464,344,140241,5,0,0:0:0:0:
480,240,140812,1,8,0:0:0:0:
496,136,141384,1,0,0:0:0:0:
256,32,142527,6,0,B|256:168,1,130,0|2,0:0|0:0,0:0:0:0:
200,248,143670,2,0,B|216:272|256:288|296:272|312:248,1,130,0|2,0:0|0:0,0:0:0:0:
352,344,144812,6,0,B|448:328|480:224|432:136,2,260
256,312,147670,1,8,0:0:0:0:
160,344,148241,1,0,0:0:0:0:
256,192,148812,12,4,151670,0:0:0:0:
48,288,152812,6,0,B|96:344|176:328,1,130,0|8,0:0|0:0,0:0:0:0:
200,232,153955,1,0,0:0:0:0:
144,144,154527,1,8,0:0:0:0:
208,64,155098,1,0,0:0:0:0:
312,232,156241,5,0,0:0:0:0:
368,144,156812,1,8,0:0:0:0:
304,64,157384,1,0,0:0:0:0:
160,232,158527,6,0,B|136:304|168:376|256:400|344:376|376:304|352:232,1,390,0|12,0:0|0:0,0:0:0:0:
256,232,160812,5,0,0:0:0:0:
216,152,161384,1,8,0:0:0:0:
296,104,161955,1,0,0:0:0:0:
256,24,162527,1,8,0:0:0:0:
200,96,163098,6,2,B|80:152|96:328,1,260,6|2,0:0|0:0,0:0:0:0:
204,304,164812,1,0,0:0:0:0:
312,288,165384,2,2,B|432:232|416:56,1,260
256,192,167670,12,4,171098,0:0:0:0:
72,72,172241,5,8,0:0:0:0:
72,176,172812,1,8,0:0:0:0:
72,280,173384,1,8,0:0:0:0:
256,80,174812,2,0,L|256:280,1,195
440,280,176812,5,8,0:0:0:0:
440,176,177384,1,8,0:0:0:0:
440,72,177955,1,8,0:0:0:0:
256,80,179384,2,0,L|256:280,1,195
256,368,180812,5,12,0:0:0:0:
