osu file format v7

[General]
AudioFilename: 07 MK Ultra.mp3
AudioLeadIn: 0
PreviewTime: 62111
Countdown: 0
SampleSet: Soft
StackLeniency: 1
Mode: 0
LetterboxInBreaks: 1

[Editor]
Bookmarks: 49724,62111,136240,148821
DistanceSpacing: 1.10000002384186
BeatDivisor: 4
GridSize: 8

[Metadata]
Title:MK Ultra
Artist:Muse
Creator:DJ KRZY
Version:Wembley
Source:
Tags:Matthew Bellamy Christopher Wolstenholme Dominic Howard samiljul Resistance

[Difficulty]
HPDrainRate:6
CircleSize:4
OverallDifficulty:8
SliderMultiplier:1.5
SliderTickRate:1

[Events]
//Background and Video events
0,0,"Background.jpg"
//Break Periods
2,49930,61367
2,136640,148077
//Storyboard Layer 0 (Background)
//Storyboard Layer 1 (Fail)
//Storyboard Layer 2 (Pass)
//Storyboard Layer 3 (Foreground)
//Storyboard Sound Samples
//Background Colour Transformations
3,100,163,162,255

[TimingPoints]
182,387.096774193548,4,2,1,70,1,0
62111,-100,4,2,1,70,0,1
80692,-100,4,2,1,70,0,0
173595,-100,4,2,1,70,0,1
192175,-100,4,2,1,70,0,0

[Colours]
Combo1 : 255,150,0
Combo2 : 5,240,5
Combo3 : 5,5,240
Combo4 : 240,5,5

[HitObjects]
256,192,6375,12,0,12181
160,96,12569,5,4
200,168,12762,1,0
120,168,12956,2,8,B|32:168|32:168,1,75,8|0
72,248,13343,1,0
152,248,13536,2,8,B|232:248|232:248,1,75,8|0
312,248,13923,1,0
392,248,14117,5,0
432,176,14311,1,0
352,176,14504,2,8,B|272:176|272:176,1,75,8|0
240,104,14891,1,0
320,104,15085,2,8,B|400:104|400:104,1,75,8|0
432,176,15472,1,0
432,256,15665,5,4
352,256,15859,1,0
272,256,16052,2,8,B|216:184|216:184,1,75,8|0
224,112,16440,1,0
184,40,16633,2,8,B|96:40|96:40,1,75,8|0
64,112,17020,1,0
146,112,17214,5,0
104,184,17407,1,0
186,184,17601,2,8,B|186:272|186:272,1,75,8|0
268,259,17988,1,0
268,176,18181,2,8,B|268:96|268:96,1,75,8|0
351,101,18569,1,0
351,183,18762,5,4
424,144,18956,1,0
424,226,19149,2,8,B|360:290|360:290,1,75,8|0
288,279,19536,1,0
205,279,19730,2,8,B|205:199|205:199,1,75,8|0
122,204,20117,1,0
160,128,20311,5,0
240,128,20504,1,0
288,200,20698,2,8,B|288:280|288:280,1,75,8|0
368,272,21085,1,0
426,213,21278,2,8,B|482:149|482:149,1,75,8|0
475,73,21665,1,0
392,73,21859,5,4
309,73,22052,1,0
352,144,22246,2,8,B|264:144,1,75,8|0
224,208,22633,1,0
168,272,22827,2,8,B|88:272,1,75,8|0
48,208,23214,1,0
96,136,23407,5,0
176,136,23601,1,0
258,136,23794,2,8,B|258:56|258:56,1,75,8|0
340,61,24181,1,8
422,61,24375,1,8
422,143,24569,1,8
416,184,24665,1,8
392,216,24762,1,8
360,240,24859,1,8
320,256,24956,1,4
184,64,25923,5,0
264,64,26117,1,0
344,64,26311,1,0
460,180,26698,1,0
343,296,27085,1,0
178,296,27472,1,0
61,179,27859,1,0
119,120,28052,5,0
120,120,28149,1,0
120,120,28246,1,0
120,120,28440,1,8
202,120,28633,1,0
160,48,28827,1,0
240,48,29020,5,0
356,164,29407,1,0
356,328,29794,1,0
191,328,30181,1,0
112,328,30375,1,0
32,328,30569,1,0
148,211,30956,1,0
230,211,31149,5,0
272,200,31246,1,0
304,176,31343,1,0
304,93,31536,1,8
221,93,31730,1,0
152,136,31923,1,0
104,72,32117,1,0
176,24,32311,1,0
256,24,32504,5,0
496,192,32891,1,0
256,368,33278,1,0
16,192,33665,1,0
256,16,34052,5,0
496,192,34440,1,0
256,368,34827,1,0
16,192,35214,1,0
256,16,35601,1,0
336,40,35794,5,0
280,96,35988,1,0
328,160,36181,1,8
248,176,36375,1,0
168,152,36569,1,0
192,232,36762,1,0
216,264,36859,1,0
256,280,36956,1,0
296,280,37052,1,0
336,264,37149,1,0
400,216,37343,1,4
96,272,38311,5,0
96,189,38504,1,0
128,112,38698,2,0,B|160:40|160:40,1,75
241,43,39085,2,0,B|329:43|329:43,1,75,0|8
398,43,39472,1,0
398,207,39859,1,0
281,323,40246,1,0
200,320,40440,5,0
200,320,40536,1,0
158,320,40633,1,0
116,320,40730,1,0
117,320,40827,1,8
117,237,41020,1,0
199,237,41214,1,0
272,280,41407,1,0
354,280,41601,1,0
424,328,41794,5,0
424,163,42181,1,0
307,46,42569,1,0
144,72,42956,1,0
56,208,43343,1,0
120,264,43536,5,0
136,304,43633,1,0
178,322,43730,1,0
260,322,43923,1,8
304,304,44020,1,0
320,264,44117,1,0
320,181,44311,1,0
261,122,44504,1,0
202,63,44698,1,0
119,63,44891,5,0
416,64,45278,1,0
120,128,45665,1,0
416,128,46052,1,0
120,192,46440,1,0
416,192,46827,1,0
120,256,47214,1,0
416,256,47601,1,0
160,96,47988,1,0
88,136,48181,5,0
160,176,48375,1,0
208,240,48569,1,8
264,304,48762,1,0
320,240,48956,1,0
368,176,49149,1,8
320,112,49343,5,0
290,82,49440,1,0
261,53,49536,1,0
231,82,49633,1,0
201,111,49730,1,4
144,80,62117,6,0,B|184:80|184:80,2,37.5,8|0|0
144,162,62504,1,8
288,80,62891,2,0,B|328:80|328:80,2,37.5,8|0|0
288,162,63278,1,8
392,288,63665,5,8
352,296,63762,1,0
312,288,63859,1,0
232,264,64052,1,8
192,256,64149,1,0
160,232,64246,1,0
152,152,64440,1,8
160,112,64536,1,0
184,80,64633,1,0
224,64,64730,1,0
264,56,64827,1,8
344,64,65020,1,0
424,192,65214,6,0,B|424:136|424:136,2,37.5,8|0|0
341,192,65601,1,8
176,192,65988,2,0,B|176:136,2,37.5,8|0|0
93,192,66375,1,8
192,64,66762,5,8
232,56,66859,1,0
272,64,66956,1,0
330,122,67149,1,8
344,160,67246,1,0
328,200,67343,1,0
269,258,67536,1,8
239,287,67633,1,0
268,316,67730,1,0
309,316,67827,1,0
349,316,67923,1,8
407,257,68117,1,0
465,198,68311,5,12
176,112,68698,1,8
464,40,69085,1,8
176,112,69472,1,8
388,324,69859,1,8
88,324,70246,1,8
88,24,70633,1,8
384,32,71020,1,8
256,136,71407,5,8
256,136,71504,1,0
256,136,71601,1,0
296,208,71794,1,8
296,208,71891,1,0
296,208,71988,1,0
216,208,72182,1,8
176,208,72278,1,0
136,208,72375,1,0
136,128,72569,1,8
136,88,72665,1,0
136,48,72762,1,0
216,64,72956,5,8
296,64,73149,1,0
216,64,73343,1,8
296,64,73536,1,4
376,48,73730,1,0
376,88,73827,1,0
376,128,73923,1,0
376,208,74117,1,12
320,280,74311,1,0
240,312,74504,6,0,B|160:312|160:312,1,75,12|0
80,312,74891,2,0,B|72:232|72:232,1,75,12|0
64,152,75278,2,0,B|88:56|88:56,1,75,12|0
160,48,75665,2,0,B|240:48,1,75,12|0
320,56,76052,2,0,B|384:104|384:104,1,75,12|0
424,168,76440,2,0,B|424:248|424:248,1,75,12|0
384,312,76827,2,0,B|296:320|296:320,1,75,12|0
224,320,77214,2,0,B|144:312|144:312,1,75,12|0
112,240,77601,6,8,B|240:136|240:136,3,150,12|8|8|8
228,145,79149,2,8,B|380:137|380:137,3,150,0|0|0|0
408,304,80698,5,2
408,80,81085,1,2
408,304,81472,1,2
296,304,81665,1,0
184,304,81859,1,2
64,112,82246,2,2,B|160:80|248:80|312:120,1,225,2|0
312,216,83020,1,2
424,192,83214,1,0
408,80,83407,1,2
408,304,83794,5,2
408,80,84182,1,2
408,304,84569,1,2
296,304,84762,1,0
184,304,84956,1,2
64,112,85343,2,2,B|160:80|248:80|312:120,1,225,2|0
392,80,86117,1,2
424,192,86311,1,0
320,224,86504,1,2
104,304,86891,5,2
104,80,87278,1,2
104,304,87665,1,2
216,304,87859,1,0
328,304,88052,1,2
448,112,88440,2,2,B|352:80|264:80|200:120,1,225,2|0
200,216,89214,1,2
88,192,89407,1,0
104,80,89601,1,2
104,304,89988,5,2
104,80,90375,1,2
104,304,90762,1,2
216,304,90956,1,0
328,304,91149,1,2
448,112,91536,2,2,B|352:80|264:80|200:120,1,225,2|0
104,80,92311,1,2
88,192,92504,1,0
200,216,92698,1,2
24,360,93085,5,6
248,360,93472,1,2
472,360,93859,2,2,B|376:360|376:360,1,75,2|0
248,360,94246,1,2
392,192,94633,2,2,B|368:64|216:80,1,225,2|0
120,40,95407,1,2
72,144,95601,1,0
176,192,95794,1,2
24,360,96182,5,2
248,360,96569,1,2
472,360,96956,2,0,B|376:360|376:360,1,75,2|0
248,360,97343,1,2
392,192,97730,2,2,B|368:64|216:80,1,225,2|0
120,120,98504,1,2
184,208,98698,1,0
288,256,98891,1,2
488,360,99278,5,2
264,360,99665,1,2
40,360,100052,2,2,B|136:360|136:360,1,75,2|0
264,360,100440,1,2
120,192,100827,2,2,B|144:64|296:80,1,225,2|0
392,40,101601,1,2
440,144,101794,1,0
336,192,101988,1,2
488,360,102375,5,2
264,360,102762,1,2
40,360,103149,2,2,B|136:360|136:360,1,75,2|0
264,360,103536,1,2
120,192,103923,2,2,B|144:64|296:80,1,225,0|0
384,16,104698,1,10
448,112,104891,1,0
352,176,105085,1,2
296,328,105472,5,4
128,328,105859,1,0
128,160,106246,1,8
128,160,106440,2,0,B|224:160|224:160,1,75,0|0
368,160,107020,2,0,B|440:208|328:264|424:296,2,150,0|0|8
304,104,107988,1,0
232,56,108182,1,0
96,144,108569,5,0
96,312,108956,1,0
264,312,109343,1,8
264,312,109536,2,0,B|264:224|264:224,1,75
408,152,110117,2,0,B|336:104|448:48|352:16,2,150,0|0|8
440,232,111085,1,0
392,304,111278,1,0
224,304,111665,5,0
56,304,112052,1,0
64,136,112440,1,8
64,136,112633,2,0,B|144:136|144:136,1,75,0|0
304,120,113214,2,0,B|352:48|408:160|440:64,2,150,0|0|8
288,200,114182,1,0
320,280,114375,1,0
416,144,114762,5,0
272,64,115149,1,0
168,192,115536,1,8
168,192,115730,2,0,B|232:248,1,75,0|0
368,320,116311,2,0,B|416:392|472:280|504:376,2,150,0|0|8
309,261,117278,1,0
288,184,117472,1,0
200,320,117859,5,0
200,320,118246,1,0
316,203,118633,1,8
374,261,118827,2,0,B|448:184|448:184,1,75,0|0
424,40,119407,2,0,B|400:88|336:96|208:72,1,225,0|0
216,72,120182,2,0,B|192:24|128:16,1,75,8|0
160,24,120569,1,0
104,264,120956,5,0
104,264,121343,1,0
200,128,121730,1,8
258,186,121923,2,0,B|346:186|346:186,1,75,0|0
449,302,122504,2,0,B|425:350|361:358|224:336,1,225,0|0
240,339,123278,2,0,B|200:283|152:283,1,75,8|0
184,291,123665,1,0
256,192,124052,12,0,127149
80,88,128698,5,4
248,88,129085,1,4
376,192,129472,1,12
296,192,129665,1,0
128,192,130052,1,4
208,192,130246,5,0
208,72,130536,1,0
208,72,130633,1,8
128,56,130827,1,0
80,120,131020,1,0
64,160,131117,1,0
80,200,131214,1,8
136,256,131407,1,0
216,256,131601,1,8
296,256,131794,5,0
328,136,132085,1,0
328,136,132182,1,8
368,64,132375,1,0
408,136,132569,1,0
424,176,132665,1,0
408,216,132762,1,8
352,280,132956,1,0
272,280,133149,1,12
192,280,133343,5,0
68,280,133633,1,0
64,240,133730,1,8
144,200,133923,1,0
128,120,134117,1,0
160,88,134214,1,0
192,56,134311,1,8
272,56,134504,1,0
344,104,134698,1,8
392,176,134891,5,0
392,299,135182,1,0
392,257,135278,1,8
309,257,135472,1,0
232,248,135665,1,0
200,224,135762,1,0
192,184,135859,1,8
248,128,136052,1,0
312,72,136246,1,12
312,72,136440,1,0
72,80,148827,6,0,B|144:112,1,75,6|0
223,110,149214,2,0,B|295:78,1,75,6|0
376,80,149601,1,8
408,112,149698,1,8
424,152,149794,1,8
424,232,149988,1,8
408,272,150085,1,8
376,296,150182,1,8
293,296,150375,6,0,B|221:328,1,75,6|0
141,326,150762,2,0,B|69:294,1,75,6|0
24,232,151149,1,8
8,192,151246,1,8
24,152,151343,1,8
64,80,151536,1,8
72,40,151633,1,8
104,16,151730,1,0
186,16,151923,6,0,B|258:48,1,75,6|0
337,46,152311,2,0,B|409:14,1,75,6|0
448,88,152698,1,8
464,128,152794,1,8
480,168,152891,1,8
496,208,152988,1,0
480,248,153085,1,8
464,288,153182,1,8
448,328,153278,1,8
368,344,153472,6,0,B|296:312,1,75,4|0
217,314,153859,2,0,B|145:346,1,75,4|0
106,272,154246,1,8
112,232,154343,1,8
120,192,154440,1,8
120,152,154536,1,0
120,112,154633,1,8
128,72,154730,1,8
144,32,154827,1,8
240,0,155020,6,0,B|288:0,3,37.5,12|0|0|0
320,0,155407,2,0,B|360:24,3,37.5,8|0|0|0
384,40,155794,2,0,B|424:80,3,37.5,8|0|0|0
440,96,156182,2,0,B|464:144,3,37.5,8|0|0|0
464,168,156569,6,0,B|464:216,3,37.5,8|0|0|0
456,248,156956,2,0,B|432:288,3,37.5,8|0|0|0
416,312,157343,2,0,B|376:352,3,37.5,8|0|0|0
352,360,157730,2,0,B|304:384,3,37.5,8|0|0|0
280,376,158117,6,0,B|232:376,3,37.5,8|0|8|0
200,376,158504,2,0,B|160:352,3,37.5,8|0|8|0
136,336,158891,2,0,B|96:296,3,37.5,8|0|8|0
80,280,159278,2,0,B|56:232,3,37.5,8|0|8|0
40,208,159665,5,8
48,168,159762,1,8
72,136,159859,1,0
104,112,159956,1,0
144,104,160052,1,0
184,112,160149,1,0
216,136,160246,1,8
240,168,160343,1,8
256,208,160440,1,0
240,248,160536,1,0
216,280,160633,1,0
184,304,160730,1,0
168,344,160827,1,8
200,376,160923,1,8
240,384,161020,1,0
280,376,161117,1,0
296,344,161214,5,4
368,296,161407,1,0
368,216,161601,2,8,B|456:216|456:216,1,75,8|0
416,136,161988,1,0
336,136,162182,2,8,B|256:136|256:136,1,75,8|0
176,136,162569,1,0
96,136,162762,5,0
56,208,162956,1,0
136,208,163149,2,8,B|216:208|216:208,1,75,8|0
248,280,163536,1,0
168,280,163730,2,8,B|88:280|88:280,1,75,8|0
56,208,164117,1,0
56,128,164311,5,4
136,128,164504,1,0
216,128,164698,2,8,B|272:200|272:200,1,75,8|0
263,271,165085,1,0
304,344,165278,2,8,B|392:344|392:344,1,75,8|0
424,272,165665,1,0
342,272,165859,5,0
384,200,166052,1,0
302,200,166246,2,8,B|302:112|302:112,1,75,8|0
220,125,166633,1,0
220,208,166827,2,8,B|220:288|220:288,1,75,8|0
137,283,167214,1,0
137,201,167407,5,4
64,240,167601,1,0
64,158,167794,2,8,B|128:94|128:94,1,75,8|0
200,105,168182,1,0
283,105,168375,2,8,B|283:185|283:185,1,75,8|0
366,180,168762,1,0
328,256,168956,5,0
248,256,169149,1,0
200,184,169343,2,8,B|200:104|200:104,1,75,8|0
120,112,169730,1,0
62,171,169923,2,8,B|6:235|6:235,1,75,8|0
13,311,170311,1,0
96,311,170504,5,4
179,311,170698,1,0
136,240,170891,2,8,B|224:240,1,75,8|0
264,176,171278,1,0
320,112,171472,2,8,B|400:112,1,75,8|0
440,176,171859,1,0
392,248,172052,5,0
312,248,172246,1,0
230,248,172440,2,8,B|230:328|230:328,1,75,8|0
148,323,172827,1,0
66,323,173020,1,8
66,241,173214,1,8
72,200,173311,1,8
96,168,173407,1,8
128,144,173504,1,8
168,144,173601,6,0,B|208:144|208:144,2,37.5,8|2|2
168,224,173988,1,8
288,336,174375,2,0,B|328:336|328:336,2,37.5,8|2|2
285,259,174762,1,8
401,142,175149,5,8
384,104,175246,1,0
352,80,175343,1,0
269,80,175536,1,8
232,96,175633,1,0
200,128,175730,1,0
165,202,175923,1,8
165,242,176020,1,0
184,280,176117,1,0
208,312,176214,1,0
248,328,176311,1,8
248,328,176504,1,0
330,328,176698,6,0,B|330:272|330:272,2,37.5,10|0|0
412,328,177085,1,8
412,163,177472,2,0,B|412:219,2,37.5,8|2|2
329,163,177859,1,8
212,46,178246,5,8
176,56,178343,1,0
144,88,178440,1,0
144,170,178633,1,8
160,208,178730,1,0
192,240,178827,1,0
274,240,179020,1,8
312,232,179117,1,0
344,208,179214,1,0
368,176,179311,1,0
376,136,179407,1,8
376,136,179601,1,0
465,186,179794,5,12
176,272,180182,1,8
464,344,180569,1,8
176,272,180956,1,8
388,60,181343,1,8
88,60,181730,1,8
88,360,182117,1,8
384,352,182504,1,8
264,240,182891,5,8
304,240,182988,1,0
344,240,183085,1,0
424,240,183278,1,8
424,200,183375,1,0
424,160,183472,1,0
360,112,183665,1,8
328,136,183762,1,0
296,160,183859,1,0
216,168,184052,1,8
176,168,184149,1,0
136,168,184246,1,0
136,88,184440,5,8
194,29,184633,1,0
252,87,184827,1,8
310,28,185020,1,4
392,28,185214,1,0
392,69,185311,1,0
392,109,185407,1,0
392,191,185601,1,12
333,249,185794,1,0
274,307,185988,6,0,B|194:307|194:307,1,75,12|0
116,307,186375,2,0,B|108:227|108:227,1,75,12|0
108,149,186762,2,0,B|132:53|132:53,1,75,12|0
208,76,187149,2,0,B|288:76,1,75,12|0
365,76,187536,2,0,B|429:124|429:124,1,75,12|0
425,204,187923,2,0,B|425:284|425:284,1,75,12|0
366,337,188311,2,0,B|278:345|278:345,1,75,12|0
208,343,188698,2,0,B|128:335|128:335,1,75,12|0
133,252,189085,6,8,B|29:124|29:124,3,150,12|8|8|8
155,18,190633,2,8,B|307:26|307:26,2,150
155,100,191601,1,8
184,129,191698,1,8
212,157,191794,1,8
240,184,191891,1,8
270,215,191988,1,8
299,244,192085,1,8
327,272,192182,1,12
