osu file format v13

[General]
AudioFilename: 08 - Hysteria.mp3
AudioLeadIn: 0
PreviewTime: 62059
Countdown: 1
SampleSet: Normal
StackLeniency: 0.7
Mode: 0
LetterboxInBreaks: 0
WidescreenStoryboard: 0

[Editor]
DistanceSpacing: 1.4
BeatDivisor: 4
GridSize: 4
TimelineZoom: 1

[Metadata]
Title:Hysteria
TitleUnicode:Hysteria
Artist:Muse
ArtistUnicode:Muse
Creator:Moway
Version:Insane
Source:
Tags:absolution lanturn unitedwesin uws pkhg
BeatmapID:218946
BeatmapSetID:78185

[Difficulty]
HPDrainRate:6
CircleSize:4
OverallDifficulty:8
ApproachRate:9
SliderMultiplier:2.8
SliderTickRate:1

[Events]
//Background and Video events
0,0,"bg.jpg",0,0
//Break Periods
2,83837,93343
2,135367,144873
//Storyboard Layer 0 (Background)
//Storyboard Layer 1 (Fail)
//Storyboard Layer 2 (Pass)
//Storyboard Layer 3 (Foreground)
//Storyboard Sound Samples
//Background Colour Transformations
3,100,163,162,255

[TimingPoints]
21802,644.122383252818,4,1,1,80,1,0
42413,-100,4,1,1,40,0,0
60449,-100,4,1,1,80,0,0
63025,-80,4,1,1,90,0,1
83637,-100,4,1,1,90,0,0
93943,-100,4,1,1,60,0,0
94587,-100,4,1,1,40,0,0
103605,-100,4,1,1,50,0,0
104249,-100,4,1,1,40,0,0
111979,-100,4,1,1,80,0,0
114555,-80,4,1,1,90,0,1
135167,-100,4,1,1,90,0,0
145473,-100,4,1,1,60,0,0
163508,-100,4,1,1,75,0,0
166085,-80,4,1,1,80,0,0
186697,-80,4,1,1,90,0,1
207309,-80,4,1,1,90,0,0

[Colours]
Combo1 : 138,197,255
Combo2 : 174,255,255
Combo3 : 255,255,157
Combo4 : 202,255,202

[HitObjects]
104,312,21801,6,0,P|172:328|240:312,1,140,4|0,0:0|0:0,0:0:0:0:
408,76,22446,2,0,P|340:60|272:76,1,140,8|0,0:0|0:0,0:0:0:0:
124,120,23090,2,0,B|137:157|137:157|176:197|176:197|193:239,1,140,0|0,0:0|0:0,0:0:0:0:
192,238,23573,2,0,L|132:288,1,70,0|8,0:0|0:0,0:0:0:0:
388,264,24056,1,0,0:0:0:0:
256,120,24378,6,0,B|184:120|184:120|160:96|120:92,1,140,0|0,0:0|0:0,0:0:0:0:
256,264,25022,2,0,B|328:264|328:264|352:288|392:292,1,140,8|0,0:0|0:0,0:0:0:0:
124,196,25666,2,0,P|104:264|128:328,1,140
127,326,26149,2,0,L|198:327,1,70,0|8,0:0|0:0,0:0:0:0:
384,326,26632,1,0,0:0:0:0:
396,76,26954,6,0,B|360:64|328:76|292:88|256:76,1,140,0|0,0:0|0:0,0:0:0:0:
116,308,27599,2,0,B|152:320|184:308|220:296|256:308,1,140,8|0,0:0|0:0,0:0:0:0:
396,76,28243,2,0,B|383:113|383:113|344:153|344:153|327:195,1,140,0|0,0:0|0:0,0:0:0:0:
327,194,28726,2,0,L|256:194,1,70,0|8,0:0|0:0,0:0:0:0:
132,36,29209,1,0,0:0:0:0:
72,280,29531,6,0,B|124:328|124:328|156:316|192:332,1,140
440,280,30175,2,0,B|388:328|388:328|356:316|320:332,1,140,8|0,0:0|0:0,0:0:0:0:
256,88,30819,2,0,L|256:236,1,140
168,68,31463,5,8,0:0:0:0:
344,68,31624,1,8,0:0:0:0:
204,172,31785,1,8,0:0:0:0:
256,4,31946,1,8,0:0:0:0:
308,172,32107,6,0,B|360:224|360:224|432:244,1,140,4|0,0:0|0:0,0:0:0:0:
204,212,32752,2,0,B|152:160|152:160|80:140,1,140,8|0,0:0|0:0,0:0:0:0:
340,276,33396,2,0,B|396:232|396:232|396:164,1,140
396,163,33879,2,0,L|452:120,1,70,0|8,0:0|0:0,0:0:0:0:
256,16,34362,1,0,0:0:0:0:
116,163,34684,6,0,B|108:208|76:216|76:216|96:248|76:284,1,140
396,163,35328,2,0,B|404:208|436:216|436:216|416:248|436:284,1,140,8|0,0:0|0:0,0:0:0:0:
208,124,35972,2,0,B|244:120|256:80|256:80|268:120|304:124,1,140
304,124,36455,2,0,L|376:124,1,70,0|8,0:0|0:0,0:0:0:0:
256,352,36938,1,0,0:0:0:0:
116,187,37260,6,0,P|140:127|212:127,1,140
396,187,37905,2,0,P|372:127|300:127,1,140,8|0,0:0|0:0,0:0:0:0:
224,296,38549,2,0,B|256:358|256:358|288:296,1,140
288,295,39032,2,0,L|316:228,1,70,0|8,0:0|0:0,0:0:0:0:
256,16,39515,1,0,0:0:0:0:
160,188,39837,6,0,B|108:188|84:236|84:236|32:236,1,140
352,188,40481,2,0,B|404:188|428:236|428:236|480:236,1,140,8|0,0:0|0:0,0:0:0:0:
112,304,41125,1,0,0:0:0:0:
400,304,41447,1,0,0:0:0:0:
256,56,41769,2,8,L|256:128,1,70,0|0,0:0|0:0,0:0:0:0:
256,328,42091,2,8,L|256:256,1,70
200,192,42413,6,0,P|136:172|68:192,1,140,4|0,0:0|0:0,0:0:0:0:
188,328,43058,2,0,L|260:328,1,70,8|0,0:0|0:0,0:0:0:0:
328,328,43380,2,0,P|356:264|328:204,1,140
192,104,44024,1,0,0:0:0:0:
56,204,44346,2,0,L|0:248,2,70,8|0|0,0:0|0:0|0:0,0:0:0:0:
212,264,44990,6,0,B|260:264|260:264|304:284|304:284|348:284,1,140
488,192,45634,2,0,L|512:124,1,70,8|0,0:0|0:0,0:0:0:0:
464,76,45956,2,0,B|416:76|416:76|372:96|372:96|328:96,1,140
160,92,46600,1,0,0:0:0:0:
56,224,46922,2,0,L|32:296,2,70,8|0|0,0:0|0:0|0:0,0:0:0:0:
212,284,47566,6,0,B|256:316|300:284|300:284|344:284,1,140
488,200,48211,2,0,L|488:128,1,70,8|0,0:0|0:0,0:0:0:0:
448,72,48533,2,0,B|448:144|448:144|400:192,1,140
236,236,49177,1,0,0:0:0:0:
84,160,49499,2,0,L|84:88,2,70,8|0|0,0:0|0:0|0:0,0:0:0:0:
180,296,50143,6,0,B|209:323|241:320|241:320|248:354|281:378,1,140,0|0,0:0|0:0,0:0:0:0:
432,304,50787,2,0,L|484:256,1,70,8|0,0:0|0:0,0:0:0:0:
496,188,51109,2,0,B|500:128|452:104|452:104|404:104,1,140
256,44,51753,1,0,0:0:0:0:
156,180,52075,5,8,0:0:0:0:
208,260,52236,1,8,0:0:0:0:
304,260,52397,1,8,0:0:0:0:
356,180,52558,1,8,0:0:0:0:
304,96,52719,6,0,B|264:96|264:96|256:104|256:104|208:104|208:104|200:112|200:112|164:112,1,140,4|0,0:0|0:0,0:0:0:0:
40,216,53363,2,0,L|60:284,1,70,8|0,0:0|0:0,0:0:0:0:
84,348,53686,2,0,B|132:348|132:348|168:324|168:324|220:324,1,140
372,260,54330,1,0,0:0:0:0:
408,96,54652,2,0,L|408:24,2,70,8|0|0,0:0|0:0|0:0,0:0:0:0:
244,140,55296,6,0,B|176:140|176:140|116:192,1,140
268,268,55940,2,0,L|340:268,1,70,8|0,0:0|0:0,0:0:0:0:
400,268,56262,2,0,B|420:232|472:232|472:232|472:168,1,140
384,24,56906,1,0,0:0:0:0:
256,132,57228,2,0,L|256:208,2,70,8|0|0,0:0|0:0|0:0,0:0:0:0:
88,112,57872,6,0,P|48:160|88:216,1,140
252,240,58516,2,0,L|324:240,1,70,8|0,0:0|0:0,0:0:0:0:
392,240,58839,2,0,B|432:280|432:280|520:280,1,140
512,112,59483,1,0,0:0:0:0:
356,52,59805,2,0,L|284:52,2,70,8|0|0,0:0|0:0|0:0,0:0:0:0:
256,284,60449,5,12,0:0:0:0:
176,308,60610,1,0,0:0:0:0:
236,368,60771,1,0,0:0:0:0:
348,348,60932,5,8,0:0:0:0:
356,236,61093,1,0,0:0:0:0:
256,284,61254,1,0,0:0:0:0:
136,244,61415,5,8,0:0:0:0:
152,120,61576,1,0,0:0:0:0:
256,196,61737,5,8,0:0:0:0:
360,120,61898,1,0,0:0:0:0:
256,48,62059,1,0,0:0:0:0:
152,120,62220,1,8,0:0:0:0:
256,284,62381,5,0,0:0:0:0:
360,120,62542,1,8,0:0:0:0:
152,120,62703,1,0,0:0:0:0:
404,252,63025,6,0,P|340:320|252:324,1,175,4|0,0:0|0:0,0:0:0:0:
144,288,63508,1,0,0:0:0:0:
72,188,63669,2,0,P|44:153|7:131,2,87.5,8|0|0,0:0|0:0|0:0,0:0:0:0:
192,220,64153,2,0,P|272:184|288:104,1,175
228,20,64636,2,0,P|212:60|208:104,1,87.5
344,208,64958,2,0,P|360:168|364:124,1,87.5,8|0,0:0|0:0,0:0:0:0:
260,264,65280,2,0,P|288:292|332:312,1,87.5
440,200,65602,6,0,P|364:152|280:152,1,175,0|0,0:0|0:0,0:0:0:0:
164,184,66085,1,0,0:0:0:0:
76,272,66246,2,0,P|68:316|80:360,2,87.5,8|0|0,0:0|0:0|0:0,0:0:0:0:
200,268,66729,2,0,P|256:200|232:120,1,175
148,36,67212,2,0,P|104:36|68:60,1,87.5
0,160,67534,1,8,0:0:0:0:
80,252,67695,1,0,0:0:0:0:
200,268,67856,1,0,0:0:0:0:
316,224,68017,1,0,0:0:0:0:
396,132,68178,6,0,P|399:89|396:44,1,87.5,4|0,0:0|0:0,0:0:0:0:
228,100,68500,2,0,P|224:142|228:188,1,87.5,0|0,0:0|0:0,0:0:0:0:
296,308,68822,2,0,P|216:348|128:332,1,175,8|0,0:0|0:0,0:0:0:0:
12,268,69306,1,0,0:0:0:0:
124,184,69467,2,0,P|204:144|285:156,1,175
400,200,69950,1,0,0:0:0:0:
472,300,70111,1,8,0:0:0:0:
376,380,70272,1,0,0:0:0:0:
304,280,70433,1,0,0:0:0:0:
496,200,70594,1,0,0:0:0:0:
304,280,70755,6,0,P|220:268|176:196,1,175,0|0,0:0|0:0,0:0:0:0:
156,76,71238,1,0,0:0:0:0:
280,76,71399,2,0,P|324:76|364:48,2,87.5,8|0|0,0:0|0:0|0:0,0:0:0:0:
156,76,71882,2,0,P|72:100|16:180,1,175
24,276,72365,2,0,P|64:284|108:312,1,87.5
208,376,72687,5,8,0:0:0:0:
384,360,72848,1,8,0:0:0:0:
420,188,73009,1,8,0:0:0:0:
76,116,73331,6,0,P|136:180|224:184,1,175,4|0,0:0|0:0,0:0:0:0:
336,144,73814,1,0,0:0:0:0:
424,56,73975,2,0,P|444:16|484:0,2,87.5,8|0|0,0:0|0:0|0:0,0:0:0:0:
464,172,74459,2,0,P|492:256|456:332,1,175
320,344,74942,2,0,L|224:328,1,87.5
108,208,75264,2,0,L|194:222,1,87.5,8|0,0:0|0:0,0:0:0:0:
88,80,75586,2,0,L|1:65,1,87.5
204,48,75908,6,0,P|272:104|248:180,1,175,0|0,0:0|0:0,0:0:0:0:
148,240,76391,1,0,0:0:0:0:
236,328,76552,2,0,P|273:350|320:356,2,87.5,8|0|0,0:0|0:0|0:0,0:0:0:0:
336,256,77035,2,0,P|424:236|484:180,1,175
456,60,77518,2,0,P|416:72|384:104,1,87.5
284,176,77840,1,8,0:0:0:0:
268,316,78001,1,0,0:0:0:0:
400,272,78162,1,0,0:0:0:0:
284,176,78323,1,0,0:0:0:0:
148,140,78484,6,0,P|64:152|0:220,1,175,4|0,0:0|0:0,0:0:0:0:
56,324,78967,1,0,0:0:0:0:
176,336,79128,2,0,P|216:332|252:304,1,87.5,8|0,0:0|0:0,0:0:0:0:
316,140,79450,2,0,P|276:144|240:172,1,87.5
408,228,79773,2,0,P|448:148|420:68,1,175
284,40,80256,2,0,P|199:43|108:40,1,175
24,152,80739,2,0,L|64:232,1,87.5
165,315,81061,5,0,0:0:0:0:
315,271,81222,1,0,0:0:0:0:
166,219,81383,1,8,0:0:0:0:
255,348,81544,1,0,0:0:0:0:
256,192,81705,2,0,L|256:104,2,87.5,8|0|8,0:0|0:0|0:0,0:0:0:0:
372,156,82188,6,0,L|432:92,1,87.5,8|0,0:0|0:0,0:0:0:0:
140,156,82510,2,0,L|80:92,1,87.5,8|0,0:0|0:0,0:0:0:0:
216,328,82832,2,0,P|256:343|296:328,1,87.5,8|0,0:0|0:0,0:0:0:0:
372,156,83154,1,0,0:0:0:0:
140,156,83315,1,8,0:0:0:0:
256,268,83476,1,8,0:0:0:0:
256,44,83637,5,4,0:0:0:0:
404,248,93943,6,0,L|252:248,1,140
96,248,94587,5,8,0:0:0:0:
96,248,94748,1,0,0:0:0:0:
44,180,94909,1,0,0:0:0:0:
44,180,95070,1,0,0:0:0:0:
112,132,95231,2,0,L|172:92,1,70
248,124,95554,2,0,L|318:138,1,70
364,208,95876,1,8,0:0:0:0:
428,284,96037,1,0,0:0:0:0:
352,348,96198,1,0,0:0:0:0:
288,272,96359,1,0,0:0:0:0:
208,296,96520,6,0,L|140:308,1,70
80,248,96842,2,0,L|12:212,1,70
56,140,97164,1,8,0:0:0:0:
132,180,97325,1,0,0:0:0:0:
212,156,97486,1,0,0:0:0:0:
292,128,97647,2,0,L|360:100,1,70
344,200,97969,2,0,L|279:226,1,70
360,280,98291,2,0,L|428:252,1,70,0|8,0:0|0:0,0:0:0:0:
480,188,98613,2,0,L|480:116,2,70
480,316,99096,6,0,L|415:342,1,70
332,360,99418,2,0,L|272:316,1,70
216,260,99740,2,0,L|236:188,1,70,8|0,0:0|0:0,0:0:0:0:
172,136,100062,2,0,L|153:203,1,70
116,280,100384,1,0,0:0:0:0:
164,348,100545,1,0,0:0:0:0:
248,348,100706,2,0,L|296:296,1,70
320,216,101029,1,8,0:0:0:0:
324,132,101190,1,0,0:0:0:0:
404,104,101351,2,0,L|396:176,1,70
432,252,101673,6,0,L|368:280,1,70
284,292,101995,2,0,L|228:236,1,70
176,180,102317,1,8,0:0:0:0:
192,96,102478,1,0,0:0:0:0:
112,68,102639,2,0,L|40:80,1,70
7,171,102961,2,0,L|76:159,1,70
129,241,103283,2,0,L|57:253,1,70
102,341,103605,5,8,0:0:0:0:
114,341,103766,1,8,0:0:0:0:
126,341,103927,1,8,0:0:0:0:
138,341,104088,1,8,0:0:0:0:
150,341,104249,6,0,L|222:341,1,70,4|0,0:0|0:0,0:0:0:0:
252,248,104571,2,0,L|328:248,1,70
408,248,104893,1,8,0:0:0:0:
472,196,105054,1,0,0:0:0:0:
464,112,105215,2,0,L|388:148,1,70
340,84,105537,1,0,0:0:0:0:
272,132,105698,1,0,0:0:0:0:
296,212,105859,1,0,0:0:0:0:
380,224,106021,1,0,0:0:0:0:
336,296,106182,2,8,L|268:312,1,70
192,276,106504,2,0,L|141:219,1,70
88,160,106826,6,0,L|24:212,1,70
12,124,107148,2,0,L|66:79,1,70,0|0,0:0|0:0,0:0:0:0:
140,36,107470,1,8,0:0:0:0:
212,76,107631,1,0,0:0:0:0:
284,36,107792,1,0,0:0:0:0:
368,36,107953,2,0,L|440:36,1,70
480,108,108275,2,0,L|410:108,1,70
324,108,108597,2,0,L|254:108,1,70,0|8,0:0|0:0,0:0:0:0:
168,108,108919,2,0,L|98:108,2,70
216,180,109402,5,0,0:0:0:0:
216,180,109563,1,0,0:0:0:0:
240,260,109724,2,0,L|260:340,1,70
336,360,110046,2,0,L|408:344,1,70,8|0,0:0|0:0,0:0:0:0:
460,280,110368,2,0,L|443:212,1,70
440,128,110690,2,0,L|512:112,2,70
372,180,111173,2,0,L|300:196,2,70,0|8|0,0:0|0:0|0:0,0:0:0:0:
352,96,111657,2,0,L|283:111,1,70
200,128,111979,5,12,0:0:0:0:
144,208,112140,1,0,0:0:0:0:
224,264,112301,1,0,0:0:0:0:
280,184,112462,5,8,0:0:0:0:
236,316,112623,1,0,0:0:0:0:
372,352,112784,1,0,0:0:0:0:
404,216,112945,5,8,0:0:0:0:
268,256,113106,1,0,0:0:0:0:
372,352,113267,1,0,0:0:0:0:
404,216,113428,5,8,0:0:0:0:
256,40,113589,1,0,0:0:0:0:
108,216,113750,1,0,0:0:0:0:
404,216,113911,2,0,L|480:216,2,70,8|0|8,0:0|0:0|0:0,0:0:0:0:
96,76,114555,6,0,P|179:91|240:154,1,175,4|0,0:0|0:0,0:0:0:0:
276,272,115038,1,0,0:0:0:0:
176,344,115199,2,0,P|136:360|84:352,2,87.5,8|0|0,0:0|0:0|0:0,0:0:0:0:
276,272,115682,2,0,P|360:240|452:248,1,175
376,348,116165,2,0,P|332:352|280:348,1,87.5
340,172,116487,2,0,P|384:168|436:172,1,87.5,8|0,0:0|0:0,0:0:0:0:
276,272,116810,2,0,P|242:241|230:201,1,87.5
338,17,117132,6,0,P|374:97|338:173,1,175,0|0,0:0|0:0,0:0:0:0:
224,212,117615,1,0,0:0:0:0:
104,188,117776,2,0,L|8:188,2,87.5,8|0|0,0:0|0:0|0:0,0:0:0:0:
208,124,118259,2,0,P|284:148|312:232,1,175
184,292,118742,2,0,P|148:268|132:228,1,87.5
112,108,119064,1,8,0:0:0:0:
232,8,119225,1,0,0:0:0:0:
384,48,119386,2,0,P|420:72|444:116,1,87.5
320,208,119708,6,0,P|232:228|160:292,1,175,4|0,0:0|0:0,0:0:0:0:
92,376,120191,1,0,0:0:0:0:
36,268,120352,2,0,L|8:184,1,87.5,8|0,0:0|0:0,0:0:0:0:
56,32,120674,2,0,L|83:115,1,87.5,0|0,0:0|0:0,0:0:0:0:
204,104,120996,2,0,P|292:104|372:144,1,175
472,212,121479,2,0,L|428:300,1,87.5,0|8,0:0|0:0,0:0:0:0:
328,352,121802,1,0,0:0:0:0:
256,252,121963,1,0,0:0:0:0:
184,352,122124,1,0,0:0:0:0:
68,308,122285,6,0,P|0:244|8:168,1,175
88,76,122768,1,0,0:0:0:0:
212,80,122929,2,0,P|256:84|300:108,2,87.5,8|0|0,0:0|0:0|0:0,0:0:0:0:
140,180,123412,2,0,P|216:228|308:224,1,175
420,160,123895,2,0,P|439:118|436:76,1,87.5
304,28,124217,5,8,0:0:0:0:
128,36,124378,1,8,0:0:0:0:
64,200,124539,1,8,0:0:0:0:
404,284,124861,6,0,P|436:200|400:128,1,175,4|0,0:0|0:0,0:0:0:0:
280,104,125344,1,0,0:0:0:0:
160,136,125505,2,0,P|140:168|144:216,2,87.5,8|0|0,0:0|0:0|0:0,0:0:0:0:
264,200,125988,2,0,P|348:226|428:200,1,175
512,72,126471,2,0,P|464:72|420:92,1,87.5
308,112,126793,2,0,P|261:99|230:76,1,87.5,8|0,0:0|0:0,0:0:0:0:
116,28,127116,2,0,P|69:40|32:71,1,87.5
136,140,127438,6,0,P|184:216|180:300,1,175
52,368,127921,1,0,0:0:0:0:
20,248,128082,2,0,P|52:220|96:216,1,87.5,8|0,0:0|0:0,0:0:0:0:
216,240,128404,1,0,0:0:0:0:
320,304,128565,2,0,P|404:328|480:292,1,175
488,168,129048,2,0,L|468:80,1,87.5
308,8,129370,2,0,L|327:93,1,87.5,8|0,0:0|0:0,0:0:0:0:
196,208,129692,2,0,L|176:120,1,87.5
24,32,130014,6,0,P|-8:108|20:196,1,175,4|0,0:0|0:0,0:0:0:0:
112,276,130497,1,0,0:0:0:0:
228,320,130658,1,8,0:0:0:0:
344,288,130819,1,0,0:0:0:0:
424,196,130980,1,0,0:0:0:0:
396,76,131141,2,0,P|312:104|260:176,1,175
300,288,131624,2,0,P|324:256|340:204,1,87.5
224,76,131946,2,0,P|200:108|184:160,1,87.5,8|0,0:0|0:0,0:0:0:0:
392,135,132268,2,0,L|304:135,1,87.5
96,136,132591,5,0,0:0:0:0:
36,300,132752,2,0,P|120:328|208:312,1,175,0|0,0:0|0:0,0:0:0:0:
256,200,133235,2,0,L|256:112,1,87.5,8|0,0:0|0:0,0:0:0:0:
348,28,133557,5,8,0:0:0:0:
164,112,133718,1,8,0:0:0:0:
364,144,133879,1,8,0:0:0:0:
224,0,134040,1,8,0:0:0:0:
256,200,134201,1,8,0:0:0:0:
348,28,134362,1,8,0:0:0:0:
172,192,134523,2,4,P|256:315|340:192,1,350,8|4,0:0|0:0,0:0:0:0:
208,152,145473,6,0,L|208:224,1,70,4|0,0:0|0:0,0:0:0:0:
304,222,145795,2,0,L|304:152,1,70
172,200,146117,6,0,L|220:254,1,70,8|0,0:0|0:0,0:0:0:0:
340,184,146439,2,0,L|291:129,1,70
220,280,146761,6,0,L|292:280,1,70
292,104,147083,2,0,L|222:104,1,70
296,304,147405,6,0,L|346:253,1,70,8|0,0:0|0:0,0:0:0:0:
216,80,147727,2,0,L|165:130,1,70,0|0,0:0|0:0,0:0:0:0:
112,264,148049,6,0,L|164:316,1,70
328,336,148372,2,0,L|380:284,1,70
400,120,148694,6,0,L|348:68,1,70,8|0,0:0|0:0,0:0:0:0:
184,48,149016,2,0,L|132:100,1,70
205,344,149338,6,0,L|278:344,1,70
408,242,149660,2,0,L|408:169,1,70
306,39,149982,6,0,L|233:39,1,70,8|0,0:0|0:0,0:0:0:0:
103,141,150304,2,0,L|103:214,1,70
296,152,150626,6,0,P|328:137|349:109,1,70
216,151,150948,2,0,P|201:119|173:98,1,70
215,231,151270,6,0,P|183:246|162:274,1,70,8|0,0:0|0:0,0:0:0:0:
295,232,151592,2,0,P|310:264|338:285,1,70
341,101,151914,6,0,P|313:120|296:152,1,70
165,106,152236,2,0,P|184:134|216:151,1,70
170,282,152558,6,0,P|198:263|215:231,1,70,8|0,0:0|0:0,0:0:0:0:
346,277,152880,2,0,P|327:249|295:232,1,70
166,105,153202,6,0,L|115:51,1,70
346,105,153525,2,0,L|396:51,1,70
166,279,153847,6,0,L|115:332,1,70,8|0,0:0|0:0,0:0:0:0:
346,279,154169,2,0,L|396:332,1,70
256,32,154491,6,0,L|256:104,1,70
256,352,154813,2,0,L|256:280,1,70
256,102,155135,5,8,0:0:0:0:
166,192,155296,1,8,0:0:0:0:
256,282,155457,1,8,0:0:0:0:
346,192,155618,1,8,0:0:0:0:
256,102,155779,6,0,L|187:102,1,70,4|0,0:0|0:0,0:0:0:0:
256,282,156101,2,0,L|325:282,1,70,0|0,0:0|0:0,0:0:0:0:
256,72,156423,6,0,L|184:72,1,70,8|0,0:0|0:0,0:0:0:0:
256,312,156745,2,0,L|328:312,1,70
256,44,157067,6,0,L|184:44,1,70
256,340,157389,2,0,L|328:340,1,70
176,120,157711,5,8,0:0:0:0:
336,264,157872,1,0,0:0:0:0:
336,120,158033,1,0,0:0:0:0:
176,264,158194,1,0,0:0:0:0:
176,120,158355,6,0,L|176:48,1,70
336,264,158678,2,0,L|336:340,1,70
106,264,159000,6,0,L|176:264,1,70,8|0,0:0|0:0,0:0:0:0:
406,120,159322,2,0,L|336:120,1,70
176,50,159644,6,0,L|176:120,1,70
336,334,159966,2,0,L|336:264,1,70
256,76,160288,5,8,0:0:0:0:
140,192,160449,1,0,0:0:0:0:
256,308,160610,1,0,0:0:0:0:
372,192,160771,1,0,0:0:0:0:
176,120,160932,6,0,P|144:103|125:75,1,70
340,120,161254,2,0,P|357:88|385:69,1,70
336,264,161576,6,0,P|368:281|387:309,1,70,8|0,0:0|0:0,0:0:0:0:
176,264,161898,2,0,P|159:296|131:315,1,70
134,69,162220,6,0,P|161:89|176:121,1,70
393,79,162542,2,0,P|372:106|340:121,1,70,0|0,0:0|0:0,0:0:0:0:
379,317,162864,6,0,P|351:296|336:264,1,70,8|0,0:0|0:0,0:0:0:0:
125,306,163186,2,0,P|145:278|177:263,1,70
332,235,163508,5,4,0:0:0:0:
456,172,163669,1,0,0:0:0:0:
316,160,163830,1,0,0:0:0:0:
424,248,163992,1,0,0:0:0:0:
396,112,164153,5,12,0:0:0:0:
240,48,164314,1,0,0:0:0:0:
320,196,164475,1,0,0:0:0:0:
344,28,164636,1,0,0:0:0:0:
229,152,164797,5,12,0:0:0:0:
260,348,164958,1,0,0:0:0:0:
360,176,165119,1,0,0:0:0:0:
184,268,165280,1,0,0:0:0:0:
380,296,165441,5,12,0:0:0:0:
256,82,165602,1,0,0:0:0:0:
132,296,165763,1,8,0:0:0:0:
336,68,166085,6,0,P|256:38|176:68,1,175,4|0,0:0|0:0,0:0:0:0:
76,140,166568,1,0,0:0:0:0:
68,264,166729,2,0,P|45:303|4:317,2,87.5,8|0|0,0:0|0:0|0:0,0:0:0:0:
168,192,167212,2,0,P|256:184|336:224,1,175
428,324,167695,2,0,P|340:332|260:292,1,175,0|8,0:0|0:0,0:0:0:0:
168,192,168178,1,0,0:0:0:0:
280,112,168339,2,0,P|300:156|300:200,1,87.5
168,192,168661,6,0,P|128:104|152:32,2,175,0|0|8,0:0|0:0|0:0,0:0:0:0:
256,280,169467,1,0,0:0:0:0:
376,260,169628,1,0,0:0:0:0:
452,164,169789,2,0,P|384:108|296:108,1,175
224,204,170272,2,0,P|270:197|316:184,1,87.5
344,12,170594,2,0,P|297:18|252:32,1,87.5,8|0,0:0|0:0,0:0:0:0:
144,72,170916,2,0,P|120:104|96:144,1,87.5
32,252,171238,6,0,P|120:288|176:352,2,175,0|0|8,0:0|0:0|0:0,0:0:0:0:
152,184,172043,1,0,0:0:0:0:
192,48,172204,1,0,0:0:0:0:
152,184,172365,2,0,P|212:248|296:240,1,175
376,148,172848,2,0,L|284:148,1,87.5
364,268,173170,2,0,L|456:268,1,87.5,8|0,0:0|0:0,0:0:0:0:
324,76,173492,2,0,L|232:76,1,87.5
120,116,173814,6,0,P|80:188|120:264,2,175,0|0|8,0:0|0:0|0:0,0:0:0:0:
232,32,174620,1,0,0:0:0:0:
372,44,174781,1,0,0:0:0:0:
464,148,174942,2,0,P|380:184|296:164,1,175
188,120,175425,5,8,0:0:0:0:
37,34,175586,1,8,0:0:0:0:
111,190,175747,1,8,0:0:0:0:
148,18,175908,1,8,0:0:0:0:
16,127,176069,1,8,0:0:0:0:
388,320,176391,6,0,P|436:248|412:164,1,175,4|0,0:0|0:0,0:0:0:0:
308,104,176874,1,0,0:0:0:0:
188,120,177035,2,0,P|144:132|96:128,2,87.5,8|0|0,0:0|0:0|0:0,0:0:0:0:
252,224,177518,2,0,P|168:252|76:244,1,175
36,112,178001,2,0,L|12:204,1,87.5
136,96,178323,2,0,L|158:11,1,87.5,8|0,0:0|0:0,0:0:0:0:
276,36,178645,2,0,P|320:36|368:52,1,87.5
448,128,178967,6,0,P|464:208|400:268,2,175,0|0|8,0:0|0:0|0:0,0:0:0:0:
340,36,179773,1,0,0:0:0:0:
200,56,179934,1,0,0:0:0:0:
168,192,180095,2,0,P|216:268|292:300,1,175
352,176,180578,2,0,L|260:176,1,87.5
128,284,180900,2,0,P|124:328|128:376,1,87.5,8|0,0:0|0:0,0:0:0:0:
256,104,181222,2,0,P|260:60|256:12,1,87.5
256,288,181544,6,0,P|336:316|420:288,1,175,0|0,0:0|0:0,0:0:0:0:
492,192,182027,1,0,0:0:0:0:
456,76,182188,2,0,P|428:40|384:28,2,87.5,8|0|0,0:0|0:0|0:0,0:0:0:0:
344,124,182671,2,0,L|168:124,1,175
56,76,183154,2,0,P|84:40|128:28,2,87.5,0|0|8,0:0|0:0|0:0,0:0:0:0:
120,240,183637,2,0,P|137:282|125:326,2,87.5
232,108,184120,6,0,P|316:88|404:108,1,175,4|0,0:0|0:0,0:0:0:0:
512,192,184603,1,0,0:0:0:0:
401,277,184764,2,0,P|316:296|232:276,1,175,12|8,0:0|0:0,0:0:0:0:
88,192,185248,5,8,0:0:0:0:
232,108,185409,1,12,0:0:0:0:
231,275,185570,1,8,0:0:0:0:
136,140,185731,1,8,0:0:0:0:
296,192,185892,1,8,0:0:0:0:
136,244,186053,1,12,0:0:0:0:
232,108,186214,1,8,0:0:0:0:
231,275,186375,1,12,0:0:0:0:
136,140,186536,1,8,0:0:0:0:
268,36,186697,6,0,P|352:44|416:116,1,175,4|0,0:0|0:0,0:0:0:0:
440,224,187180,1,0,0:0:0:0:
368,324,187341,2,0,P|328:336|288:364,2,87.5,8|0|0,0:0|0:0|0:0,0:0:0:0:
288,232,187824,2,0,P|200:224|132:168,1,175
184,44,188307,2,0,L|268:88,1,87.5
196,332,188629,2,0,L|112:288,1,87.5,8|0,0:0|0:0,0:0:0:0:
264,192,188951,2,0,L|352:192,1,87.5
413,313,189273,6,0,P|329:333|245:313,1,175
156,228,189756,1,0,0:0:0:0:
96,120,189917,1,8,0:0:0:0:
180,28,190078,1,0,0:0:0:0:
288,84,190240,1,0,0:0:0:0:
336,196,190401,2,0,P|312:288|244:324,1,175
92,300,190884,2,0,L|40:224,1,87.5
64,72,191206,2,0,L|113:144,1,87.5,8|0,0:0|0:0,0:0:0:0:
268,112,191528,2,0,L|216:36,1,87.5
376,28,191850,6,0,P|464:52|500:124,1,175,4|0,0:0|0:0,0:0:0:0:
480,244,192333,1,0,0:0:0:0:
356,244,192494,2,0,P|260:244|196:292,1,175,8|0,0:0|0:0,0:0:0:0:
108,372,192977,1,0,0:0:0:0:
64,256,193138,2,0,L|32:172,1,87.5,0|0,0:0|0:0,0:0:0:0:
212,28,193460,2,0,L|300:28,1,87.5
479,174,193782,2,0,L|448:256,1,87.5,8|0,0:0|0:0,0:0:0:0:
256,356,194104,2,0,L|256:268,1,87.5
112,76,194426,6,0,P|80:152|116:232,1,175
256,268,194909,1,0,0:0:0:0:
392,236,195070,2,0,P|436:217|468:192,1,87.5,8|0,0:0|0:0,0:0:0:0:
504,60,195392,1,0,0:0:0:0:
364,76,195554,2,0,P|296:136|312:216,1,175
368,336,196037,2,0,L|280:336,1,87.5
140,324,196359,5,8,0:0:0:0:
0,156,196520,1,8,0:0:0:0:
184,40,196681,1,8,0:0:0:0:
504,200,197003,6,0,P|424:240|340:224,1,175,4|0,0:0|0:0,0:0:0:0:
208,192,197486,1,0,0:0:0:0:
104,96,197647,2,0,P|80:64|76:16,2,87.5,8|0|0,0:0|0:0|0:0,0:0:0:0:
208,192,198130,2,0,P|232:276|188:352,1,175
64,288,198613,2,0,L|-8:220,1,87.5
96,124,198935,2,0,P|188:108|252:60,1,175,8|0,0:0|0:0,0:0:0:0:
392,48,199418,1,0,0:0:0:0:
468,164,199579,6,0,P|484:248|424:316,1,175
292,324,200062,1,0,0:0:0:0:
164,268,200223,2,0,L|72:268,2,87.5,8|0|0,0:0|0:0|0:0,0:0:0:0:
260,168,200706,2,0,P|168:172|96:132,1,175
72,16,201190,2,0,L|164:16,1,87.5
440,16,201512,2,0,L|348:16,1,87.5,8|0,0:0|0:0,0:0:0:0:
256,76,201834,1,0,0:0:0:0:
180,192,201995,1,0,0:0:0:0:
256,308,202156,6,0,P|299:302|344:308,1,87.5,4|0,0:0|0:0,0:0:0:0:
140,192,202478,2,0,P|145:235|140:280,1,87.5
256,76,202800,2,0,P|212:81|168:76,1,87.5,8|0,0:0|0:0,0:0:0:0:
372,192,203122,2,0,P|366:148|372:104,1,87.5
460,256,203444,2,0,P|380:284|296:256,1,175
52,128,203927,2,0,P|132:100|216:128,1,175
256,296,204410,2,0,L|256:384,1,87.5
384,120,204732,5,4,0:0:0:0:
128,120,204893,2,0,P|96:200|128:280,1,175,0|0,0:0|0:0,0:0:0:0:
384,204,205376,2,0,P|396:164|384:120,1,87.5,8|0,0:0|0:0,0:0:0:0:
108,36,205698,5,8,0:0:0:0:
256,128,205859,1,8,0:0:0:0:
96,204,206021,1,8,0:0:0:0:
108,36,206182,1,8,0:0:0:0:
256,128,206343,1,8,0:0:0:0:
256,304,206504,1,8,0:0:0:0:
172,132,206665,2,0,P|256:9|340:132,1,350,8|4,0:0|0:0,0:0:0:0:
312,252,207470,5,0,0:0:0:0:
188,244,207631,2,0,L|100:244,1,87.5
40,140,207953,2,0,L|0:60,1,87.5,8|0,0:0|0:0,0:0:0:0:
116,24,208275,1,0,0:0:0:0:
212,104,208436,2,0,L|300:104,1,87.5
396,24,208758,1,0,0:0:0:0:
511,61,208919,2,0,L|472:140,1,87.5
408,244,209241,1,8,0:0:0:0:
328,336,209402,1,0,0:0:0:0:
284,220,209563,2,0,L|284:132,1,87.5
180,64,209885,6,0,L|96:96,1,87.5
28,200,210207,2,0,L|104:256,1,87.5
216,224,210529,2,0,L|308:196,1,87.5,8|0,0:0|0:0,0:0:0:0:
416,232,210851,1,0,0:0:0:0:
324,312,211012,2,0,L|240:337,1,87.5
124,304,211335,2,0,L|98:220,2,87.5
216,224,211818,1,8,0:0:0:0:
152,120,211979,1,0,0:0:0:0:
228,24,212140,1,0,0:0:0:0:
344,60,212301,1,0,0:0:0:0:
344,184,212462,6,0,L|336:272,1,87.5,0|0,0:0|0:0,0:0:0:0:
228,332,212784,2,0,L|136:344,1,87.5
56,256,213106,2,0,L|20:176,1,87.5,8|0,0:0|0:0,0:0:0:0:
100,84,213428,1,0,0:0:0:0:
212,132,213589,2,0,L|132:168,1,87.5
240,224,213911,2,0,L|320:188,2,87.5
236,348,214394,2,0,L|153:316,2,87.5,8|0|0,0:0|0:0|0:0,0:0:0:0:
356,328,214877,1,0,0:0:0:0:
416,224,215038,6,0,L|432:136,1,87.5
360,40,215360,2,0,L|344:126,1,87.5
288,236,215682,2,0,L|192:248,1,87.5,8|0,0:0|0:0,0:0:0:0:
80,260,216004,1,0,0:0:0:0:
36,144,216165,2,0,L|104:80,1,87.5
188,172,216487,2,0,L|100:184,2,87.5
304,208,216971,1,8,0:0:0:0:
380,112,217132,1,0,0:0:0:0:
264,76,217293,1,0,0:0:0:0:
188,172,217454,1,0,0:0:0:0:
212,292,217615,6,0,L|240:376,1,87.5,4|0,0:0|0:0,0:0:0:0:
332,292,217937,2,0,L|304:208,1,87.5
188,172,218259,2,0,L|92:172,2,87.5,8|0|0,0:0|0:0|0:0,0:0:0:0:
264,76,218742,2,0,L|352:76,1,87.5
472,76,219064,1,0,0:0:0:0:
512,192,219225,1,0,0:0:0:0:
472,308,219386,1,0,0:0:0:0:
352,280,219547,2,0,L|264:256,1,87.5,8|0,0:0|0:0,0:0:0:0:
148,228,219869,2,0,L|104:304,2,87.5
208,120,220352,5,0,0:0:0:0:
364,120,220513,2,0,L|456:120,1,87.5,8|0,0:0|0:0,0:0:0:0:
328,244,220835,5,0,0:0:0:0:
172,244,220996,2,0,L|80:244,2,87.5,0|8|0,0:0|0:0|0:0,0:0:0:0:
328,244,221479,5,0,0:0:0:0:
184,148,221640,1,8,0:0:0:0:
340,72,221802,1,0,0:0:0:0:
328,328,221963,5,0,0:0:0:0:
204,104,222124,1,8,0:0:0:0:
440,204,222285,1,0,0:0:0:0:
188,252,222446,5,8,0:0:0:0:
340,72,222607,1,0,0:0:0:0:
420,292,222768,1,4,0:0:0:0:
