osu file format v12

[General]
AudioFilename: Nano & Vin - PONPONPON.mp3
AudioLeadIn: 0
PreviewTime: 26083
Countdown: 0
SampleSet: Soft
StackLeniency: 0.7
Mode: 0
LetterboxInBreaks: 1
WidescreenStoryboard: 0

[Editor]
Bookmarks: 64490,77290
DistanceSpacing: 1
BeatDivisor: 4
GridSize: 4

[Metadata]
Title:PONPONPON
TitleUnicode:PONPONPON
Artist:MuryukoP ft. Nano & Vin
ArtistUnicode:MuryukoP ft. Nano & Vin
Creator:Lexi-chan-
Version:Insane
Source:
Tags:
BeatmapID:376906
BeatmapSetID:153305

[Difficulty]
HPDrainRate:6
CircleSize:4
OverallDifficulty:5
ApproachRate:8
SliderMultiplier:1.6
SliderTickRate:1

[Events]
//Background and Video events
0,0,"black-rock-shooter-hd-2880x1800.jpg",0,0
//Break Periods
2,64690,76540
//Storyboard Layer 0 (Background)
//Storyboard Layer 1 (Fail)
//Storyboard Layer 2 (Pass)
//Storyboard Layer 3 (Foreground)
//Storyboard Sound Samples
//Background Colour Transformations
3,100,163,162,255

[TimingPoints]
13290,400,4,2,0,100,1,0
19690,-100,4,2,1,100,0,0
20890,-95.2380952380952,4,2,1,100,0,0
22490,-90.9090909090909,4,2,1,100,0,0
26090,-83.3333333333333,4,2,1,100,0,1
51690,-83.3333333333333,4,2,1,100,0,0
90090,-133.333333333333,4,2,1,100,0,0
96490,-111.111111111111,4,2,1,100,0,0
99690,-100,4,2,1,100,0,0
102890,-200,4,2,1,50,0,0
128490,-133.333333333333,4,2,1,70,0,0
141290,-66.6666666666667,4,2,1,90,0,1
154090,-76.9230769230769,4,2,1,90,0,0

[HitObjects]
84,152,13290,1,0,0:0:0:0:
160,64,13490,1,0,0:0:0:0:
260,128,13690,2,0,P|344:152|432:140,1,160,8|0,0:0|0:0,0:0:0:0:
428,56,14290,2,0,P|460:20|496:16,1,80,0|8,0:0|0:0,0:0:0:0:
436,248,14690,2,0,B|352:240|296:192|288:180,1,160
176,128,15290,1,8,0:0:0:0:
32,168,15490,1,0,0:0:0:0:
120,56,15690,1,0,0:0:0:0:
76,240,15890,1,0,0:0:0:0:
280,248,16090,6,0,L|216:200,1,80,8|0,0:0|0:0,0:0:0:0:
268,344,16490,2,0,L|360:320,1,80
188,264,16890,2,0,L|144:344,2,80,8|0|0,0:0|0:0|0:0,0:0:0:0:
340,196,17490,1,0,0:0:0:0:
184,80,17690,1,8,0:0:0:0:
340,196,17890,2,0,P|252:264|112:240,1,240,0|8,0:0|0:0,0:0:0:0:
196,112,18690,2,0,L|224:188,1,80
374,268,19090,2,0,L|340:196,2,80,0|8|0,0:0|0:0|0:0,0:0:0:0:
208,232,19690,6,0,L|132:296|132:296,1,80,8|0,0:0|0:0,0:0:0:0:
256,140,20090,2,0,L|256:56,1,80,8|0,0:0|0:0,0:0:0:0:
304,232,20490,2,0,L|380:296|380:296,1,80,8|0,0:0|0:0,0:0:0:0:
180,192,20890,6,0,P|128:204|80:180,1,83.9999974365235,8|0,0:0|0:0,0:0:0:0:
256,116,21290,2,0,P|244:64|268:16,1,83.9999974365235,8|0,0:0|0:0,0:0:0:0:
332,191,21690,2,0,P|384:179|432:204,1,83.9999974365235,8|0,0:0|0:0,0:0:0:0:
256,268,22090,2,0,P|268:320|244:368,1,83.9999974365235,8|0,0:0|0:0,0:0:0:0:
120,76,22490,6,0,L|196:136|196:136,1,88.000002685547,8|8,0:0|0:0,0:0:0:0:
400,300,22890,2,0,L|324:240|324:240,1,88.000002685547,8|8,0:0|0:0,0:0:0:0:
320,128,23290,2,0,L|380:52|380:52,1,88.000002685547,8|8,0:0|0:0,0:0:0:0:
192,256,23690,2,0,L|132:332|132:332,1,88.000002685547,8|8,0:0|0:0,0:0:0:0:
120,136,24090,2,0,P|176:128|232:148,1,88.000002685547,8|8,0:0|0:0,0:0:0:0:
256,192,24490,12,4,26090,0:0:0:0:
92,148,26290,5,0,0:0:0:0:
92,148,26490,2,0,P|168:120|176:96,1,95.9999970703126,8|0,0:0|0:0,0:0:0:0:
284,144,26890,1,0,0:0:0:0:
352,40,27090,1,0,0:0:0:0:
360,276,27290,2,0,P|252:292|192:228,1,191.999994140625,8|0,0:0|0:0,0:0:0:0:
148,112,27890,5,0,0:0:0:0:
104,272,28090,1,8,0:0:0:0:
264,108,28290,1,0,0:0:0:0:
32,200,28490,1,0,0:0:0:0:
204,256,28690,1,0,0:0:0:0:
72,52,28890,1,8,0:0:0:0:
180,40,29090,5,8,0:0:0:0:
264,108,29290,2,0,L|368:164,1,95.9999970703126
320,348,29690,2,0,L|284:252,1,95.9999970703126,8|0,0:0|0:0,0:0:0:0:
176,188,30090,2,0,P|204:128|192:88,1,95.9999970703126
100,252,30490,2,0,P|116:312|152:332,1,95.9999970703126,8|0,0:0|0:0,0:0:0:0:
64,152,30890,2,0,P|16:132|-32:156,1,95.9999970703126
140,80,31290,5,8,0:0:0:0:
360,116,31490,1,0,0:0:0:0:
140,80,31690,1,0,0:0:0:0:
200,272,31890,1,0,0:0:0:0:
140,80,32090,1,8,0:0:0:0:
52,272,32290,1,8,0:0:0:0:
200,196,32490,6,0,P|272:240|232:344,1,191.999994140625,0|8,0:0|0:0,0:0:0:0:
144,296,33090,1,0,0:0:0:0:
368,204,33290,1,0,0:0:0:0:
140,80,33490,1,0,0:0:0:0:
140,80,33690,2,0,L|44:36,1,95.9999970703126,8|0,0:0|0:0,0:0:0:0:
124,192,34090,5,0,0:0:0:0:
388,192,34290,1,0,0:0:0:0:
184,320,34490,1,8,0:0:0:0:
256,80,34690,1,0,0:0:0:0:
328,320,34890,1,0,0:0:0:0:
104,316,35090,1,0,0:0:0:0:
404,320,35290,1,8,0:0:0:0:
388,192,35490,6,8,L|416:148,1,47.9999985351563
388,192,35690,2,0,P|320:184|192:192,1,191.999994140625,0|8,0:0|0:0,0:0:0:0:
84,228,36290,1,0,0:0:0:0:
208,104,36490,2,0,P|256:88|284:44,1,95.9999970703126
340,288,36890,2,0,P|284:304|256:344,1,95.9999970703126,8|0,0:0|0:0,0:0:0:0:
112,144,37290,6,0,L|76:52,1,95.9999970703126
188,252,37690,2,0,L|236:352,1,95.9999970703126,8|0,0:0|0:0,0:0:0:0:
400,144,38090,2,0,L|468:60,1,95.9999970703126
268,124,38490,1,8,0:0:0:0:
416,280,38690,1,8,0:0:0:0:
392,304,38790,1,8,0:0:0:0:
364,320,38890,1,0,0:0:0:0:
196,300,39090,6,0,L|108:256,2,95.9999970703126,0|8|0,0:0|0:0|0:0,0:0:0:0:
152,144,39690,2,0,P|104:168|88:216,1,95.9999970703126
336,276,40090,2,0,L|248:224,1,95.9999970703126,8|0,0:0|0:0,0:0:0:0:
232,108,40490,1,0,0:0:0:0:
60,96,40690,1,0,0:0:0:0:
48,92,40790,1,0,0:0:0:0:
36,88,40890,1,8,0:0:0:0:
80,256,41090,1,0,0:0:0:0:
256,200,41290,1,0,0:0:0:0:
448,260,41490,1,0,0:0:0:0:
80,256,41690,1,8,0:0:0:0:
448,260,41890,1,8,0:0:0:0:
400,176,42090,6,0,L|312:60,1,143.999995605469
260,128,42490,2,0,L|56:88,1,191.999994140625,8|0,0:0|0:0,0:0:0:0:
260,228,43090,2,0,P|272:280|252:328,1,95.9999970703126,0|8,0:0|0:0,0:0:0:0:
152,336,43490,1,0,0:0:0:0:
120,120,43690,5,0,0:0:0:0:
244,188,43890,1,0,0:0:0:0:
84,252,44090,1,8,0:0:0:0:
108,88,44290,1,0,0:0:0:0:
268,196,44490,1,0,0:0:0:0:
68,284,44690,1,0,0:0:0:0:
108,88,44890,1,8,0:0:0:0:
216,64,45090,6,0,L|316:44,1,95.9999970703126,8|0,0:0|0:0,0:0:0:0:
156,188,45490,1,0,0:0:0:0:
320,152,45690,2,0,L|436:124,1,95.9999970703126,8|0,0:0|0:0,0:0:0:0:
284,276,46090,2,0,L|204:204,1,95.9999970703126
412,256,46490,2,0,L|384:364,1,95.9999970703126,8|0,0:0|0:0,0:0:0:0:
120,184,46890,2,0,L|152:68,1,95.9999970703126
256,64,47290,5,8,0:0:0:0:
256,164,47490,1,0,0:0:0:0:
256,256,47690,1,0,0:0:0:0:
256,352,47890,1,0,0:0:0:0:
132,192,48090,1,8,0:0:0:0:
384,192,48290,1,8,0:0:0:0:
384,192,48390,1,8,0:0:0:0:
384,192,48490,1,0,0:0:0:0:
332,288,48690,5,0,0:0:0:0:
248,208,48890,2,0,P|200:176|156:172,1,95.9999970703126,8|0,0:0|0:0,0:0:0:0:
308,108,49290,2,0,P|360:152|408:160,1,95.9999970703126
244,24,49690,2,0,P|192:56|176:92,1,95.9999970703126,8|0,0:0|0:0,0:0:0:0:
112,240,50090,6,0,L|88:344,1,95.9999970703126
424,244,50490,2,0,L|448:344,1,95.9999970703126,8|0,0:0|0:0,0:0:0:0:
328,308,50890,1,8,0:0:0:0:
308,280,50990,1,0,0:0:0:0:
304,248,51090,1,8,0:0:0:0:
312,216,51190,1,0,0:0:0:0:
308,184,51290,1,8,0:0:0:0:
288,156,51390,1,0,0:0:0:0:
264,136,51490,1,8,0:0:0:0:
232,128,51590,1,0,0:0:0:0:
196,128,51690,1,8,0:0:0:0:
124,216,51890,6,0,L|68:320,2,95.9999970703126
164,344,52490,2,0,P|224:332|376:344,1,191.999994140625,8|0,0:0|0:0,0:0:0:0:
444,200,53090,2,0,P|376:248|256:244,1,191.999994140625,2|2,0:0|0:0,0:0:0:0:
184,176,53690,1,0,0:0:0:0:
68,108,53890,2,0,L|28:60,1,47.9999985351563
68,108,54090,2,0,P|156:120|280:88,1,191.999994140625,8|0,0:0|0:0,0:0:0:0:
360,72,54690,5,2,0:0:0:0:
208,24,54890,1,0,0:0:0:0:
360,72,55090,1,2,0:0:0:0:
324,196,55290,2,0,P|296:256|172:304,1,191.999994140625,0|8,0:0|0:0,0:0:0:0:
104,132,56090,1,0,0:0:0:0:
356,316,56290,2,0,P|404:264|416:216,2,95.9999970703126,2|0|0,0:0|0:0|0:0,0:0:0:0:
328,148,56890,2,0,P|404:144|452:160,1,95.9999970703126
284,252,57290,2,0,P|232:200|212:128,1,143.999995605469,8|0,0:0|0:0,0:0:0:0:
208,124,57690,1,8,0:0:0:0:
140,349,58090,6,0,L|96:264,1,95.9999970703126
48,244,58390,1,0,0:0:0:0:
12,212,58490,2,0,P|80:176|212:196,1,191.999994140625,0|8,0:0|0:0,0:0:0:0:
244,272,59090,2,0,P|316:264|396:180,1,191.999994140625,2|2,0:0|0:0,0:0:0:0:
96,156,59890,6,0,L|192:348,1,191.999994140625,0|2,0:0|0:0,0:0:0:0:
212,344,60390,1,0,0:0:0:0:
244,348,60490,1,8,0:0:0:0:
344,296,60690,1,2,0:0:0:0:
176,220,60890,1,0,0:0:0:0:
360,140,61090,1,2,0:0:0:0:
132,76,61490,5,0,0:0:0:0:
100,156,61690,1,8,0:0:0:0:
200,132,61890,1,0,0:0:0:0:
124,64,62090,1,8,0:0:0:0:
92,168,62290,1,0,0:0:0:0:
216,140,62490,1,8,0:0:0:0:
48,96,62690,5,0,0:0:0:0:
0,212,62890,1,8,0:0:0:0:
148,188,63090,1,0,0:0:0:0:
64,168,63290,5,8,0:0:0:0:
0,316,63490,1,0,0:0:0:0:
180,280,63690,1,8,0:0:0:0:
320,236,63890,6,0,L|352:192,3,47.9999985351563,0|0|8|0,0:0|0:0|0:0|0:0,0:0:0:0:
360,168,64290,1,0,0:0:0:0:
368,132,64390,1,0,0:0:0:0:
360,92,64490,1,12,0:0:0:0:
84,136,77290,6,0,L|276:76,1,191.999994140625
404,224,78090,1,8,0:0:0:0:
376,252,78490,6,0,B|320:256|288:228|288:228|256:256|180:248,1,191.999994140625
72,188,79090,2,0,P|136:188|160:216,1,95.9999970703126
84,72,79690,2,0,B|152:84|172:116|172:116|204:84|288:92,1,191.999994140625,8|0,0:0|0:0,0:0:0:0:
340,212,80290,2,0,P|284:208|256:172,1,95.9999970703126
128,180,80690,1,0,0:0:0:0:
328,112,80890,1,0,0:0:0:0:
144,272,81090,1,0,0:0:0:0:
152,284,81290,6,0,B|240:320|240:320|328:248,1,191.999994140625,8|0,0:0|0:0,0:0:0:0:
332,232,81790,1,0,0:0:0:0:
352,204,81890,1,0,0:0:0:0:
220,120,82090,1,0,0:0:0:0:
80,112,82290,2,0,L|40:80,1,47.9999985351563
116,104,82490,2,0,L|200:56,1,95.9999970703126
160,232,82890,2,0,L|64:288,1,95.9999970703126,8|0,0:0|0:0,0:0:0:0:
164,128,83290,6,0,L|304:208,1,143.999995605469,8|0,0:0|0:0,0:0:0:0:
272,280,83690,2,0,L|448:368,2,191.999994140625,8|0|8,0:0|0:0|0:0,0:0:0:0:
272,280,84890,1,0,0:0:0:0:
364,124,85490,2,0,P|388:72|376:24,2,95.9999970703126
452,208,86090,2,0,P|380:228|232:192,1,191.999994140625,8|0,0:0|0:0,0:0:0:0:
188,140,86690,1,0,0:0:0:0:
108,196,86890,2,0,P|168:280|272:296,1,191.999994140625
344,256,87490,6,0,P|396:256|432:288,1,95.9999970703126,0|8,0:0|0:0,0:0:0:0:
224,104,88090,1,0,0:0:0:0:
80,268,88490,1,0,0:0:0:0:
96,284,88590,1,0,0:0:0:0:
112,300,88690,5,0,0:0:0:0:
172,220,88890,1,0,0:0:0:0:
224,308,89090,1,0,0:0:0:0:
308,244,89290,2,0,P|360:180|340:72,1,191.999994140625,8|8,0:0|0:0,0:0:0:0:
144,168,90090,6,0,P|200:224|200:252,1,90.0000034332277
100,164,90490,2,0,L|160:52,1,120.000004577637,0|8,0:0|0:0,0:0:0:0:
256,68,91290,1,0,0:0:0:0:
320,152,91690,1,0,0:0:0:0:
320,152,91890,1,0,0:0:0:0:
264,232,92090,2,0,L|228:280,1,60.0000022888184
192,156,92490,2,0,L|256:136,1,60.0000022888184,8|0,0:0|0:0,0:0:0:0:
152,232,92890,2,0,L|96:184,1,60.0000022888184
344,328,93290,6,0,P|308:260|316:232,1,90.0000034332277,2|0,0:0|0:0,0:0:0:0:
296,348,93690,2,0,P|232:352|184:312,1,120.000004577637,2|8,0:0|0:0,0:0:0:0:
52,264,94290,2,0,P|88:256|132:272,1,60.0000022888184
220,100,94890,5,0,0:0:0:0:
328,272,95090,1,0,0:0:0:0:
152,204,95290,1,0,0:0:0:0:
332,160,95490,1,0,0:0:0:0:
200,300,95690,1,8,0:0:0:0:
220,100,95890,1,0,0:0:0:0:
328,272,96090,1,8,0:0:0:0:
60,120,96490,6,0,P|120:68|120:44,1,107.999996704102,2|0,0:0|0:0,0:0:0:0:
168,136,96890,2,0,P|216:144|276:240,1,143.999995605469,2|8,0:0|0:0,0:0:0:0:
344,276,97490,2,0,P|388:268|428:284,1,71.9999978027344
200,324,98090,6,0,L|116:288,2,71.9999978027344
198,124,98690,2,0,P|210:158|224:192,2,71.9999978027344,0|8|0,0:0|0:0|0:0,0:0:0:0:
198,124,99290,1,0,0:0:0:0:
368,200,99690,6,0,P|336:256|324:320,1,120,2|0,0:0|0:0,0:0:0:0:
284,320,100090,2,0,L|120:284,1,160,2|8,0:0|0:0,0:0:0:0:
24,204,100690,2,0,P|68:176|72:144,1,80
312,140,101290,6,0,L|392:72,1,80
268,280,101690,2,0,L|336:224,1,80,0|0,0:0|0:0,0:0:0:0:
128,204,102090,2,0,L|200:152,1,80,8|0,0:0|0:0,0:0:0:0:
84,312,102490,1,2,0:0:0:0:
256,192,102890,5,4,0:0:0:0:
296,96,103090,1,0,0:0:0:0:
152,180,103290,1,0,0:0:0:0:
312,272,103490,1,0,0:0:0:0:
352,188,103690,5,0,0:0:0:0:
204,96,103890,1,0,0:0:0:0:
200,272,104090,1,0,0:0:0:0:
256,192,104290,2,0,P|292:232|288:300,1,120
188,332,105090,6,0,L|152:320,1,20
188,332,105290,2,0,P|236:336|272:320,1,80
340,276,105890,1,0,0:0:0:0:
404,208,106090,2,0,P|448:200|488:220,2,80
296,188,107090,2,0,L|256:156,1,40
272,280,107490,2,0,P|320:288|352:264,1,80
204,220,108090,6,0,L|168:252,1,40
256,152,108490,2,0,L|308:168,1,40
168,144,108890,2,0,L|160:104,1,40
224,36,109290,2,0,L|276:48,1,40,2|0,0:0|0:0,0:0:0:0:
104,100,109690,2,0,L|56:84,1,40
160,232,110090,2,0,L|200:248,1,40
320,248,110490,1,0,0:0:0:0:
404,188,110690,2,0,P|416:140|356:132,1,120
272,168,111490,6,0,P|248:148|244:132,1,40
396,264,111890,2,0,P|416:288|416:304,1,40
256,312,112290,1,0,0:0:0:0:
95,295,112490,2,0,P|100:276|116:264,1,40,2|0,0:0|0:0,0:0:0:0:
184,200,112890,1,0,0:0:0:0:
272,164,113090,1,0,0:0:0:0:
196,104,113290,2,0,L|144:88,1,40
112,188,113690,1,0,0:0:0:0:
248,32,113890,2,0,L|376:68,1,120
432,216,114690,5,0,0:0:0:0:
368,160,114890,1,0,0:0:0:0:
416,296,115090,1,0,0:0:0:0:
512,192,115290,1,0,0:0:0:0:
332,244,115490,1,0,0:0:0:0:
240,208,115690,6,0,P|184:184|168:160,1,80,2|0,0:0|0:0,0:0:0:0:
280,128,116290,1,0,0:0:0:0:
332,244,116490,2,0,P|324:288|292:316,1,80
280,128,117090,2,0,P|256:96|292:28,1,120,2|0,0:0|0:0,0:0:0:0:
180,220,117890,2,0,L|216:184,1,40
300,220,118290,1,0,0:0:0:0:
184,112,118490,2,0,P|140:92|100:104,1,80,0|2,0:0|0:0,0:0:0:0:
36,160,119090,1,0,0:0:0:0:
40,256,119290,6,0,P|48:308|80:332,1,80
132,256,119890,2,0,L|192:204,1,80,0|2,0:0|0:0,0:0:0:0:
420,240,121090,5,0,0:0:0:0:
320,184,121290,1,0,0:0:0:0:
420,240,121490,1,0,0:0:0:0:
356,320,121690,1,0,0:0:0:0:
420,240,121890,1,0,0:0:0:0:
456,132,122090,6,0,P|416:96|384:92,1,80,2|0,0:0|0:0,0:0:0:0:
296,96,122690,1,0,0:0:0:0:
156,80,122890,2,0,L|188:56,1,40
52,64,123290,1,0,0:0:0:0:
172,192,123490,2,0,L|272:112,1,120,2|0,0:0|0:0,0:0:0:0:
352,56,124290,6,0,L|376:36,1,20
352,56,124490,2,0,L|356:104,1,40
444,148,124890,2,0,L|452:200,1,40
196,224,125290,6,0,L|152:224,1,40,2|0,0:0|0:0,0:0:0:0:
316,160,125690,2,0,L|356:160,1,40
192,128,126090,2,0,L|192:80,1,40,2|0,0:0|0:0,0:0:0:0:
312,260,126490,2,0,L|312:304,1,40
256,192,126890,12,4,128490,0:0:0:0:
204,172,129290,6,0,P|260:156|428:216,2,240.000009155274,0|2|0,0:0|0:0|0:0,0:0:0:0:
136,252,131290,1,0,0:0:0:0:
256,204,131690,2,0,P|232:144|68:92,1,240.000009155274,2|0,0:0|0:0,0:0:0:0:
140,264,133090,1,0,0:0:0:0:
240,212,133290,2,0,P|172:156|32:208,1,240.000009155274,2|0,0:0|0:0,0:0:0:0:
72,308,134290,1,0,0:0:0:0:
96,328,134390,1,0,0:0:0:0:
136,320,134490,2,0,P|156:268|136:192,1,120.000004577637,0|2,0:0|0:0,0:0:0:0:
104,120,135090,5,0,0:0:0:0:
200,88,135290,2,0,P|260:104|320:80,1,120.000004577637,0|2,0:0|0:0,0:0:0:0:
408,64,135890,1,0,0:0:0:0:
248,184,136090,2,0,P|312:184|376:148,1,120.000004577637,0|2,0:0|0:0,0:0:0:0:
480,180,136690,2,0,P|448:156|420:148,1,60.0000022888184
256,104,137090,1,0,0:0:0:0:
82,149,137290,2,0,P|54:160|32:180,1,60.0000022888184,2|0,0:0|0:0,0:0:0:0:
76,272,137690,5,0,0:0:0:0:
124,292,137790,1,0,0:0:0:0:
176,272,137890,1,0,0:0:0:0:
224,296,137990,1,0,0:0:0:0:
276,268,138090,1,4,0:0:0:0:
376,176,138490,6,0,P|320:140|316:92,1,120.000004577637,0|2,0:0|0:0,0:0:0:0:
428,80,139090,2,0,L|376:112,1,60.0000022888184,0|2,0:0|0:0,0:0:0:0:
156,216,139690,6,0,L|96:264,1,60.0000022888184,2|0,0:0|0:0,0:0:0:0:
256,324,140090,2,0,L|256:264,1,60.0000022888184,2|0,0:0|0:0,0:0:0:0:
356,216,140490,2,0,L|416:264,1,60.0000022888184,2|0,0:0|0:0,0:0:0:0:
256,224,140890,1,8,0:0:0:0:
256,176,140990,1,8,0:0:0:0:
256,124,141090,1,8,0:0:0:0:
256,76,141190,1,8,0:0:0:0:
256,28,141290,6,0,L|72:48,1,180.000006866455,8|0,0:0|0:0,0:0:0:0:
120,124,141690,2,0,B|52:360|52:356,1,240.000009155274,8|0,0:0|0:0,0:0:0:0:
224,336,142290,2,0,P|164:288|164:248,1,120.000004577637,0|8,0:0|0:0,0:0:0:0:
256,192,142690,1,0,0:0:0:0:
372,108,142890,5,0,0:0:0:0:
212,32,143090,1,0,0:0:0:0:
128,172,143290,1,8,0:0:0:0:
292,244,143490,1,0,0:0:0:0:
256,136,143690,1,0,0:0:0:0:
168,300,143890,1,0,0:0:0:0:
360,356,144090,1,8,0:0:0:0:
436,212,144290,1,8,0:0:0:0:
372,108,144490,6,0,P|268:56|208:76,1,180.000006866455,8|0,0:0|0:0,0:0:0:0:
200,224,144890,2,0,P|256:184|264:24,1,240.000009155274,8|0,0:0|0:0,0:0:0:0:
84,76,145490,2,0,L|204:112,1,120.000004577637,0|8,0:0|0:0,0:0:0:0:
368,160,145890,1,0,0:0:0:0:
112,216,146090,6,0,L|52:344,1,120.000004577637
216,132,146490,2,0,L|176:16,1,120.000004577637,8|0,0:0|0:0,0:0:0:0:
324,232,146890,2,0,L|296:356,1,120.000004577637
424,136,147290,2,0,L|376:16,1,120.000004577637,8|8,0:0|0:0,0:0:0:0:
108,148,147690,5,8,0:0:0:0:
116,160,148090,2,0,L|376:168,1,240.000009155274,8|0,0:0|0:0,0:0:0:0:
168,256,148690,2,0,L|40:252,1,120.000004577637,0|8,0:0|0:0,0:0:0:0:
28,152,149090,1,0,0:0:0:0:
120,344,149290,5,0,0:0:0:0:
248,332,149490,1,0,0:0:0:0:
332,224,149690,1,8,0:0:0:0:
176,232,149890,1,0,0:0:0:0:
224,108,150090,1,0,0:0:0:0:
124,20,150290,1,0,0:0:0:0:
340,72,150490,2,0,P|404:88|464:64,1,120.000004577637,8|8,0:0|0:0,0:0:0:0:
72,176,150890,6,0,L|164:352,1,180.000006866455,8|0,0:0|0:0,0:0:0:0:
352,320,151290,2,0,P|296:268|124:260,1,240.000009155274,8|0,0:0|0:0,0:0:0:0:
288,168,151890,2,0,L|352:64,2,120.000004577637,0|8|0,0:0|0:0|0:0,0:0:0:0:
148,172,152490,6,0,L|48:68,1,120.000004577637
144,288,152890,2,0,L|276:276,1,120.000004577637,8|0,0:0|0:0,0:0:0:0:
376,212,153290,5,8,0:0:0:0:
360,168,153390,1,0,0:0:0:0:
328,128,153490,1,0,0:0:0:0:
296,96,153590,1,0,0:0:0:0:
248,80,153690,1,8,0:0:0:0:
200,80,153790,1,8,0:0:0:0:
148,96,153890,1,8,0:0:0:0:
104,124,153990,1,8,0:0:0:0:
76,168,154090,1,8,0:0:0:0:
92,252,154290,5,0,0:0:0:0:
176,272,154490,1,0,0:0:0:0:
248,220,154690,1,0,0:0:0:0:
304,160,154890,2,0,P|368:136|496:212,1,207.999990478516,2|2,0:0|0:0,0:0:0:0:
384,236,155490,2,0,P|320:256|196:176,1,207.999990478516,2|2,0:0|0:0,0:0:0:0:
152,112,156090,1,0,0:0:0:0:
52,56,156290,6,0,L|8:20,1,51.999997619629
52,88,156490,2,0,P|36:152|88:296,1,207.999990478516,8|0,0:0|0:0,0:0:0:0:
352,292,157090,2,0,P|260:252|136:280,1,207.999990478516,2|0,0:0|0:0,0:0:0:0:
60,272,157690,1,0,0:0:0:0:
0,196,157890,1,2,0:0:0:0:
184,184,158090,1,8,0:0:0:0:
256,100,158290,1,0,0:0:0:0:
88,120,158490,6,0,P|92:180|208:296,1,207.999990478516,0|0,0:0|0:0,0:0:0:0:
256,160,159090,2,0,L|256:272,1,103.999995239258
328,288,159490,1,0,0:0:0:0:
328,288,159590,1,0,0:0:0:0:
327,288,159690,2,8,P|403:220|424:120,1,207.999990478516
336,68,160290,1,0,0:0:0:0:
144,128,160490,6,0,P|128:192|184:324,1,207.999990478516
316,232,161090,1,0,0:0:0:0:
248,152,161290,2,0,P|312:128|416:232,1,207.999990478516,8|0,0:0|0:0,0:0:0:0:
316,232,161890,2,0,L|404:44,1,207.999990478516,2|2,0:0|0:0,0:0:0:0:
268,72,162490,2,0,L|216:176,1,103.999995239258
221,165,162790,1,0,0:0:0:0:
221,165,162890,1,8,0:0:0:0:
112,228,163090,6,0,L|72:124,1,103.999995239258,0|8,0:0|0:0,0:0:0:0:
240,248,163490,2,0,L|184:344,1,103.999995239258,8|0,0:0|0:0,0:0:0:0:
424,156,163890,5,0,0:0:0:0:
376,228,164090,1,8,0:0:0:0:
460,232,164290,1,0,0:0:0:0:
344,156,164490,1,8,0:0:0:0:
276,228,164690,5,0,0:0:0:0:
208,308,164890,1,8,0:0:0:0:
164,212,165090,1,0,0:0:0:0:
232,136,165290,5,8,0:0:0:0:
376,228,165490,1,0,0:0:0:0:
276,344,165690,1,8,0:0:0:0:
128,264,165890,1,0,0:0:0:0:
100,168,166090,5,8,0:0:0:0:
104,152,166190,1,8,0:0:0:0:
108,136,166290,1,8,0:0:0:0:
112,120,166390,1,8,0:0:0:0:
116,104,166490,1,8,0:0:0:0:
120,92,166590,1,8,0:0:0:0:
124,76,166690,1,8,0:0:0:0:
128,64,166790,1,8,0:0:0:0:
132,48,166890,5,12,0:0:0:0:
