osu file format v12

[General]
AudioFilename: Nano & Vin - PONPONPON.mp3
AudioLeadIn: 2000
PreviewTime: 26078
Countdown: 0
SampleSet: Normal
StackLeniency: 0.7
Mode: 0
LetterboxInBreaks: 1

[Editor]
Bookmarks: -22,19678,64488,77288,90084
DistanceSpacing: 0.9
BeatDivisor: 4
GridSize: 4

[Metadata]
Title:PON PON PON
TitleUnicode:PON PON PON
Artist:MuryokuP Ft. Nano & Vin
ArtistUnicode:MuryokuP Ft. Nano & Vin
Creator:Fariko Noyd
Version:Insane
Source:
Tags:MuryokuP Nano PON PON PON rock japanese PONPONPON Fariko Noyd
BeatmapID:264112
BeatmapSetID:99256

[Difficulty]
HPDrainRate:7
CircleSize:4
OverallDifficulty:7
ApproachRate:9
SliderMultiplier:2
SliderTickRate:1

[Events]
//Background and Video events
0,0,"warrior-anime-girl-wallpaper-1920x1200-1004039.jpg",0,0
//Break Periods
2,67888,76688
2,102688,115088
//Storyboard Layer 0 (Background)
//Storyboard Layer 1 (Fail)
//Storyboard Layer 2 (Pass)
//Storyboard Layer 3 (Foreground)
//Storyboard Sound Samples
//Background Colour Transformations
3,100,0,0,0

[TimingPoints]
488,400,4,1,0,70,1,0
26088,-100,4,1,0,70,0,1
51688,-100,4,1,0,70,0,0
122078,-200,4,1,0,70,0,0
128488,-100,4,1,0,70,0,1
154088,-100,4,1,0,70,0,0

[Colours]
Combo1 : 255,255,255
Combo2 : 255,0,0

[HitObjects]
0,80,13288,5,0,0:0:0:0:
28,116,13388,1,0,0:0:0:0:
56,152,13488,1,0,0:0:0:0:
116,220,13888,1,0,0:0:0:0:
116,220,13988,2,0,P|172:268|232:272,1,100
236,248,14288,2,0,P|236:176|176:152,1,100
132,136,14688,5,0,0:0:0:0:
152,48,14888,1,0,0:0:0:0:
240,24,15088,1,0,0:0:0:0:
360,156,15488,1,0,0:0:0:0:
424,60,15588,2,0,P|488:88|516:132,1,100
488,152,15888,2,0,P|436:148|400:120,1,100
424,32,16288,1,0,0:0:0:0:
460,112,16488,6,0,P|504:168|512:196,1,100
476,276,16888,2,0,B|432:276|432:276|388:240,1,100
352,156,17288,2,0,B|396:156|396:156|440:192,1,100
496,260,17688,2,0,B|496:320|496:320|468:352,1,100
384,372,18088,38,0,P|348:376|288:356,1,100
308,268,18488,2,0,P|284:228|236:208,1,100
148,188,18888,2,0,P|128:136|148:76,1,100
192,24,19288,2,0,P|244:0|288:4,1,100
372,24,19688,6,8,P|416:52|448:88,1,100
344,220,20088,2,8,P|300:192|268:156,1,100,8|8,0:0|0:0,0:0:0:0:
328,88,20488,2,8,P|372:116|404:152,1,100,8|8,0:0|0:0,0:0:0:0:
296,284,20888,2,8,P|252:256|220:220,1,100,8|8,0:0|0:0,0:0:0:0:
224,80,21288,5,4,0:0:0:0:
296,320,21488,1,4,0:0:0:0:
92,180,21688,1,4,0:0:0:0:
360,180,21888,1,4,0:0:0:0:
164,320,22088,1,4,0:0:0:0:
164,320,22488,54,0,P|124:344|68:344,1,100
116,268,22888,54,0,P|69:272|18:249,1,100
96,200,23288,2,0,P|34:169|13:123,2,100
200,112,23888,1,0,0:0:0:0:
256,40,24088,1,0,0:0:0:0:
308,116,24288,1,0,0:0:0:0:
284,340,24788,2,0,P|256:348|224:340,11,50
256,40,26088,37,4,0:0:0:0:
432,16,26488,2,0,L|504:84,1,100
508,172,26888,2,0,L|508:272,1,100
440,324,27288,2,0,L|360:384,1,100
108,356,27688,5,4,0:0:0:0:
380,280,27888,1,4,0:0:0:0:
108,220,28088,1,4,0:0:0:0:
380,164,28288,1,4,0:0:0:0:
112,112,28488,1,4,0:0:0:0:
380,56,28688,1,4,0:0:0:0:
112,8,28888,1,4,0:0:0:0:
400,12,29288,6,0,P|452:44|484:100,1,100
504,156,29688,2,0,P|500:220|460:276,1,100
424,320,30088,2,0,P|384:344|312:344,1,100
340,260,30488,2,0,P|292:232|260:160,1,100
256,108,30888,5,4,0:0:0:0:
192,300,31088,1,4,0:0:0:0:
344,192,31288,1,4,0:0:0:0:
156,192,31488,1,4,0:0:0:0:
316,300,31688,1,4,0:0:0:0:
256,208,31888,5,2,0:0:0:0:
256,208,32088,1,10,0:0:0:0:
144,276,32488,38,0,L|94:292,2,50
112,192,32888,2,0,L|60:192,2,50
152,112,33288,2,0,L|100:92,2,50
188,192,33688,1,0,0:0:0:0:
276,36,34088,6,0,L|328:44,1,50
328,88,34288,2,0,L|276:96,1,50,0|0,0:0|0:0,0:0:0:0:
280,140,34488,2,0,L|332:148,1,50,0|0,0:0|0:0,0:0:0:0:
332,192,34688,2,0,L|280:200,1,50,0|0,0:0|0:0,0:0:0:0:
284,244,34888,2,0,L|336:252,1,50,0|0,0:0|0:0,0:0:0:0:
336,296,35088,2,0,L|284:304,1,50,0|0,0:0|0:0,0:0:0:0:
244,316,35288,1,0,0:0:0:0:
76,248,35688,6,0,P|44:188|96:100,1,150
256,24,36488,2,0,P|308:48|340:76,1,100
396,148,36888,2,0,P|404:196|396:248,1,100
344,320,37288,2,0,P|308:348|256:368,1,100
172,344,37688,1,0,0:0:0:0:
148,304,37788,1,0,0:0:0:0:
120,340,37888,1,0,0:0:0:0:
108,296,37988,1,0,0:0:0:0:
76,328,38088,1,0,0:0:0:0:
72,284,38188,1,0,0:0:0:0:
44,320,38288,1,0,0:0:0:0:
36,276,38388,1,0,0:0:0:0:
4,308,38488,1,0,0:0:0:0:
0,236,38888,5,8,0:0:0:0:
0,236,39288,1,8,0:0:0:0:
148,132,39688,2,0,P|120:84|132:36,1,100
216,40,40088,2,0,P|268:88|260:152,1,100
172,332,40488,5,4,0:0:0:0:
392,160,40688,1,4,0:0:0:0:
104,160,40888,1,4,0:0:0:0:
324,332,41088,1,4,0:0:0:0:
248,40,41288,1,4,0:0:0:0:
248,188,41488,5,8,0:0:0:0:
248,188,41688,1,8,0:0:0:0:
136,328,42088,6,0,P|68:300|40:224,1,150
40,188,42488,2,0,P|84:108|160:76,1,150
176,64,42888,1,0,0:0:0:0:
264,40,43088,1,0,0:0:0:0:
352,64,43288,1,0,0:0:0:0:
256,328,43688,37,0,0:0:0:0:
156,88,43888,1,0,0:0:0:0:
360,280,44088,1,0,0:0:0:0:
256,52,44288,1,0,0:0:0:0:
164,284,44488,5,0,0:0:0:0:
396,184,44688,1,0,0:0:0:0:
120,184,44888,1,0,0:0:0:0:
404,148,45288,5,0,0:0:0:0:
96,144,45688,1,0,0:0:0:0:
204,288,46088,1,0,0:0:0:0:
256,212,46288,1,0,0:0:0:0:
308,288,46488,1,0,0:0:0:0:
328,192,46888,6,0,P|344:152|360:136,2,50
184,192,47288,2,0,P|176:152|156:132,2,50
256,188,47688,2,0,L|256:88,2,100
136,304,48488,5,0,0:0:0:0:
380,304,48888,1,0,0:0:0:0:
324,132,49288,1,0,0:0:0:0:
256,68,49488,1,0,0:0:0:0:
200,132,49688,1,0,0:0:0:0:
288,288,50088,22,0,P|272:336|292:388,2,100
328,208,50688,1,0,0:0:0:0:
340,120,50888,1,0,0:0:0:0:
384,44,51088,1,0,0:0:0:0:
468,8,51288,1,0,0:0:0:0:
492,188,51688,5,0,0:0:0:0:
468,276,51888,1,0,0:0:0:0:
468,276,51988,1,0,0:0:0:0:
468,276,52088,1,0,0:0:0:0:
416,344,52288,1,0,0:0:0:0:
332,376,52488,1,0,0:0:0:0:
244,380,52688,22,8,L|244:360|244:328,5,50
152,124,53488,37,0,0:0:0:0:
152,124,53588,1,0,0:0:0:0:
152,124,53688,1,0,0:0:0:0:
240,100,53888,1,0,0:0:0:0:
328,96,54088,1,0,0:0:0:0:
412,132,54288,22,8,L|412:188,5,50
152,324,55088,37,0,0:0:0:0:
64,328,55288,1,0,0:0:0:0:
20,252,55488,1,0,0:0:0:0:
12,164,55688,2,0,B|16:104|48:64|88:36,1,150
128,24,56088,1,0,0:0:0:0:
304,56,56488,1,0,0:0:0:0:
340,76,56588,1,0,0:0:0:0:
364,112,56688,1,0,0:0:0:0:
380,152,56788,1,0,0:0:0:0:
384,196,56888,1,0,0:0:0:0:
372,240,56988,1,0,0:0:0:0:
348,280,57088,1,0,0:0:0:0:
260,280,57288,22,4,B|176:196|232:72|412:72|460:204|368:296,1,450
328,312,58288,1,0,0:0:0:0:
284,324,58388,1,0,0:0:0:0:
240,332,58488,1,0,0:0:0:0:
152,348,58688,1,0,0:0:0:0:
84,344,58888,2,0,P|-16:264|12:88,1,300
168,44,59888,37,0,0:0:0:0:
168,44,59988,1,0,0:0:0:0:
168,44,60088,1,0,0:0:0:0:
256,40,60288,1,0,0:0:0:0:
344,56,60488,1,0,0:0:0:0:
428,92,60688,22,8,L|452:48,6,50
112,312,61488,5,0,0:0:0:0:
372,100,61688,1,0,0:0:0:0:
112,104,61888,1,0,0:0:0:0:
376,316,62088,1,0,0:0:0:0:
216,348,62288,5,0,0:0:0:0:
416,108,62488,1,0,0:0:0:0:
116,184,62688,1,0,0:0:0:0:
400,296,62888,1,0,0:0:0:0:
240,44,63088,6,0,L|268:0,3,50
348,108,63688,1,0,0:0:0:0:
364,152,63788,1,0,0:0:0:0:
380,196,63888,1,0,0:0:0:0:
396,240,63988,1,0,0:0:0:0:
412,284,64088,1,0,0:0:0:0:
428,328,64188,1,0,0:0:0:0:
448,368,64288,1,0,0:0:0:0:
256,192,64488,12,0,67688,0:0:0:0:
404,24,77288,21,0,0:0:0:0:
420,68,77388,1,0,0:0:0:0:
436,112,77488,1,0,0:0:0:0:
452,152,77588,1,0,0:0:0:0:
468,196,77688,1,0,0:0:0:0:
484,236,77788,1,0,0:0:0:0:
500,276,77888,1,0,0:0:0:0:
256,156,78488,1,0,0:0:0:0:
256,156,78688,1,0,0:0:0:0:
332,268,78988,5,0,0:0:0:0:
316,312,79088,1,0,0:0:0:0:
288,348,79188,1,0,0:0:0:0:
248,368,79288,1,0,0:0:0:0:
204,364,79388,1,0,0:0:0:0:
160,352,79488,1,0,0:0:0:0:
120,332,79588,1,0,0:0:0:0:
87,300,79688,2,0,B|29:245|41:193|50:158,1,150
68,124,80088,1,0,0:0:0:0:
127,56,80288,2,0,B|165:29|187:21|220:18,1,100
264,24,80588,5,0,0:0:0:0:
308,28,80688,1,0,0:0:0:0:
352,40,80788,1,0,0:0:0:0:
392,60,80888,1,0,0:0:0:0:
428,84,80988,1,0,0:0:0:0:
460,112,81088,1,0,0:0:0:0:
480,152,81188,1,0,0:0:0:0:
496,192,81288,1,0,0:0:0:0:
316,192,81688,2,8,L|316:264,2,50,4|8|4,0:0|0:0|0:0,0:0:0:0:
240,80,82188,5,0,0:0:0:0:
272,48,82288,1,0,0:0:0:0:
356,12,82488,5,12,0:0:0:0:
432,60,82688,5,0,0:0:0:0:
452,100,82788,1,0,0:0:0:0:
464,144,82888,2,0,L|544:100,2,50
468,160,83188,6,0,L|568:164,2,100
464,204,83688,2,0,P|460:268|444:300,1,100
388,368,84088,2,0,P|348:384|292:384,1,100
204,372,84488,1,0,0:0:0:0:
88,304,84788,2,0,L|56:264,1,50
44,220,84988,2,0,L|80:180,1,50
84,92,85288,2,0,L|36:72,1,50
172,48,85688,2,0,L|116:8,4,50
148,136,86288,5,0,0:0:0:0:
236,116,86488,1,0,0:0:0:0:
236,116,86588,1,0,0:0:0:0:
236,116,86688,1,0,0:0:0:0:
344,36,86988,1,0,0:0:0:0:
388,48,87088,1,0,0:0:0:0:
428,68,87188,1,0,0:0:0:0:
460,100,87288,1,0,0:0:0:0:
480,140,87388,1,0,0:0:0:0:
496,180,87488,1,0,0:0:0:0:
500,224,87588,1,0,0:0:0:0:
492,268,87688,1,0,0:0:0:0:
332,352,88088,5,0,0:0:0:0:
244,356,88288,1,0,0:0:0:0:
156,340,88488,1,4,0:0:0:0:
156,340,88588,1,0,0:0:0:0:
156,340,88688,1,0,0:0:0:0:
76,296,88888,2,0,L|36:264,10,50
112,212,90088,5,0,0:0:0:0:
112,212,90488,1,0,0:0:0:0:
252,60,90888,1,0,0:0:0:0:
320,116,91088,1,0,0:0:0:0:
236,152,91288,1,0,0:0:0:0:
344,296,91688,5,0,0:0:0:0:
256,272,91888,1,0,0:0:0:0:
320,336,92088,2,0,P|280:376|236:384,1,100
152,360,92488,1,0,0:0:0:0:
84,300,92688,1,0,0:0:0:0:
84,300,92888,1,0,0:0:0:0:
176,80,93288,2,0,P|256:36|344:84,1,200
404,152,94088,5,0,0:0:0:0:
124,196,94288,1,0,0:0:0:0:
404,248,94488,1,0,0:0:0:0:
272,368,94888,1,4,0:0:0:0:
304,56,95088,1,4,0:0:0:0:
108,300,95288,1,4,0:0:0:0:
416,216,95488,1,4,0:0:0:0:
112,104,95688,1,4,0:0:0:0:
248,208,95888,5,8,0:0:0:0:
248,208,96088,1,8,0:0:0:0:
176,44,96488,6,0,P|256:-8|332:48,2,200
144,128,97488,1,0,0:0:0:0:
128,216,97688,1,0,0:0:0:0:
20,360,98088,5,0,0:0:0:0:
428,288,98288,1,0,0:0:0:0:
168,56,98488,1,0,0:0:0:0:
104,220,98688,1,0,0:0:0:0:
288,172,98888,1,0,0:0:0:0:
232,332,99088,5,0,0:0:0:0:
232,332,99288,1,0,0:0:0:0:
252,48,99688,5,0,0:0:0:0:
252,48,100088,1,0,0:0:0:0:
432,112,100488,1,0,0:0:0:0:
68,200,100688,1,0,0:0:0:0:
432,316,100888,1,0,0:0:0:0:
104,308,101288,1,0,0:0:0:0:
424,208,101488,1,0,0:0:0:0:
112,92,101688,1,0,0:0:0:0:
288,380,101888,1,0,0:0:0:0:
316,24,102088,1,0,0:0:0:0:
256,192,102288,5,0,0:0:0:0:
256,192,102488,1,0,0:0:0:0:
260,40,115688,6,0,B|444:100|444:312|252:364|76:312|76:100|256:40,2,700
256,192,118888,12,0,121688,0:0:0:0:
256,68,122088,6,0,P|356:84|436:148,2,200
256,316,124488,2,0,P|156:300|76:236,2,200
256,192,126688,1,0,0:0:0:0:
256,192,127088,2,0,P|260:164|284:144,1,50
256,192,127488,2,0,P|252:164|228:144,1,50
256,192,128488,5,0,0:0:0:0:
256,192,128888,1,0,0:0:0:0:
356,344,129288,1,0,0:0:0:0:
424,284,129488,1,0,0:0:0:0:
440,372,129688,1,0,0:0:0:0:
512,208,130088,2,0,B|493:99|452:50|300:40,1,300
212,40,130888,1,0,0:0:0:0:
124,56,131088,1,0,0:0:0:0:
36,80,131288,1,0,0:0:0:0:
160,284,131688,5,0,0:0:0:0:
340,284,132088,1,0,0:0:0:0:
108,112,132488,1,0,0:0:0:0:
256,20,132688,1,0,0:0:0:0:
392,116,132888,1,0,0:0:0:0:
340,284,133288,5,0,0:0:0:0:
124,220,133488,1,0,0:0:0:0:
340,152,133688,1,0,0:0:0:0:
124,80,133888,1,0,0:0:0:0:
340,20,134088,1,0,0:0:0:0:
240,92,134288,2,0,L|240:196,1,100
72,96,134888,6,0,P|28:168|76:264,1,200
232,348,135688,1,0,0:0:0:0:
272,268,135888,1,0,0:0:0:0:
320,344,136088,1,0,0:0:0:0:
424,304,136488,1,0,0:0:0:0:
112,200,136688,1,0,0:0:0:0:
248,368,136888,1,0,0:0:0:0:
396,80,137088,1,0,0:0:0:0:
216,56,137288,1,0,0:0:0:0:
312,276,137488,2,0,L|256:192,1,100
256,192,138088,5,0,0:0:0:0:
256,192,138488,1,0,0:0:0:0:
100,104,138888,2,0,L|8:64,1,100
8,156,139288,1,0,0:0:0:0:
136,284,139688,2,0,L|84:284,2,50
84,356,140088,2,0,L|40:384,2,50
172,340,140488,2,0,L|148:384,2,50
256,312,140888,6,0,L|256:260,4,50,0|0|0|0|0,0:0|0:0|0:0|0:0|0:0,0:0:0:0:
428,368,141688,1,0,0:0:0:0:
484,196,142088,1,0,0:0:0:0:
396,192,142288,1,0,0:0:0:0:
444,116,142488,1,0,0:0:0:0:
256,28,142888,1,0,0:0:0:0:
64,132,143088,1,0,0:0:0:0:
420,220,143288,1,0,0:0:0:0:
64,296,143488,1,0,0:0:0:0:
420,384,143688,1,0,0:0:0:0:
256,192,143888,2,0,L|256:92,1,100
256,272,144488,5,0,0:0:0:0:
256,272,144888,1,0,0:0:0:0:
416,192,145288,1,0,0:0:0:0:
112,128,145488,1,0,0:0:0:0:
416,44,145688,1,0,0:0:0:0:
256,128,146088,5,0,0:0:0:0:
256,128,146288,1,0,0:0:0:0:
324,352,146488,1,0,0:0:0:0:
136,208,146688,1,0,0:0:0:0:
188,352,146888,1,0,0:0:0:0:
364,204,147088,2,0,L|272:244,1,100
308,68,147688,6,0,P|412:104|468:176,2,200
220,72,148688,1,0,0:0:0:0:
136,108,148888,1,0,0:0:0:0:
152,324,149288,1,0,0:0:0:0:
396,164,149488,1,0,0:0:0:0:
96,168,149688,1,0,0:0:0:0:
348,324,149888,1,0,0:0:0:0:
252,56,150088,1,0,0:0:0:0:
252,264,150288,2,0,L|252:164,1,100
