osu file format v12

[General]
AudioFilename: MuryokuP - Sweet Sweet Cendrillon Drug.mp3
AudioLeadIn: 1000
PreviewTime: 69853
Countdown: 0
SampleSet: Normal
StackLeniency: 0.7
Mode: 0
LetterboxInBreaks: 0

[Editor]
DistanceSpacing: 0.8
BeatDivisor: 4
GridSize: 4

[Metadata]
Title:Sweet Sweet Cendrillon Drug
TitleUnicode:Sweet Sweet Cendrillon Drug
Artist:MuryokuP
ArtistUnicode:MuryokuP
Creator:Smoothie
Version:Normal
Source:
Tags:VOCALOID Megurine Luka Leda uz uzP kz Remix Ao Rock inaba-tan qoot8123
BeatmapID:207848
BeatmapSetID:72834

[Difficulty]
HPDrainRate:4
CircleSize:3
OverallDifficulty:4
ApproachRate:4
SliderMultiplier:1
SliderTickRate:1

[Events]
//Background and Video events
0,0,"BG.jpg",0,0
Video,150,"Sweet Sweet Cendrillon Drug.avi"
//Break Periods
2,90215,98387
2,149292,167464
2,198521,206539
//Storyboard Layer 0 (Background)
//Storyboard Layer 1 (Fail)
//Storyboard Layer 2 (Pass)
//Storyboard Layer 3 (Foreground)
//Storyboard Sound Samples
//Background Colour Transformations
3,100,163,162,255

[TimingPoints]
323,307.692307692308,4,2,0,60,1,0
1246,-133.333333333333,4,2,1,20,0,0
21092,-100,4,1,1,80,0,0
41553,-100,4,1,1,40,0,0
50784,-100,4,1,1,80,0,0
62476,-100,4,1,1,80,0,0
70323,-100,4,1,1,80,0,1
90015,-100,4,1,0,80,0,0
99707,-100,4,2,0,30,0,0
107707,-100,4,2,0,20,0,0
109861,-100,4,1,1,80,0,0
121553,-100,4,1,1,80,0,0
126938,-100,4,2,1,5,0,0
129092,-100,4,1,1,30,0,0
129399,-100,4,1,1,80,0,1
149092,-100,4,1,1,60,0,0
149246,307.692307692308,4,2,0,60,1,0
168784,307.692307692308,4,2,0,60,1,0
168784,-133.333333333333,4,2,2,50,0,0
187245,-133.333333333333,4,1,1,50,0,0
188322,307.692307692308,4,2,0,60,1,0
188475,-100,4,1,1,80,0,0
198475,307.692307692308,4,1,0,60,1,0
208167,-100,4,1,1,80,0,1
227859,-100,4,1,1,80,0,0
229551,-100,4,2,1,80,0,0
229859,-100,4,1,1,80,0,0
232013,-100,4,2,1,80,0,0
232321,-100,4,1,1,80,0,0
234475,-100,4,2,1,80,0,0
234628,-100,4,1,1,80,0,0
236936,-100,4,2,1,80,0,0
237244,-100,4,1,1,80,0,0
237859,-100,4,2,0,60,0,0
240244,-100,4,2,0,5,0,0

[Colours]
Combo1 : 128,128,128
Combo2 : 255,255,255
Combo3 : 228,139,139
Combo4 : 206,250,253
Combo5 : 102,167,198

[HitObjects]
36,324,1246,1,0,0:0:0:0:
36,324,1553,2,0,P|108:348|180:320,1,150.000005722046
228,260,2476,2,0,B|204:192|204:192|232:108,1,150.000005722046
360,24,3707,2,0,B|384:92|384:92|356:176,2,150.000005722046
256,148,5553,1,0,0:0:0:0:
256,268,6169,5,0,0:0:0:0:
256,268,6476,2,0,P|204:316|120:296,1,150.000005722046
180,240,7399,2,0,B|200:172|200:172|176:84,1,150.000005722046
96,240,8630,2,0,P|120:300|204:320,2,150.000005722046
256,192,10476,1,0,0:0:0:0:
380,80,11092,5,0,0:0:0:0:
380,80,11399,2,0,B|360:152|360:152|384:236,1,150.000005722046
464,224,12322,2,0,P|432:288|348:300,1,150.000005722046
256,176,13553,2,0,P|184:152|108:184,2,150.000005722046
256,340,15399,1,0,0:0:0:0:
256,176,16015,5,0,0:0:0:0:
192,128,16322,2,0,P|256:96|328:140,1,150.000005722046
256,176,17246,2,0,B|240:252|280:252|252:336,1,150.000005722046
256,192,18630,12,4,21092,0:0:0:0:
60,100,21861,22,0,P|108:84|164:112,1,100,8|0,0:0|0:0,0:0:0:0:
188,120,22323,2,0,B|256:148|256:148|336:116,1,150,8|0,0:0|0:0,0:0:0:0:
356,196,23092,2,0,L|448:156,1,100,8|0,0:0|0:0,0:0:0:0:
484,140,23553,2,0,B|504:188|504:188|464:228|488:288,1,150
432,340,24323,2,0,B|384:328|384:328|316:344,1,100,8|0,0:0|0:0,0:0:0:0:
296,348,24784,2,0,P|272:276|300:196,1,150,8|0,0:0|0:0,0:0:0:0:
256,136,25553,1,8,0:0:0:0:
136,132,26015,6,0,P|64:156|-8:204,1,150,8|0,0:0|0:0,0:0:0:0:
72,244,26784,2,0,P|116:220|172:208,1,100,8|0,0:0|0:0,0:0:0:0:
180,172,27246,2,0,B|160:100|160:100|180:28,1,150,8|0,0:0|0:0,0:0:0:0:
256,52,28015,2,0,L|256:156,1,100,8|0,0:0|0:0,0:0:0:0:
280,184,28476,2,0,P|336:200|440:172,1,150,8|0,0:0|0:0,0:0:0:0:
484,128,29246,2,0,P|504:180|496:232,1,100,8|0,0:0|0:0,0:0:0:0:
488,260,29707,2,0,B|452:284|404:276|404:276|340:312,1,150,8|0,0:0|0:0,0:0:0:0:
284,260,30476,1,8,0:0:0:0:
256,156,30938,6,0,P|184:140|108:156,1,150,4|0,0:0|0:0,0:0:0:0:
148,224,31707,2,0,P|156:272|148:324,1,100,8|0,0:0|0:0,0:0:0:0:
152,364,32169,2,8,B|80:380|80:380|-8:360,1,150,8|0,0:0|0:0,0:0:0:0:
4,284,32938,2,0,P|-4:236|8:176,1,100,8|0,0:0|0:0,0:0:0:0:
20,148,33399,2,8,B|92:132|92:132|180:152,1,150,8|0,0:0|0:0,0:0:0:0:
244,172,34169,2,0,P|292:180|344:172,1,100,8|0,0:0|0:0,0:0:0:0:
376,152,34630,2,0,P|444:160|448:240,1,150,8|0,0:0|0:0,0:0:0:0:
424,304,35399,1,8,0:0:0:0:
328,228,35861,6,0,P|256:212|168:236,1,150,4|0,0:0|0:0,0:0:0:0:
180,308,36630,2,0,P|132:316|80:308,1,100,8|0,0:0|0:0,0:0:0:0:
49,283,37092,2,0,P|95:238|103:155,1,150,8|0,0:0|0:0,0:0:0:0:
84,78,37861,1,8,0:0:0:0:
14,179,38323,2,0,B|-6:107|-6:107|12:31,1,150,8|0,0:0|0:0,0:0:0:0:
83,79,39092,2,0,P|131:91|187:75,1,100,8|0,0:0|0:0,0:0:0:0:
217,67,39553,2,0,P|237:127|221:167,1,100,8|0,0:0|0:0,0:0:0:0:
234,199,40015,2,0,P|322:239|414:199,1,200
458,266,40938,22,0,P|386:310|262:310,1,200,4|0,0:0|0:0,0:0:0:0:
198,283,41861,2,0,P|106:247|-10:271,1,200,8|8,0:0|0:0,0:0:0:0:
4,96,43092,1,8,0:0:0:0:
152,36,43707,2,0,P|164:88|148:144,1,100,8|0,0:0|0:0,0:0:0:0:
84,88,44323,2,0,B|68:156|68:156|96:204|80:288,1,200,8|8,0:0|0:0,0:0:0:0:
220,364,45553,5,8,0:0:0:0:
144,340,45861,2,0,P|224:284|300:356,1,200,0|0,0:0|0:0,0:0:0:0:
372,360,46784,2,0,B|396:304|396:304|356:240|388:156,1,200,8|8,0:0|0:0,0:0:0:0:
264,64,48015,2,0,P|284:160|256:268,1,200,8|8,0:0|0:0,0:0:0:0:
188,220,48938,2,0,B|176:268|176:268|188:324,1,100,0|8,0:0|0:0,0:0:0:0:
108,340,49553,2,0,L|60:128,2,200,8|0|12,0:0|0:0|0:0,0:0:0:0:
268,340,51399,6,0,P|336:316|420:352,1,150,0|8,0:0|0:0,0:0:0:0:
428,220,52323,2,0,P|396:128|444:24,2,200,8|8|0,0:0|0:0|0:0,0:0:0:0:
360,264,53861,1,0,0:0:0:0:
304,208,54169,2,0,P|272:116|184:48,1,200,8|8,0:0|0:0,0:0:0:0:
36,68,55399,5,0,0:0:0:0:
64,144,55707,2,0,B|44:204|44:204|88:260|80:336,1,200,8|0,0:0|0:0,0:0:0:0:
160,332,56630,2,0,B|152:259|196:203|196:203|176:143,1,200,8|8,0:0|0:0,0:0:0:0:
256,192,58015,12,4,60476,0:0:0:0:
456,152,61246,38,0,P|448:204|460:260,1,100,8|0,0:0|0:0,0:0:0:0:
408,316,61861,2,0,P|360:324|304:312,1,100,8|0,0:0|0:0,0:0:0:0:
236,280,62476,1,8,0:0:0:0:
144,204,62938,22,0,P|136:132|204:92,1,150,8|0,0:0|0:0,0:0:0:0:
272,116,63707,2,0,P|316:133|372:122,1,100,8|0,0:0|0:0,0:0:0:0:
420,64,64323,2,0,P|448:112|440:164,1,100,8|0,0:0|0:0,0:0:0:0:
392,220,64938,1,8,0:0:0:0:
328,320,65399,22,0,B|272:300|272:300|220:296|184:348,1,150,12|0,0:0|0:0,0:0:0:0:
116,360,66169,2,0,P|128:312|112:252,1,100,8|0,0:0|0:0,0:0:0:0:
48,212,66784,2,0,P|36:260|56:324,1,100,8|0,0:0|0:0,0:0:0:0:
116,360,67399,1,8,0:0:0:0:
200,272,67861,6,0,B|232:236|232:236|280:212|336:244,1,150,12|0,0:0|0:0,0:0:0:0:
384,308,68630,2,0,P|412:240|368:160,1,150,8|4,0:0|0:0,0:0:0:0:
148,108,70015,21,0,0:0:0:0:
148,108,70323,2,4,P|128:164|152:256,1,150,8|0,0:0|0:0,0:0:0:0:
204,308,71092,2,0,P|228:252|216:204,1,100,8|0,0:0|0:0,0:0:0:0:
280,160,71707,2,0,P|364:80|440:164,1,250,8|0,0:0|0:0,0:0:0:0:
360,160,72784,22,0,B|356:236|356:236|372:324,1,150,8|0,0:0|0:0,0:0:0:0:
296,344,73553,2,0,L|276:240,1,100,8|0,0:0|0:0,0:0:0:0:
204,280,74169,2,0,P|135:373|45:303,1,250,8|0,0:0|0:0,0:0:0:0:
124,292,75246,6,0,B|108:240|108:240|148:200|128:140,1,150,12|0,0:0|0:0,0:0:0:0:
56,176,76015,2,0,B|40:128|40:128|56:60,1,100,8|0,0:0|0:0,0:0:0:0:
132,68,76630,2,0,P|180:80|232:64,1,100,8|0,0:0|0:0,0:0:0:0:
308,56,77246,2,0,P|384:64|412:132,1,150,8|0,0:0|0:0,0:0:0:0:
348,240,78169,2,0,B|308:256|308:256|284:240|256:232|256:232|228:240|204:256|204:256|164:240,2,200,0|4|0,0:0|0:0|0:0,0:0:0:0:
452,128,80169,22,0,P|380:140|292:124,1,150,12|0,0:0|0:0,0:0:0:0:
256,192,80938,2,8,B|244:240|244:240|260:304,1,100,8|0,0:0|0:0,0:0:0:0:
336,288,81553,2,0,P|256:368|176:280,1,250,8|0,0:0|0:0,0:0:0:0:
256,288,82630,54,0,B|272:216|272:216|256:136,1,150,8|0,0:0|0:0,0:0:0:0:
180,164,83399,2,0,L|108:88,1,100,8|0,0:0|0:0,0:0:0:0:
32,108,84015,2,0,B|44:184|84:224|84:224|156:236|168:316,1,250,8|0,0:0|0:0,0:0:0:0:
240,328,85092,54,0,B|312:352|312:352|396:328,1,150,12|0,0:0|0:0,0:0:0:0:
432,268,85861,2,0,P|420:220|440:160,1,100,8|0,0:0|0:0,0:0:0:0:
380,108,86476,2,0,P|352:152|340:204,1,100,8|0,0:0|0:0,0:0:0:0:
348,280,87092,1,8,0:0:0:0:
256,192,87553,12,4,90015,0:0:0:0:
16,316,99707,5,0,0:0:0:0:
76,264,100015,2,2,P|120:252|172:264,1,100,6|0,0:0|0:0,0:0:0:0:
244,304,100630,1,0,0:0:0:0:
312,348,100938,2,0,B|408:376|408:376|508:348,2,200,2|0|2,0:0|0:0|0:0,0:0:0:0:
444,260,102784,38,0,P|452:220|444:148,1,100,0|2,0:0|0:0,0:0:0:0:
368,172,103399,2,0,P|404:96|516:120,1,200,2|0,0:0|0:0,0:0:0:0:
372,20,104630,5,0,0:0:0:0:
372,20,104938,2,0,P|328:44|264:44,1,100,2|0,0:0|0:0,0:0:0:0:
200,48,105553,1,0,0:0:0:0:
124,76,105861,2,0,P|72:156|132:240,2,200,2|0|2,0:0|0:0|0:0,0:0:0:0:
248,192,107707,22,0,L|144:152,1,100,2|0,0:0|0:0,0:0:0:0:
200,88,108323,2,0,B|272:116|272:116|304:128|324:160|324:160|380:176,1,200,2|0,0:0|0:0,0:0:0:0:
396,252,109246,2,0,P|452:188|388:96,1,200,2|12,0:0|0:0,0:0:0:0:
375,174,110169,22,0,P|332:200|316:268,1,100,8|0,0:0|0:0,0:0:0:0:
320,324,110784,2,0,P|220:340|112:304,1,200,8|0,0:0|0:0,0:0:0:0:
76,252,111707,2,0,P|88:204|68:144,1,100,8|0,0:0|0:0,0:0:0:0:
20,96,112323,2,0,P|72:76|128:92,1,100,8|0,0:0|0:0,0:0:0:0:
172,140,112938,1,0,0:0:0:0:
176,220,113246,2,0,B|232:216|251:158|251:158|301:178|356:154,1,200,8|0,0:0|0:0,0:0:0:0:
392,92,114169,6,0,P|424:136|420:192,1,100,8|0,0:0|0:0,0:0:0:0:
400,256,114784,2,0,P|344:244|296:260,1,100,8|0,0:0|0:0,0:0:0:0:
236,304,115399,1,0,0:0:0:0:
204,380,115707,2,0,P|156:292|216:224,1,200,8|8,0:0|0:0,0:0:0:0:
256,192,117092,12,4,119553,0:0:0:0:
56,232,120323,22,0,P|64:180|52:124,1,100,8|0,0:0|0:0,0:0:0:0:
104,68,120938,2,0,P|152:60|208:72,1,100,8|0,0:0|0:0,0:0:0:0:
280,100,121553,1,8,0:0:0:0:
372,176,122015,38,0,P|380:248|312:288,1,150,8|0,0:0|0:0,0:0:0:0:
236,260,122784,2,0,P|192:243|136:254,1,100,8|0,0:0|0:0,0:0:0:0:
80,316,123399,2,0,P|56:264|60:216,1,100,8|0,0:0|0:0,0:0:0:0:
124,160,124015,1,8,0:0:0:0:
200,48,124476,6,0,B|256:68|256:68|308:72|344:20,1,150,12|0,0:0|0:0,0:0:0:0:
424,16,125246,2,0,P|416:64|428:124,1,100,8|0,0:0|0:0,0:0:0:0:
500,164,125861,2,0,P|508:116|496:56,1,100,8|0,0:0|0:0,0:0:0:0:
424,16,126476,1,8,0:0:0:0:
256,192,126938,12,0,128169,0:0:0:0:
176,328,129092,37,0,0:0:0:0:
176,328,129399,2,0,B|104:352|104:352|20:324,1,150,12|0,0:0|0:0,0:0:0:0:
8,252,130169,2,0,P|20:200|8:148,1,100,8|0,0:0|0:0,0:0:0:0:
84,120,130784,2,0,B|120:188|120:188|96:240|116:285|116:285|188:336,1,250,8|0,0:0|0:0,0:0:0:0:
248,360,131861,22,0,P|320:364|368:300,1,150,8|0,0:0|0:0,0:0:0:0:
288,292,132630,2,0,L|204:236,1,100,8|0,0:0|0:0,0:0:0:0:
161,305,133246,2,0,P|136:192|248:168,1,250,8|0,0:0|0:0,0:0:0:0:
204,236,134323,6,0,B|276:256|276:256|364:232,1,150,8|0,0:0|0:0,0:0:0:0:
404,180,135092,2,0,P|412:136|384:80,1,100,8|0,0:0|0:0,0:0:0:0:
332,144,135707,2,0,P|280:156|236:144,1,100,8|0,0:0|0:0,0:0:0:0:
160,116,136323,2,0,P|76:96|12:120,1,150,8|0,0:0|0:0,0:0:0:0:
120,184,137246,2,0,P|208:180|224:72,2,200
300,312,139246,38,0,B|376:328|376:328|448:312,1,150,12|0,0:0|0:0,0:0:0:0:
424,236,140015,2,0,P|416:180|428:128,1,100,8|0,0:0|0:0,0:0:0:0:
504,140,140630,2,0,B|521:135|549:99|537:47|489:27|453:43|453:43|417:63|371:40,1,250,8|0,0:0|0:0,0:0:0:0:
324,104,141707,6,0,P|296:172|296:248,1,150,12|0,0:0|0:0,0:0:0:0:
216,256,142476,2,0,P|212:208|188:148,1,100,8|0,0:0|0:0,0:0:0:0:
156,88,143092,2,0,B|110:111|74:91|74:91|38:75|-10:95|-22:147|6:183|23:188,1,250,8|0,0:0|0:0,0:0:0:0:
92,228,144169,6,0,P|124:296|120:372,1,150,12|0,0:0|0:0,0:0:0:0:
200,368,144938,2,0,P|204:320|192:252,1,100,8|0,0:0|0:0,0:0:0:0:
264,224,145553,2,0,P|276:270|280:344,1,100,8|0,0:0|0:0,0:0:0:0:
352,360,146169,1,8,0:0:0:0:
256,192,146630,12,4,149092,0:0:0:0:
108,344,168784,6,0,P|80:272|116:200,2,150.000005722046,6|0|2,0:0|0:0|0:0,0:0:0:0:
404,344,171245,2,0,P|432:272|396:200,2,150.000005722046,2|0|2,0:0|0:0|0:0,0:0:0:0:
256,304,173707,6,0,B|280:232|280:232|256:160,2,150.000005722046,2|0|2,0:0|0:0|0:0,0:0:0:0:
56,24,176168,2,0,B|32:96|32:96|56:168,2,150.000005722046,2|0|2,0:0|0:0|0:0,0:0:0:0:
184,228,178630,54,0,P|164:304|100:344,2,150.000005722046,6|0|2,0:0|0:0|0:0,0:0:0:0:
328,228,181091,2,0,P|348:304|412:344,2,150.000005722046,2|0|2,0:0|0:0|0:0,0:0:0:0:
324,64,183553,2,0,P|256:40|180:68,2,150.000005722046,2|0|2,0:0|0:0|0:0,0:0:0:0:
256,296,186014,6,0,L|256:136,1,150.000005722046,2|0,0:0|0:0,0:0:0:0:
256,24,187245,1,4,0:0:0:0:
60,276,188475,6,0,B|80:204|80:204|56:120,1,150,8|0,0:0|0:0,0:0:0:0:
36,56,189245,2,0,P|92:44|152:64,1,100,8|0,0:0|0:0,0:0:0:0:
168,76,189706,2,8,B|240:92|240:92|328:72,1,150,8|0,0:0|0:0,0:0:0:0:
380,28,190475,2,0,P|396:76|376:128,1,100,8|0,0:0|0:0,0:0:0:0:
360,156,190937,2,0,P|332:228|368:296,1,150,8|0,0:0|0:0,0:0:0:0:
300,340,191706,6,0,B|252:328|252:328|196:344,1,100,8|0,0:0|0:0,0:0:0:0:
164,352,192168,2,0,B|92:372|92:372|4:348,1,150,8|0,0:0|0:0,0:0:0:0:
24,272,192937,2,0,P|32:208|28:164,1,100,8|0,0:0|0:0,0:0:0:0:
24,132,193398,2,0,B|72:112|72:112|108:140|188:120,1,150,8|0,0:0|0:0,0:0:0:0:
232,76,194168,6,0,P|248:128|228:180,1,100,8|0,0:0|0:0,0:0:0:0:
212,200,194629,2,0,B|192:240|192:240|192:312|260:336,1,150,8|0,0:0|0:0,0:0:0:0:
320,336,195398,2,0,L|408:256,1,100,8|0,0:0|0:0,0:0:0:0:
420,240,195860,2,0,P|396:168|428:88,1,150,8|0,0:0|0:0,0:0:0:0:
376,32,196629,22,8,P|328:24|264:36,1,100,8|0,0:0|0:0,0:0:0:0:
240,48,197091,2,0,P|168:64|80:44,1,150,8|0,0:0|0:0,0:0:0:0:
52,120,197860,2,0,P|120:140|208:140,1,150,8|4,0:0|0:0,0:0:0:0:
48,332,207859,5,0,0:0:0:0:
48,332,208167,2,0,P|120:320|208:336,1,150,12|0,0:0|0:0,0:0:0:0:
244,268,208936,2,0,B|256:220|256:220|240:156,1,100,8|0,0:0|0:0,0:0:0:0:
164,172,209551,2,0,P|248:92|324:176,1,250,8|0,0:0|0:0,0:0:0:0:
396,208,210628,6,0,B|420:144|420:144|388:112|392:60,1,150,8|0,0:0|0:0,0:0:0:0:
472,80,211398,2,0,P|496:123|497:172,1,100,8|0,0:0|0:0,0:0:0:0:
468,248,212013,2,0,B|452:300|368:316|368:316|336:252|252:276,1,250,8|0,0:0|0:0,0:0:0:0:
296,348,213090,6,0,B|224:364|224:364|128:344,1,150,12|0,0:0|0:0,0:0:0:0:
88,296,213859,2,0,L|56:196,1,100,8|0,0:0|0:0,0:0:0:0:
32,124,214474,2,0,B|84:116|84:116|148:128,1,100,8|0,0:0|0:0,0:0:0:0:
168,196,215090,2,0,P|176:272|240:336,1,150,8|0,0:0|0:0,0:0:0:0:
340,348,216013,2,0,P|420:296|512:348,2,200,8|4|8,0:0|0:0|0:0,0:0:0:0:
304,232,217705,21,0,0:0:0:0:
312,152,218013,2,0,B|356:136|396:164|396:164|432:204|496:204|540:164|560:108|528:52|484:32,1,350,4|0,0:0|0:0,0:0:0:0:
452,108,219398,2,0,P|392:72|308:72,1,150,8|0,0:0|0:0,0:0:0:0:
256,124,220167,1,0,0:0:0:0:
196,180,220474,6,0,B|152:204|112:172|112:172|76:132|12:132|-32:172|-48:228|-20:284|24:304,1,350,4|0,0:0|0:0,0:0:0:0:
56,228,221859,2,0,P|116:264|200:264,1,150,8|0,0:0|0:0,0:0:0:0:
256,212,222628,1,0,0:0:0:0:
328,176,222936,6,0,P|404:156|484:184,1,150,8|0,0:0|0:0,0:0:0:0:
488,96,223705,2,8,P|440:80|376:80,1,100,8|0,0:0|0:0,0:0:0:0:
312,92,224321,2,0,P|264:112|212:108,1,100,8|0,0:0|0:0,0:0:0:0:
140,80,224936,1,8,0:0:0:0:
256,192,225398,12,4,227859,0:0:0:0:
24,248,228628,6,0,P|68:224|124:212,1,100
132,176,229090,2,0,B|112:104|112:104|132:32,1,150,0|4,0:0|0:0,0:0:0:0:
208,52,229859,2,0,P|256:64|316:44,1,100
340,32,230321,2,0,P|412:16|492:36,1,150
464,112,231090,22,0,P|456:176|468:220,1,100
440,244,231551,2,0,B|397:238|375:203|375:203|344:182|301:190,1,150,0|4,0:0|0:0,0:0:0:0:
324,268,232321,2,0,P|276:280|212:260,1,100
192,252,232782,2,0,B|120:232|120:232|32:256,1,150
8,180,233551,6,0,L|112:152,1,100
144,156,234013,2,0,B|212:176|212:176|240:144|292:148,1,150,0|4,0:0|0:0,0:0:0:0:
276,228,234782,2,0,L|384:228,1,100
404,200,235244,2,0,P|428:132|400:56,1,150
456,0,236013,6,0,P|484:36|504:96,1,100
508,128,236474,2,0,P|496:204|456:272,1,150,0|4,0:0|0:0,0:0:0:0:
404,324,237244,2,0,P|356:312|300:328,1,100
272,344,237705,1,4,0:0:0:0:
256,192,237859,12,0,240321,0:0:0:0:
