osu file format v12

[General]
AudioFilename: MuryokuP - Sweet Sweet Cendrillon Drug.mp3
AudioLeadIn: 1000
PreviewTime: 69853
Countdown: 0
SampleSet: Soft
StackLeniency: 0.7
Mode: 0
LetterboxInBreaks: 0

[Editor]
DistanceSpacing: 1
BeatDivisor: 4
GridSize: 4

[Metadata]
Title:Sweet Sweet Cendrillon Drug
TitleUnicode:Sweet Sweet Cendrillon Drug
Artist:MuryokuP
ArtistUnicode:MuryokuP
Creator:Smoothie
Version:Easy
Source:
Tags:VOCALOID Megurine Luka Leda uz uzP kz Remix Ao Rock inaba-tan qoot8123
BeatmapID:207857
BeatmapSetID:72834

[Difficulty]
HPDrainRate:2
CircleSize:3
OverallDifficulty:3
ApproachRate:3
SliderMultiplier:0.8
SliderTickRate:1

[Events]
//Background and Video events
0,0,"BG.jpg",0,0
Video,150,"Sweet Sweet Cendrillon Drug.avi"
//Break Periods
2,90215,98575
2,149292,167344
2,198521,206419
//Storyboard Layer 0 (Background)
//Storyboard Layer 1 (Fail)
//Storyboard Layer 2 (Pass)
//Storyboard Layer 3 (Foreground)
//Storyboard Sound Samples
//Background Colour Transformations
3,100,163,162,255

[TimingPoints]
323,307.692307692308,4,2,0,60,1,0
1553,-100,4,2,1,20,0,0
21092,-100,4,1,1,80,0,0
40938,-100,4,1,1,40,0,0
50784,-100,4,1,1,80,0,0
60476,-100,4,2,1,45,0,0
62476,-100,4,1,1,80,0,0
70323,-100,4,1,1,80,0,1
90015,-100,4,1,0,80,0,0
100015,-100,4,1,0,30,0,0
100938,-100,4,2,0,30,0,0
107707,-100,4,2,0,20,0,0
109246,-100,4,2,0,50,0,0
109861,-100,4,1,1,60,0,0
119553,-100,4,2,1,70,0,0
122015,-100,4,1,1,80,0,0
126938,-100,4,2,1,45,0,0
129092,-100,4,1,1,30,0,0
129399,-100,4,1,1,80,0,1
149092,-100,4,1,1,60,0,0
149246,307.692307692308,4,2,0,60,1,0
168784,307.692307692308,4,2,0,60,1,0
168784,-133.333333333333,4,2,2,50,0,0
187245,-133.333333333333,4,1,1,50,0,0
188322,307.692307692308,4,2,0,60,1,0
188475,-100,4,1,1,80,0,0
198475,307.692307692308,4,1,0,60,1,0
208167,-100,4,1,1,80,0,1
227859,-100,4,1,1,80,0,0
238013,-100,4,2,1,60,0,0
240244,-100,4,2,1,5,0,0

[Colours]
Combo1 : 128,128,128
Combo2 : 255,255,255
Combo3 : 228,139,139
Combo4 : 206,250,253
Combo5 : 102,167,198

[HitObjects]
180,276,1553,2,0,P|100:296|12:268,2,160
256,192,3399,1,0,0:0:0:0:
312,96,4015,2,0,P|388:72|468:100,2,160
152,264,6476,6,0,P|128:192|156:108,2,160
256,308,8323,1,0,0:0:0:0:
360,264,8938,2,0,P|384:192|360:113,2,160
144,316,11399,6,0,P|172:344|216:356,2,80
108,272,12322,2,0,P|84:200|108:120,1,160
188,48,13553,2,0,P|210:126|186:198,2,160
300,40,15399,1,0,0:0:0:0:
408,68,16015,6,0,L|452:136,1,80
472,188,16630,2,0,P|488:224|488:272,1,80
488,320,17246,2,0,P|420:348|340:316,1,160
256,192,18630,12,4,21092,0:0:0:0:
256,212,21861,21,8,0:0:0:0:
224,96,22323,2,0,P|124:72|32:96,1,200,8|0,0:0|0:0,0:0:0:0:
32,216,23553,2,0,P|132:240|224:216,1,200,8|0,0:0|0:0,0:0:0:0:
324,148,24784,2,0,P|344:216|332:268,1,120,8|0,0:0|0:0,0:0:0:0:
384,328,25553,2,0,P|412:280|420:200,1,120,8|8,0:0|0:0,0:0:0:0:
332,40,26784,5,8,0:0:0:0:
228,100,27246,2,0,P|134:71|38:99,1,200,8|0,0:0|0:0,0:0:0:0:
40,220,28476,2,0,P|136:248|240:212,1,200,8|0,0:0|0:0,0:0:0:0:
352,204,29707,2,0,P|320:260|276:296,1,120,8|0,0:0|0:0,0:0:0:0:
204,324,30476,2,0,P|140:332|68:324,1,120,8|12,0:0|0:0,0:0:0:0:
136,136,31707,5,8,0:0:0:0:
220,48,32169,2,0,B|288:24|288:24|356:68|420:56,1,200,8|0,0:0|0:0,0:0:0:0:
484,152,33399,2,0,B|416:176|416:176|348:132|284:144,1,200,8|0,0:0|0:0,0:0:0:0:
176,160,34630,2,0,P|136:248|180:340,1,200,8|0,0:0|0:0,0:0:0:0:
256,244,35861,6,0,B|296:252|312:240|312:240|344:224|384:232|408:272|388:316,1,200,8|0,0:0|0:0,0:0:0:0:
460,216,37092,2,0,P|376:156|276:168,1,200,8|0,0:0|0:0,0:0:0:0:
212,260,38323,2,0,P|119:268|35:208,1,200,8|0,0:0|0:0,0:0:0:0:
104,112,39553,22,0,L|220:64,1,120,8|0,0:0|0:0,0:0:0:0:
296,68,40323,2,0,L|368:112,1,80,8|0,0:0|0:0,0:0:0:0:
428,160,40938,6,0,P|420:200|432:236,1,80,8|0,0:0|0:0,0:0:0:0:
468,308,41553,1,0,0:0:0:0:
400,348,41861,2,0,P|318:336|247:363,2,160,8|8|8,0:0|0:0|0:0,0:0:0:0:
444,280,43399,1,0,0:0:0:0:
416,204,43707,6,0,L|368:132,1,80,8|0,0:0|0:0,0:0:0:0:
324,72,44323,2,0,P|256:108|184:64,1,160,8|0,0:0|0:0,0:0:0:0:
256,28,45246,2,0,L|256:192,1,160,8|0,0:0|0:0,0:0:0:0:
296,260,46169,6,0,P|256:268|208:256,1,80,0|0,0:0|0:0,0:0:0:0:
180,332,46784,2,0,P|256:348|344:328,2,160,8|8|8,0:0|0:0|0:0,0:0:0:0:
118,280,48323,1,0,0:0:0:0:
80,208,48630,2,0,B|84:164|84:164|80:128,1,80,8|0,0:0|0:0,0:0:0:0:
108,52,49246,1,8,0:0:0:0:
164,108,49553,2,0,L|248:244,1,160
304,96,50784,21,4,0:0:0:0:
372,136,51092,1,8,0:0:0:0:
304,180,51399,2,0,P|332:208|384:216,1,80,0|8,0:0|0:0,0:0:0:0:
200,248,52323,2,0,B|144:240|108:276|32:244,2,160,8|8|8,0:0|0:0|0:0,0:0:0:0:
261,300,53861,1,0,0:0:0:0:
320,356,54169,2,0,B|386:384|422:348|478:356,1,160,8|8,0:0|0:0,0:0:0:0:
372,220,55399,5,8,0:0:0:0:
312,164,55707,2,0,B|328:124|328:124|288:72|304:4,1,160,0|0,0:0|0:0,0:0:0:0:
216,12,56630,2,0,P|220:48|204:104,1,80,0|0,0:0|0:0,0:0:0:0:
140,48,57246,2,0,P|108:136|140:240,1,200,0|8,0:0|0:0,0:0:0:0:
220,320,58476,6,0,L|252:232,1,80
292,356,59246,2,0,B|336:240|336:240|316:168|252:156,1,240,8|0,0:0|0:0,0:0:0:0:
256,192,60476,12,4,61861,0:0:0:0:
234,126,62476,6,0,L|152:40,2,120
288,68,63707,2,0,L|344:124,1,80,8|0,0:0|0:0,0:0:0:0:
292,184,64323,2,0,P|248:260|312:336,1,200,8|0,0:0|0:0,0:0:0:0:
328,256,65399,22,0,L|456:256,1,120,4|0,0:0|0:0,0:0:0:0:
472,180,66169,2,0,P|452:108|476:20,2,160,8|0|8,0:0|0:0|0:0,0:0:0:0:
256,192,67861,12,4,69092,0:0:0:0:
256,220,70323,2,0,B|236:164|276:164|252:88,1,120,4|0,0:0|0:0,0:0:0:0:
180,132,71092,2,0,L|96:276,2,160,8|0|8,0:0|0:0|0:0,0:0:0:0:
256,40,72784,6,0,B|312:56|312:56|384:36,1,120
432,88,73553,2,0,P|408:164|436:248,2,160,8|0|8,0:0|0:0|0:0,0:0:0:0:
320,48,75246,6,0,L|272:168,1,120,12|0,0:0|0:0,0:0:0:0:
204,124,76015,2,0,L|240:36,1,80,8|0,0:0|0:0,0:0:0:0:
156,32,76630,2,0,L|124:108,1,80,8|0,0:0|0:0,0:0:0:0:
52,72,77246,2,0,B|24:144|24:144|88:216|40:300,1,240,8|0,0:0|0:0,0:0:0:0:
112,336,78476,2,0,P|144:284|192:248,1,120,8|0,0:0|0:0,0:0:0:0:
288,332,79399,22,0,P|376:296|484:316,1,200,8|12,0:0|0:0,0:0:0:0:
460,192,80630,1,0,0:0:0:0:
380,200,80938,2,0,P|340:212|292:212,1,80
244,156,81553,2,0,P|156:120|48:152,1,200
36,224,82630,6,0,B|84:272|84:272|104:336,1,120,8|0,0:0|0:0,0:0:0:0:
176,340,83399,2,0,P|296:324|332:344,2,160,8|0|8,0:0|0:0|0:0,0:0:0:0:
196,220,85092,6,0,P|256:208|320:224,1,120,8|0,0:0|0:0,0:0:0:0:
372,164,85861,2,0,P|332:144|288:132,1,80,8|0,0:0|0:0,0:0:0:0:
213,134,86476,2,0,P|180:144|140:164,2,80,8|0|8,0:0|0:0|0:0,0:0:0:0:
256,192,87553,12,4,90015,0:0:0:0:
140,168,100015,6,0,B|252:220|252:112|372:168,1,240,4|2,0:0|0:0,0:0:0:0:
460,236,101553,2,0,P|384:264|304:228,1,160,0|2,0:0|0:0,0:0:0:0:
224,304,102784,2,0,P|152:276|64:316,2,160,0|2|0,0:0|0:0|0:0,0:0:0:0:
336,340,104630,37,0,0:0:0:0:
384,308,104938,2,0,P|440:212|400:96,1,240,2|2,0:0|0:0,0:0:0:0:
308,32,106476,1,0,0:0:0:0:
256,140,107092,5,2,0:0:0:0:
256,260,107707,2,0,L|256:344,1,80,0|0,0:0|0:0,0:0:0:0:
204,356,108323,2,0,B|152:332|88:364|88:364|72:304|-8:280,1,240,0|4,0:0|0:0,0:0:0:0:
52,172,109861,5,0,0:0:0:0:
100,56,110476,2,0,P|160:40|224:60,1,120,0|8,0:0|0:0,0:0:0:0:
272,164,111399,2,0,P|240:236|284:300,2,160,8|8|0,0:0|0:0|0:0,0:0:0:0:
320,100,112938,1,0,0:0:0:0:
240,88,113246,2,0,P|176:152|156:220,1,160,8|8,0:0|0:0,0:0:0:0:
128,376,114476,21,0,0:0:0:0:
48,348,114784,2,0,B|80:276|80:276|64:196,1,160,8|0,0:0|0:0,0:0:0:0:
144,196,115707,2,0,B|128:116|128:116|160:44,1,160,8|8,0:0|0:0,0:0:0:0:
269,212,117092,6,0,P|337:272|441:228,1,200,8|0,0:0|0:0,0:0:0:0:
449,112,118323,2,0,P|381:56|281:96,1,200,8|0,0:0|0:0,0:0:0:0:
256,192,119553,12,4,121246,0:0:0:0:
192,148,122015,6,0,P|184:88|208:24,1,120,8|0,0:0|0:0,0:0:0:0:
124,8,122784,2,0,L|80:84,1,80,8|0,0:0|0:0,0:0:0:0:
100,156,123399,2,0,P|124:244|88:360,1,200,8|0,0:0|0:0,0:0:0:0:
176,368,124476,6,0,L|244:252,1,120,8|0,0:0|0:0,0:0:0:0:
280,196,125246,2,0,P|248:128|168:120,2,160,8|0|8,0:0|0:0|0:0,0:0:0:0:
256,192,126938,12,4,128169,0:0:0:0:
256,300,129092,21,0,0:0:0:0:
336,300,129399,2,0,B|392:288|392:328|464:308,1,120,4|0,0:0|0:0,0:0:0:0:
428,232,130169,2,0,P|372:176|372:96,2,160,8|0|8,0:0|0:0|0:0,0:0:0:0:
308,244,131861,6,0,B|256:224|256:224|184:248,1,120
160,316,132630,2,0,B|104:344|60:288|0:320,2,160,8|0|8,0:0|0:0|0:0,0:0:0:0:
272,360,134323,22,0,L|316:248,1,120,12|0,0:0|0:0,0:0:0:0:
396,264,135092,2,0,L|364:344,1,80,8|0,0:0|0:0,0:0:0:0:
444,360,135707,2,0,L|476:276,1,80,8|0,0:0|0:0,0:0:0:0:
452,204,136323,2,0,P|408:104|516:60,1,240,8|0,0:0|0:0,0:0:0:0:
484,132,137553,2,0,L|360:76,1,120,8|0,0:0|0:0,0:0:0:0:
260,48,138476,54,0,P|176:88|84:48,1,200,8|12,0:0|0:0,0:0:0:0:
36,160,139707,1,0,0:0:0:0:
112,184,140015,2,0,P|200:280|96:356,1,280,8|8,0:0|0:0,0:0:0:0:
268,368,141707,54,0,L|372:300,1,120,8|0,0:0|0:0,0:0:0:0:
420,240,142476,2,0,P|396:168|424:84,2,160,8|0|8,0:0|0:0|0:0,0:0:0:0:
312,292,144169,22,0,P|252:312|192:284,1,120,12|0,0:0|0:0,0:0:0:0:
256,232,144938,2,0,L|256:148,1,80,8|0,0:0|0:0,0:0:0:0:
296,80,145553,2,0,P|256:72|216:80,2,80,8|0|0,0:0|0:0|0:0,0:0:0:0:
256,192,146630,12,4,149092,0:0:0:0:
136,284,168784,22,0,B|139:252|121:227|121:227|83:192|90:125|157:100|203:139,1,240.000009155274,4|2,0:0|0:0,0:0:0:0:
376,284,171245,2,0,B|372:252|390:227|390:227|428:192|421:125|354:100|308:139,1,240.000009155274,0|2,0:0|0:0,0:0:0:0:
132,284,173707,54,0,B|84:172|176:172|128:52,1,240.000009155274,4|2,0:0|0:0,0:0:0:0:
380,52,176168,2,0,B|332:172|424:172|376:284,1,240.000009155274,0|2,0:0|0:0,0:0:0:0:
140,336,178630,5,4,0:0:0:0:
372,276,179860,1,2,0:0:0:0:
372,36,181091,1,0,0:0:0:0:
140,96,182322,1,2,0:0:0:0:
148,336,183553,54,0,B|188:300|232:348|256:300|256:300|276:348|324:300|360:340,1,240.000009155274,4|2,0:0|0:0,0:0:0:0:
360,100,186014,2,0,P|256:48|148:104,1,240.000009155274,0|4,0:0|0:0,0:0:0:0:
24,328,188475,22,0,B|68:292|68:292|112:348|208:348,1,200,12|0,0:0|0:0,0:0:0:0:
316,348,189706,2,0,B|398:348|442:292|442:292|486:328,1,200,8|0,0:0|0:0,0:0:0:0:
468,208,190937,2,0,P|420:120|476:40,1,200,8|0,0:0|0:0,0:0:0:0:
348,60,192168,2,0,L|208:224,1,200,8|0,0:0|0:0,0:0:0:0:
124,288,193398,6,0,P|44:240|68:140,1,200,8|0,0:0|0:0,0:0:0:0:
168,96,194629,2,0,P|248:144|231:237,1,200,8|0,0:0|0:0,0:0:0:0:
348,204,195860,2,0,P|331:297|411:345,1,200,8|0,0:0|0:0,0:0:0:0:
476,244,197091,2,0,L|432:128,1,120,8|0,0:0|0:0,0:0:0:0:
388,68,197860,2,0,B|328:92|328:92|296:148,1,120,0|4,0:0|0:0,0:0:0:0:
256,300,207859,5,0,0:0:0:0:
336,300,208167,2,0,B|388:288|408:328|464:304,1,120,4|0,0:0|0:0,0:0:0:0:
428,232,208936,2,0,P|372:176|372:96,2,160,8|0|8,0:0|0:0|0:0,0:0:0:0:
336,300,210628,22,0,L|228:364,1,120
168,316,211398,2,0,P|92:292|12:320,2,160,8|0|8,0:0|0:0|0:0,0:0:0:0:
228,212,213090,6,0,L|272:100,1,120,8|0,0:0|0:0,0:0:0:0:
336,52,213859,2,0,P|352:92|344:136,1,80,8|0,0:0|0:0,0:0:0:0:
336,208,214474,2,0,P|376:204|416:172,1,80,8|0,0:0|0:0,0:0:0:0:
472,132,215090,2,0,P|520:240|476:356,1,240,8|0,0:0|0:0,0:0:0:0:
400,348,216321,2,0,B|344:336|344:336|276:348,1,120,8|4,0:0|0:0,0:0:0:0:
164,364,217244,2,0,P|104:376|36:360,1,120,8|0,0:0|0:0,0:0:0:0:
56,284,218013,22,0,B|64:244|48:224|48:224|24:184|40:116|96:88|148:100|184:132,1,280,4|0,0:0|0:0,0:0:0:0:
120,188,219398,2,0,L|224:248,1,120,8|0,0:0|0:0,0:0:0:0:
296,284,220167,1,0,0:0:0:0:
248,348,220474,54,0,B|270:372|322:384|378:352|390:288|374:256|374:256|352:228|360:184,1,280,4|0,0:0|0:0,0:0:0:0:
436,208,221859,2,0,B|452:160|452:160|440:132|440:92,1,120,8|0,0:0|0:0,0:0:0:0:
380,40,222628,1,0,0:0:0:0:
320,92,222936,54,0,B|320:132|308:160|308:160|324:208,1,120,8|0,0:0|0:0,0:0:0:0:
252,244,223705,2,0,L|224:160,1,80,8|0,0:0|0:0,0:0:0:0:
148,188,224321,2,0,L|176:268,2,80,8|0|8,0:0|0:0|0:0,0:0:0:0:
256,192,225398,12,4,227859,0:0:0:0:
440,48,228628,21,0,0:0:0:0:
488,160,229090,2,0,B|444:196|444:196|400:140|304:140,1,200,8|0,0:0|0:0,0:0:0:0:
196,140,230321,2,0,B|114:140|70:196|70:196|26:160,1,200,8|0,0:0|0:0,0:0:0:0:
16,280,231551,54,0,P|124:292|208:356,1,200,8|0,0:0|0:0,0:0:0:0:
316,344,232782,2,0,P|389:292|497:280,1,200,8|0,0:0|0:0,0:0:0:0:
412,196,234013,2,0,P|356:128|392:24,1,200,8|0,0:0|0:0,0:0:0:0:
268,40,235244,54,0,P|194:91|86:103,1,200,8|0,0:0|0:0,0:0:0:0:
32,208,236474,2,0,B|92:192|92:192|148:208,1,120,8|0,0:0|0:0,0:0:0:0:
228,200,237244,2,0,P|268:156|324:136,1,120,0|4,0:0|0:0,0:0:0:0:
256,192,238013,12,0,240321,0:0:0:0:
