osu file format v12

[General]
AudioFilename: MuryokuP - Sweet Sweet Cendrillon Drug.mp3
AudioLeadIn: 1000
PreviewTime: 69853
Countdown: 0
SampleSet: Soft
StackLeniency: 0.7
Mode: 0
LetterboxInBreaks: 0

[Editor]
DistanceSpacing: 0.8
BeatDivisor: 4
GridSize: 4

[Metadata]
Title:Sweet Sweet Cendrillon Drug
TitleUnicode:Sweet Sweet Cendrillon Drug
Artist:MuryokuP
ArtistUnicode:MuryokuP
Creator:Smoothie
Version:Cendrillon
Source:
Tags:VOCALOID Megurine Luka Leda uz uzP kz Remix Ao Rock inaba-tan qoot8123
BeatmapID:207846
BeatmapSetID:72834

[Difficulty]
HPDrainRate:7
CircleSize:4
OverallDifficulty:7
ApproachRate:9
SliderMultiplier:1.7
SliderTickRate:2

[Events]
//Background and Video events
0,0,"BG.jpg",0,0
Video,150,"Sweet Sweet Cendrillon Drug.avi"
//Break Periods
2,90215,99107
2,149292,168184
2,198521,207259
//Storyboard Layer 0 (Background)
//Storyboard Layer 1 (Fail)
//Storyboard Layer 2 (Pass)
//Storyboard Layer 3 (Foreground)
//Storyboard Sound Samples
//Background Colour Transformations
3,100,163,162,255

[TimingPoints]
323,307.692307692308,4,2,0,60,1,0
1246,-200,4,2,1,20,0,0
21092,-86.9565217391304,4,1,1,80,0,0
40938,-86.9565217391304,4,1,1,50,0,0
50784,-86.9565217391304,4,1,1,80,0,0
59707,-86.9565217391304,4,2,1,70,0,0
60476,-86.9565217391304,4,1,1,50,0,0
70323,-80,4,1,1,80,0,1
78169,-80,4,2,0,80,0,1
78323,-80,4,1,0,80,0,1
78476,-80,4,2,0,80,0,1
78630,-80,4,1,0,80,0,1
78784,-80,4,2,0,80,0,1
78938,-80,4,1,1,80,0,1
90015,-80,4,1,0,80,0,0
99707,-133.333333333333,4,2,0,30,0,0
100015,-133.333333333333,4,1,0,50,0,0
100323,-133.333333333333,4,2,0,30,0,0
107707,-133.333333333333,4,2,0,20,0,0
108323,-200,4,2,0,20,0,0
109323,-200,4,2,0,35,0,0
109476,-200,4,2,0,40,0,0
109630,-200,4,2,0,45,0,0
109861,-86.9565217391304,4,1,1,70,0,0
118784,-86.9565217391304,4,2,0,60,0,0
118938,-86.9565217391304,4,2,0,65,0,0
119092,-86.9565217391304,4,2,0,70,0,0
119246,-86.9565217391304,4,2,0,75,0,0
119399,-86.9565217391304,4,2,0,80,0,0
119553,-86.9565217391304,4,1,1,80,0,0
119861,-86.9565217391304,4,1,1,50,0,0
127015,-86.9565217391304,4,2,1,40,0,0
129092,-86.9565217391304,4,1,1,30,0,0
129399,-80,4,1,1,80,0,1
137246,-80,4,2,1,80,0,1
137399,-80,4,1,1,80,0,1
137553,-80,4,2,1,80,0,1
137707,-80,4,1,1,80,0,1
137861,-80,4,2,1,80,0,1
138015,-80,4,1,1,80,0,1
149092,-80,4,1,1,80,0,0
149246,307.692307692308,4,2,0,60,1,0
168784,307.692307692308,4,2,0,60,1,0
168784,-200,4,2,2,50,0,0
187245,-200,4,1,1,50,0,0
188322,307.692307692308,4,2,0,60,1,0
188475,-80,4,1,1,80,0,0
197860,-80,4,1,1,20,0,0
197937,-80,4,1,1,30,0,0
198014,-80,4,1,1,40,0,0
198091,-80,4,1,1,50,0,0
198168,-80,4,1,1,60,0,0
198245,-80,4,1,1,70,0,0
198322,-80,4,1,1,80,0,0
198475,307.692307692308,4,1,0,80,1,0
208167,-80,4,1,1,80,0,1
216013,-80,4,2,1,80,0,1
216167,-80,4,1,1,80,0,1
216321,-80,4,2,1,80,0,1
216475,-80,4,1,1,80,0,1
216628,-80,4,2,1,80,0,1
216782,-80,4,1,1,80,0,1
218013,-80,4,1,1,80,0,1
218782,-80,4,2,1,80,0,1
218936,-80,4,1,1,80,0,1
220013,-80,4,2,1,80,0,1
220167,-80,4,1,1,80,0,1
221244,-80,4,2,1,80,0,1
221398,-80,4,1,1,80,0,1
222475,-80,4,2,1,80,0,1
222628,-80,4,1,1,80,0,1
225859,-80,4,2,1,80,0,1
225936,-80,4,1,1,80,0,1
226167,-80,4,2,1,80,0,1
226244,-80,4,1,1,80,0,1
226475,-80,4,2,1,80,0,1
226551,-80,4,1,1,80,0,1
227090,-80,4,2,1,80,0,1
227167,-80,4,1,1,80,0,1
227859,-86.9565217391304,4,1,1,80,0,0
228321,-86.9565217391304,4,2,1,80,0,0
228475,-86.9565217391304,4,1,1,80,0,0
229551,-86.9565217391304,4,2,1,80,0,0
229705,-86.9565217391304,4,1,1,80,0,0
230782,-86.9565217391304,4,2,1,80,0,0
230936,-86.9565217391304,4,1,1,80,0,0
232013,-86.9565217391304,4,2,1,80,0,0
232167,-86.9565217391304,4,1,1,80,0,0
233244,-86.9565217391304,4,2,1,80,0,0
233398,-86.9565217391304,4,1,1,80,0,0
234475,-86.9565217391304,4,2,1,80,0,0
234628,-86.9565217391304,4,1,1,80,0,0
235705,-86.9565217391304,4,2,1,80,0,0
235859,-86.9565217391304,4,1,1,80,0,0
236936,-86.9565217391304,4,2,1,80,0,0
237013,-86.9565217391304,4,1,1,80,0,0
237782,-86.9565217391304,4,2,0,60,0,0
240244,-86.9565217391304,4,2,0,5,0,0

[Colours]
Combo1 : 128,128,128
Combo2 : 255,255,255
Combo3 : 228,139,139
Combo4 : 206,250,253
Combo5 : 102,167,198

[HitObjects]
104,308,1246,5,0,0:0:0:0:
68,240,1553,1,0,0:0:0:0:
68,164,1861,1,0,0:0:0:0:
104,96,2169,1,0,0:0:0:0:
172,60,2476,2,0,P|256:48|340:60,1,170,0|0,0:0|0:0,0:0:0:0:
404,104,3399,5,0,0:0:0:0:
452,164,3707,2,0,P|440:248|456:332,1,170
384,356,4630,2,0,P|348:380|296:376,1,85
328,308,5246,2,0,P|286:295|256:253,1,85
328,232,5861,2,0,P|310:192|323:141,1,85
388,184,6476,5,0,0:0:0:0:
384,108,6784,1,0,0:0:0:0:
316,72,7092,1,0,0:0:0:0:
256,120,7399,2,0,P|180:152|96:112,1,170
112,44,8323,1,0,0:0:0:0:
180,76,8630,2,0,B|180:124|180:124|168:200|168:200|180:244,1,170
220,308,9553,2,0,P|256:328|312:332,1,85
284,260,10169,2,0,P|322:245|361:204,1,85
288,180,10784,2,0,P|301:141|295:85,1,85
240,48,11399,5,0,0:0:0:0:
312,20,11707,1,0,0:0:0:0:
372,68,12015,1,0,0:0:0:0:
364,144,12322,2,0,P|360:188|372:244,1,85
432,188,12938,2,0,P|463:219|513:246,1,85
464,308,13553,22,0,P|380:312|308:372,1,170
240,348,14476,2,0,P|204:328|180:280,1,85
256,272,15092,2,0,P|248:231|269:182,1,85
324,236,15707,2,0,P|349:204|401:188,1,85
396,264,16322,5,0,0:0:0:0:
460,220,16630,1,0,0:0:0:0:
452,144,16938,1,0,0:0:0:0:
384,112,17246,2,0,P|364:72|368:24,1,85
388,192,17861,2,0,P|344:181|310:147,1,85
256,192,18630,12,0,20784,0:0:0:0:
216,176,21092,6,0,B|172:140|124:164|124:164|96:212|28:204,1,195.500003728867,4|0,0:0|0:0,0:0:0:0:
56,128,21553,2,0,P|44:80|60:28,1,97.7500018644333
216,176,21861,2,0,P|228:224|212:276,2,97.7500018644333,8|0|0,0:0|0:0|0:0,0:0:0:0:
200,100,22323,2,0,B|256:64|296:88|296:88|324:136|388:128,1,195.500003728867,12|0,0:0|0:0,0:0:0:0:
440,176,22784,5,0,0:0:0:0:
432,200,22861,1,0,0:0:0:0:
424,224,22938,1,0,0:0:0:0:
416,248,23015,1,0,0:0:0:0:
408,272,23092,2,0,B|356:264|356:264|312:272,1,97.7500018644333,8|0,0:0|0:0,0:0:0:0:
256,324,23399,1,0,0:0:0:0:
256,324,23553,2,0,P|164:356|60:308,1,195.500003728867,8|0,0:0|0:0,0:0:0:0:
16,272,24015,2,0,P|28:220|16:164,1,97.7500018644333
100,232,24323,22,0,P|100:184|80:128,1,97.7500018644333,8|0,0:0|0:0,0:0:0:0:
20,84,24630,1,0,0:0:0:0:
20,84,24784,2,0,B|76:52|116:56|116:56|148:104|208:96,1,195.500003728867,8|0,0:0|0:0,0:0:0:0:
256,48,25246,2,0,P|304:32|364:40,1,97.7500018644333
392,104,25553,1,8,0:0:0:0:
392,104,25630,1,0,0:0:0:0:
392,104,25707,1,0,0:0:0:0:
332,156,25861,1,0,0:0:0:0:
256,136,26015,6,0,B|216:104|164:120|164:120|120:176|64:168,1,195.500003728867,8|0,0:0|0:0,0:0:0:0:
44,236,26476,2,0,P|32:284|44:336,1,97.7500018644333
196,384,26784,2,0,P|208:336|196:284,2,97.7500018644333,8|0|0,0:0|0:0|0:0,0:0:0:0:
128,312,27246,2,0,P|160:228|256:244,1,195.500003728867,8|0,0:0|0:0,0:0:0:0:
300,300,27707,1,0,0:0:0:0:
320,313,27784,1,0,0:0:0:0:
343,321,27861,1,0,0:0:0:0:
367,323,27938,1,0,0:0:0:0:
392,324,28015,6,0,B|444:312|444:312|492:324,1,97.7500018644333,8|0,0:0|0:0,0:0:0:0:
492,244,28323,1,0,0:0:0:0:
492,244,28476,2,0,B|508:192|508:192|488:168|488:168|520:112|484:56,1,195.500003728867,8|0,0:0|0:0,0:0:0:0:
416,20,28938,2,0,P|408:72|424:120,1,97.7500018644333,0|0,0:0|0:0,0:0:0:0:
304,244,29246,2,0,P|260:268|208:276,2,97.7500018644333,8|0|0,0:0|0:0|0:0,0:0:0:0:
364,188,29707,2,0,B|320:148|276:160|276:160|240:212|168:192,1,195.500003728867,8|0,0:0|0:0,0:0:0:0:
120,128,30169,5,0,0:0:0:0:
96,133,30246,1,0,0:0:0:0:
74,145,30323,1,0,0:0:0:0:
57,162,30399,1,0,0:0:0:0:
44,183,30476,1,0,0:0:0:0:
37,206,30553,1,0,0:0:0:0:
37,230,30630,1,0,0:0:0:0:
42,254,30707,1,0,0:0:0:0:
54,275,30784,1,0,0:0:0:0:
71,293,30861,1,0,0:0:0:0:
88,308,30938,22,0,B|130:344|170:340|170:340|222:312|294:352,1,195.500003728867,12|0,0:0|0:0,0:0:0:0:
344,372,31399,2,0,P|396:380|448:368,1,97.7500018644333
336,296,31707,2,0,P|288:268|236:256,2,97.7500018644333,8|0|0,0:0|0:0|0:0,0:0:0:0:
408,260,32169,2,0,P|324:204|224:180,1,195.500003728867,8|0,0:0|0:0,0:0:0:0:
156,200,32630,1,0,0:0:0:0:
136,212,32707,1,0,0:0:0:0:
116,224,32784,1,0,0:0:0:0:
96,236,32861,1,0,0:0:0:0:
76,248,32938,6,0,P|64:196|80:148,2,97.7500018644333,8|0|0,0:0|0:0|0:0,0:0:0:0:
120,312,33399,2,0,B|160:368|208:356|208:356|256:308|300:320,1,195.500003728867,8|0,0:0|0:0,0:0:0:0:
352,364,33861,1,0,0:0:0:0:
432,368,34015,1,0,0:0:0:0:
484,316,34169,2,0,P|472:264|492:212,1,97.7500018644333,8|0,0:0|0:0,0:0:0:0:
508,148,34476,1,0,0:0:0:0:
472,80,34630,2,0,B|432:25|384:37|384:37|356:80|304:72,1,195.500003728867,8|0,0:0|0:0,0:0:0:0:
236,108,35092,2,0,P|188:116|136:108,1,97.7500018644333
24,184,35399,6,0,P|72:176|124:184,1,97.7500018644333,8|0,0:0|0:0,0:0:0:0:
152,208,35630,1,0,0:0:0:0:
180,232,35707,1,0,0:0:0:0:
344,352,35861,2,0,B|388:324|376:268|376:268|332:232|348:168,1,195.500003728867,8|0,0:0|0:0,0:0:0:0:
420,204,36323,2,0,P|464:188|516:208,1,97.7500018644333
344,352,36630,2,0,P|300:368|248:348,1,97.7500018644333,8|0,0:0|0:0,0:0:0:0:
188,308,36938,1,0,0:0:0:0:
176,212,37092,2,0,B|189:159|145:123|145:123|132:76|164:20,1,195.500003728867,8|0,0:0|0:0,0:0:0:0:
224,96,37553,2,0,P|248:144|252:196,1,97.7500018644333
300,260,37861,6,0,P|352:272|412:264,1,97.7500018644333,8|0,0:0|0:0,0:0:0:0:
468,240,38169,1,0,0:0:0:0:
424,176,38323,2,0,P|396:88|460:16,1,195.500003728867,8|0,0:0|0:0,0:0:0:0:
336,208,38784,2,0,L|308:156,2,48.8750009322167,8|0|0,0:0|0:0|0:0,0:0:0:0:
332,16,39092,2,0,L|304:64,2,48.8750009322167,8|0|0,0:0|0:0|0:0,0:0:0:0:
188,116,39399,2,0,L|248:116,2,48.8750009322167,8|0|0,0:0|0:0|0:0,0:0:0:0:
124,160,39707,22,0,P|112:116|126:64,1,97.7500018644333,8|0,0:0|0:0,0:0:0:0:
84,228,40015,2,0,P|40:212|3:177,1,97.7500018644333,8|0,0:0|0:0,0:0:0:0:
136,288,40323,2,0,P|100:320|48:332,1,97.7500018644333,8|0,0:0|0:0,0:0:0:0:
168,220,40630,1,8,0:0:0:0:
168,220,40707,1,0,0:0:0:0:
168,220,40784,1,0,0:0:0:0:
304,364,40938,6,12,P|352:376|404:360,1,97.7500018644333,12|0,0:0|0:0,0:0:0:0:
464,304,41246,1,0,0:0:0:0:
492,220,41399,1,0,0:0:0:0:
464,136,41553,2,0,P|416:124|364:136,1,97.7500018644333
284,116,41861,1,0,0:0:0:0:
212,64,42015,6,0,B|164:40|128:60|128:60|104:112|24:100,1,195.500003728867,8|0,0:0|0:0,0:0:0:0:
76,180,42476,2,0,P|66:215|74:275,1,97.7500018644333,8|0,0:0|0:0,0:0:0:0:
112,356,42784,2,0,P|76:384|8:372,1,97.7500018644333,8|0,0:0|0:0,0:0:0:0:
160,288,43092,2,0,P|200:260|252:264,1,97.7500018644333,8|0,0:0|0:0,0:0:0:0:
384,312,43399,2,0,P|344:340|292:336,2,97.7500018644333,8|0|0,0:0|0:0|0:0,0:0:0:0:
440,244,43861,1,0,0:0:0:0:
460,160,44015,1,0,0:0:0:0:
428,76,44169,1,0,0:0:0:0:
356,28,44323,1,0,0:0:0:0:
272,60,44476,6,0,B|232:96|184:80|184:80|156:32|80:40,1,195.500003728867,8|0,0:0|0:0,0:0:0:0:
104,128,44938,2,0,L|64:224,1,97.7500018644333,8|0,0:0|0:0,0:0:0:0:
84,304,45246,1,8,0:0:0:0:
84,304,45323,1,0,0:0:0:0:
84,304,45399,2,0,P|136:304|188:328,1,97.7500018644333,0|8,0:0|0:0,0:0:0:0:
256,360,45707,1,0,0:0:0:0:
344,348,45861,22,0,L|384:252,1,97.7500018644333,8|0,0:0|0:0,0:0:0:0:
372,36,46169,2,0,L|332:136,1,97.7500018644333
268,328,46476,2,0,P|276:284|260:228,1,97.7500018644333
284,48,46784,1,0,0:0:0:0:
236,148,46938,2,0,B|196:184|148:168|148:168|120:120|44:128,1,195.500003728867,8|0,0:0|0:0,0:0:0:0:
72,216,47399,2,0,P|60:264|80:320,1,97.7500018644333,8|0,0:0|0:0,0:0:0:0:
236,148,47707,2,0,P|248:100|228:44,1,97.7500018644333,8|0,0:0|0:0,0:0:0:0:
168,248,48015,2,0,P|156:296|176:352,1,97.7500018644333,8|0,0:0|0:0,0:0:0:0:
244,292,48323,6,0,B|272:248|328:264|328:264|356:308|424:308,1,195.500003728867,8|0,0:0|0:0,0:0:0:0:
432,96,48938,1,8,0:0:0:0:
380,168,49092,1,0,0:0:0:0:
460,200,49246,1,8,0:0:0:0:
512,132,49399,1,0,0:0:0:0:
432,96,49553,6,0,P|380:84|328:100,1,97.7500018644333,0|0,0:0|0:0,0:0:0:0:
300,116,49784,1,0,0:0:0:0:
260,136,49861,2,0,B|212:148|212:148|152:132,1,97.7500018644333
80,156,50169,1,0,0:0:0:0:
71,178,50246,1,0,0:0:0:0:
62,201,50323,1,0,0:0:0:0:
53,224,50399,1,0,0:0:0:0:
44,246,50476,1,0,0:0:0:0:
35,269,50553,1,0,0:0:0:0:
26,292,50630,1,0,0:0:0:0:
17,315,50707,1,0,0:0:0:0:
8,337,50784,6,0,B|100:308|100:308|220:344,1,195.500003728867,12|0,0:0|0:0,0:0:0:0:
256,272,51246,1,0,0:0:0:0:
296,88,51399,2,0,P|344:76|396:92,2,97.7500018644333,8|0|0,0:0|0:0|0:0,0:0:0:0:
293,163,51861,2,0,P|224:108|260:20,1,195.500003728867,8|0,0:0|0:0,0:0:0:0:
364,216,52323,2,0,P|376:264|364:312,1,97.7500018644333,8|0,0:0|0:0,0:0:0:0:
208,224,52630,2,0,L|304:264,1,97.7500018644333,8|0,0:0|0:0,0:0:0:0:
136,176,52938,2,8,P|125:219|137:271,1,97.7500018644333,8|0,0:0|0:0,0:0:0:0:
60,140,53246,22,0,P|96:104|144:92,2,97.7500018644333,8|0|0,0:0|0:0|0:0,0:0:0:0:
4,216,53707,1,0,0:0:0:0:
20,304,53861,1,0,0:0:0:0:
100,340,54015,1,0,0:0:0:0:
184,300,54169,1,0,0:0:0:0:
256,252,54323,2,0,P|344:216|444:264,1,195.500003728867,8|0,0:0|0:0,0:0:0:0:
432,344,54784,2,0,P|420:300|436:244,1,97.7500018644333,8|0,0:0|0:0,0:0:0:0:
472,172,55092,1,8,0:0:0:0:
472,172,55169,1,0,0:0:0:0:
472,172,55246,2,0,B|428:148|428:148|388:108,1,97.7500018644333,0|8,0:0|0:0,0:0:0:0:
420,32,55553,1,0,0:0:0:0:
332,48,55707,6,0,P|308:92|312:148,1,97.7500018644333,8|0,0:0|0:0,0:0:0:0:
340,336,56015,2,0,P|312:296|312:244,1,97.7500018644333
240,52,56323,2,0,L|204:148,1,97.7500018644333
232,324,56630,1,0,0:0:0:0:
184,244,56784,2,0,B|136:216|100:240|100:240|72:284|4:280,1,195.500003728867,8|0,0:0|0:0,0:0:0:0:
28,196,57246,2,0,P|20:152|36:96,2,97.7500018644333,8|0|0,0:0|0:0|0:0,0:0:0:0:
185,338,57707,2,0,P|196:296|184:244,1,97.7500018644333,8|0,0:0|0:0,0:0:0:0:
136,152,58015,6,0,B|160:112|220:104|220:104|248:140|304:152,1,195.500003728867,8|0,0:0|0:0,0:0:0:0:
300,55,58476,2,0,P|292:100|300:151,1,97.7500018644333,8|0,0:0|0:0,0:0:0:0:
376,104,58784,2,0,P|400:160|440:192,1,97.7500018644333,8|0,0:0|0:0,0:0:0:0:
500,236,59092,1,8,0:0:0:0:
432,288,59246,2,0,B|384:256|336:276|336:276|300:320|248:320,1,195.500003728867,8|0,0:0|0:0,0:0:0:0:
256,232,59707,5,2,0:0:0:0:
234,221,59784,1,0,0:0:0:0:
211,212,59861,1,0,0:0:0:0:
188,206,59938,1,0,0:0:0:0:
164,202,60015,1,2,0:0:0:0:
139,200,60092,1,0,0:0:0:0:
115,202,60169,1,0,0:0:0:0:
91,206,60246,1,0,0:0:0:0:
67,213,60323,1,4,0:0:0:0:
45,222,60399,1,0,0:0:0:0:
23,234,60476,22,0,B|-24:184|-8:136|-8:136|40:104|40:52,1,195.500003728867,4|0,0:0|0:0,0:0:0:0:
116,20,60938,2,0,P|212:36|308:20,1,195.500003728867,8|0,0:0|0:0,0:0:0:0:
392,44,61399,2,0,P|428:76|444:132,1,97.7500018644333
444,216,61707,2,0,P|348:200|252:216,1,195.500003728867,8|8,0:0|0:0,0:0:0:0:
168,248,62169,2,0,B|120:260|120:260|72:248,1,97.7500018644333,8|0,0:0|0:0,0:0:0:0:
52,172,62476,6,0,P|0:244|64:328,1,195.500003728867,8|0,0:0|0:0,0:0:0:0:
136,172,62938,2,0,B|172:136|168:84|168:84|116:52|124:-12,1,195.500003728867,8|0,0:0|0:0,0:0:0:0:
200,12,63399,2,0,P|236:48|244:104,1,97.7500018644333,8|0,0:0|0:0,0:0:0:0:
228,180,63707,1,8,0:0:0:0:
240,268,63861,1,0,0:0:0:0:
308,324,64015,1,0,0:0:0:0:
384,280,64169,2,0,B|420:244|416:192|416:192|364:160|376:96,1,195.500003728867,8|0,0:0|0:0,0:0:0:0:
449,25,64630,2,0,P|462:77|456:120,1,97.7500018644333,8|0,0:0|0:0,0:0:0:0:
384,280,64938,2,0,P|372:321|384:373,2,97.7500018644333,8|0|8,0:0|0:0|0:0,0:0:0:0:
316,144,65399,6,0,P|260:72|164:112,1,195.500003728867,4|0,0:0|0:0,0:0:0:0:
236,144,65861,2,0,L|208:240,1,97.7500018644333,8|0,0:0|0:0,0:0:0:0:
112,292,66169,2,0,L|140:196,2,97.7500018644333,8|0|8,0:0|0:0|0:0,0:0:0:0:
172,344,66630,2,0,P|88:368|32:284,1,195.500003728867,4|0,0:0|0:0,0:0:0:0:
48,204,67092,2,0,P|56:152|44:100,1,97.7500018644333,8|0,0:0|0:0,0:0:0:0:
136,96,67399,2,0,L|192:16,2,97.7500018644333,8|0|8,0:0|0:0|0:0,0:0:0:0:
196,160,67861,6,0,B|248:180|288:164|288:164|312:112|376:108,1,195.500003728867,4|0,0:0|0:0,0:0:0:0:
368,196,68323,2,0,P|376:244|364:300,1,97.7500018644333,8|0,0:0|0:0,0:0:0:0:
196,160,68630,2,0,P|188:112|200:56,2,97.7500018644333,8|0|0,0:0|0:0|0:0,0:0:0:0:
256,332,69092,1,4,0:0:0:0:
200,348,70323,22,0,B|160:304|112:308|112:308|72:352|0:340,1,212.5,4|0,0:0|0:0,0:0:0:0:
40,260,70784,2,0,L|8:152,1,106.25,8|0,0:0|0:0,0:0:0:0:
104,200,71092,2,0,L|116:88,1,106.25,8|0,0:0|0:0,0:0:0:0:
229,62,71399,2,0,L|188:160,1,106.25,8|0,0:0|0:0,0:0:0:0:
196,244,71707,1,8,0:0:0:0:
276,276,71861,1,0,0:0:0:0:
356,244,72015,2,0,P|412:240|472:248,1,106.25,8|0,0:0|0:0,0:0:0:0:
504,172,72323,1,8,0:0:0:0:
512,52,72476,6,0,P|464:60|408:52,1,106.25,0|0,0:0|0:0,0:0:0:0:
324,36,72784,2,0,B|268:12|224:28|224:28|192:76|128:76,1,212.5,12|0,0:0|0:0,0:0:0:0:
66,132,73246,2,0,P|48:88|56:32,1,106.25,8|0,0:0|0:0,0:0:0:0:
140,176,73553,2,0,P|188:152|252:152,1,106.25,8|0,0:0|0:0,0:0:0:0:
372,208,73861,2,0,P|324:232|260:232,1,106.25,8|0,0:0|0:0,0:0:0:0:
239,149,74169,1,8,0:0:0:0:
288,80,74323,1,0,0:0:0:0:
248,4,74476,1,8,0:0:0:0:
164,12,74630,1,0,0:0:0:0:
132,92,74784,1,0,0:0:0:0:
208,268,74938,6,0,P|220:320|208:372,1,106.25,8|0,0:0|0:0,0:0:0:0:
140,320,75246,2,0,B|116:264|148:212|148:212|192:176|184:120,1,212.5,12|0,0:0|0:0,0:0:0:0:
112,36,75707,2,0,P|104:88|112:140,1,106.25,8|0,0:0|0:0,0:0:0:0:
252,188,76015,2,0,P|260:136|252:84,1,106.25,8|0,0:0|0:0,0:0:0:0:
364,145,76323,2,0,P|344:194|312:236,1,106.25,8|0,0:0|0:0,0:0:0:0:
344,304,76630,2,0,P|393:284|434:251,1,106.25,8|0,0:0|0:0,0:0:0:0:
415,375,76938,2,0,P|363:383|311:375,1,106.25,8|0,0:0|0:0,0:0:0:0:
232,344,77246,2,8,B|184:304|136:320|136:320|100:372|24:356,1,212.5
64,276,77707,2,0,P|164:244|268:280,1,212.5,4|0,0:0|0:0,0:0:0:0:
344,304,78169,5,2,0:0:0:0:
420,268,78323,1,0,0:0:0:0:
456,192,78476,1,2,0:0:0:0:
420,116,78630,1,0,0:0:0:0:
344,80,78784,1,2,0:0:0:0:
264,108,78938,2,0,B|232:152|172:140|172:140|152:80|72:72,1,212.5,0|0,0:0|0:0,0:0:0:0:
60,68,79323,1,0,0:0:0:0:
28,64,79399,2,0,P|12:120|32:168,1,106.25
92,236,79707,21,0,0:0:0:0:
115,257,79784,1,0,0:0:0:0:
138,279,79861,1,0,0:0:0:0:
161,301,79938,1,0,0:0:0:0:
184,323,80015,1,0,0:0:0:0:
207,345,80092,1,0,0:0:0:0:
232,368,80169,6,4,B|296:396|340:368|340:368|368:320|440:328,1,212.5,12|0,0:0|0:0,0:0:0:0:
484,264,80630,2,0,P|500:212|492:152,1,106.25,8|0,0:0|0:0,0:0:0:0:
260,123,80938,2,0,B|296:168|296:168|344:184,1,106.25,8|0,0:0|0:0,0:0:0:0:
424,204,81246,2,0,P|411:150|382:109,1,106.25,8|0,0:0|0:0,0:0:0:0:
176,132,81553,1,8,0:0:0:0:
96,160,81707,1,0,0:0:0:0:
16,132,81861,2,0,P|24:80|16:28,1,106.25,0|8,0:0|0:0,0:0:0:0:
100,8,82169,1,0,0:0:0:0:
16,248,82323,6,0,P|8:304|20:352,1,106.25,8|0,0:0|0:0,0:0:0:0:
84,300,82630,2,0,B|128:272|172:288|172:288|216:340|288:320,1,212.5,12|0,0:0|0:0,0:0:0:0:
348,376,83092,2,0,P|360:328|344:268,1,106.25,8|0,0:0|0:0,0:0:0:0:
248,148,83399,2,0,P|236:204|248:252,1,106.25,8|0,0:0|0:0,0:0:0:0:
320,116,83707,2,0,P|280:80|220:72,1,106.25,8|0,0:0|0:0,0:0:0:0:
164,128,84015,1,8,0:0:0:0:
152,212,84169,1,0,0:0:0:0:
84,264,84323,1,0,0:0:0:0:
4,232,84476,1,8,0:0:0:0:
0,152,84630,1,0,0:0:0:0:
112,56,84784,6,0,P|168:44|214:55,1,106.25,8|0,0:0|0:0,0:0:0:0:
369,125,85092,2,0,B|320:104|272:116|272:116|224:148|164:128,1,212.5,12|0,0:0|0:0,0:0:0:0:
317,192,85553,2,0,P|364:204|420:192,1,106.25,8|0,0:0|0:0,0:0:0:0:
252,248,85861,2,0,P|296:272|350:283,1,106.25,8|0,0:0|0:0,0:0:0:0:
286,359,86169,2,0,P|340:368|392:364,1,106.25,8|0,0:0|0:0,0:0:0:0:
99,333,86476,2,0,P|152:324|204:332,1,106.25,8|0,0:0|0:0,0:0:0:0:
28,384,86784,2,0,P|16:328|36:268,1,106.25,8|0,0:0|0:0,0:0:0:0:
164,144,87092,2,0,P|176:200|156:260,2,106.25,8|0|0,0:0|0:0|0:0,0:0:0:0:
88,112,87553,2,0,P|176:68|248:144,1,212.5,8|0,0:0|0:0,0:0:0:0:
280,220,88015,22,0,P|316:264|368:284,1,106.25,8|0,0:0|0:0,0:0:0:0:
368,200,88323,1,0,0:0:0:0:
385,180,88399,1,0,0:0:0:0:
402,160,88476,1,0,0:0:0:0:
420,140,88553,1,0,0:0:0:0:
437,120,88630,1,0,0:0:0:0:
455,100,88707,1,0,0:0:0:0:
472,80,88784,2,0,P|368:44|264:88,1,212.5,8|0,0:0|0:0,0:0:0:0:
260,96,89169,1,0,0:0:0:0:
240,112,89246,2,0,P|200:80|180:24,1,106.25
124,112,89553,5,0,0:0:0:0:
131,138,89630,1,0,0:0:0:0:
132,165,89707,1,0,0:0:0:0:
130,191,89784,1,0,0:0:0:0:
123,217,89861,1,0,0:0:0:0:
76,300,90015,5,4,0:0:0:0:
188,344,99707,5,2,0:0:0:0:
119,294,100015,1,4,0:0:0:0:
145,213,100323,1,2,0:0:0:0:
230,213,100630,1,0,0:0:0:0:
256,294,100938,2,0,P|316:312|384:288,1,127.500004863739,2|0,0:0|0:0,0:0:0:0:
440,232,101553,2,0,P|380:214|312:238,1,127.500004863739,2|0,0:0|0:0,0:0:0:0:
230,213,102169,2,0,P|216:152|232:84,1,127.500004863739,2|0,0:0|0:0,0:0:0:0:
296,28,102784,21,2,0:0:0:0:
352,192,103092,1,2,0:0:0:0:
216,356,103399,1,0,0:0:0:0:
160,192,103707,1,2,0:0:0:0:
420,232,104015,1,2,0:0:0:0:
256,288,104323,1,0,0:0:0:0:
92,152,104630,5,2,0:0:0:0:
256,96,104938,2,0,P|316:80|384:100,1,127.500004863739,2|0,0:0|0:0,0:0:0:0:
452,148,105553,1,0,0:0:0:0:
420,232,105861,2,0,B|405:277|421:325|421:325|413:357,1,127.500004863739,2|0,0:0|0:0,0:0:0:0:
332,356,106476,2,0,B|324:324|324:324|340:276|324:224,1,127.500004863739,2|0,0:0|0:0,0:0:0:0:
252,284,107092,5,2,0:0:0:0:
256,60,107707,1,0,0:0:0:0:
256,68,108015,1,0,0:0:0:0:
183,103,108323,2,0,P|258:141|334:94,1,170
440,104,109169,5,2,0:0:0:0:
447,119,109246,1,0,0:0:0:0:
453,135,109323,1,0,0:0:0:0:
458,151,109399,1,0,0:0:0:0:
461,168,109476,1,2,0:0:0:0:
463,184,109553,1,0,0:0:0:0:
463,201,109630,1,2,0:0:0:0:
462,218,109707,1,0,0:0:0:0:
460,236,109784,1,0,0:0:0:0:
456,252,109861,22,0,P|440:300|396:336,1,97.7500018644333,8|0,0:0|0:0,0:0:0:0:
332,384,110169,1,0,0:0:0:0:
244,360,110323,1,0,0:0:0:0:
204,280,110476,1,0,0:0:0:0:
252,208,110630,1,0,0:0:0:0:
280,124,110784,1,0,0:0:0:0:
224,56,110938,6,0,B|176:28|128:28|128:28|104:76|40:92,1,195.500003728867,8|0,0:0|0:0,0:0:0:0:
100,164,111399,2,0,P|88:212|108:276,1,97.7500018644333,8|0,0:0|0:0,0:0:0:0:
136,340,111707,2,0,P|92:364|28:360,1,97.7500018644333,8|0,0:0|0:0,0:0:0:0:
204,280,112015,2,0,P|248:256|312:260,1,97.7500018644333,8|0,0:0|0:0,0:0:0:0:
368,328,112323,6,0,P|320:340|256:320,2,97.7500018644333,8|0|0,0:0|0:0|0:0,0:0:0:0:
436,272,112784,1,0,0:0:0:0:
460,188,112938,1,0,0:0:0:0:
436,104,113092,1,0,0:0:0:0:
368,48,113246,1,0,0:0:0:0:
280,64,113399,2,0,B|232:104|188:80|188:80|164:40|100:36,1,195.500003728867,8|0,0:0|0:0,0:0:0:0:
116,124,113861,2,0,P|128:168|112:224,1,97.7500018644333,8|0,0:0|0:0,0:0:0:0:
64,292,114169,1,8,0:0:0:0:
64,292,114246,1,0,0:0:0:0:
64,292,114323,2,0,L|152:340,1,97.7500018644333,0|8,0:0|0:0,0:0:0:0:
228,380,114630,1,0,0:0:0:0:
316,376,114784,6,0,P|308:328|320:272,1,97.7500018644333,8|0,0:0|0:0,0:0:0:0:
316,60,115092,2,0,P|308:108|320:164,1,97.7500018644333,0|0,0:0|0:0,0:0:0:0:
228,380,115399,2,0,L|200:276,1,97.7500018644333,0|0,0:0|0:0,0:0:0:0:
232,68,115707,1,0,0:0:0:0:
208,180,115861,2,0,B|156:200|116:184|116:184|92:132|28:128,1,195.500003728867,8|0,0:0|0:0,0:0:0:0:
36,216,116323,2,0,P|28:264|40:320,2,97.7500018644333,8|0|0,0:0|0:0|0:0,0:0:0:0:
207,84,116784,2,0,P|216:132|208:180,1,97.7500018644333,8|0,0:0|0:0,0:0:0:0:
188,268,117092,22,0,B|244:304|288:280|288:280|312:240|376:240,1,195.500003728867,8|0,0:0|0:0,0:0:0:0:
366,335,117553,2,0,P|356:292|363:240,1,97.7500018644333,8|0,0:0|0:0,0:0:0:0:
436,284,117861,2,0,P|456:232|496:196,1,97.7500018644333,8|0,0:0|0:0,0:0:0:0:
508,128,118169,1,8,0:0:0:0:
432,96,118323,2,0,B|384:128|336:108|336:108|300:64|248:64,1,195.500003728867,8|0,0:0|0:0,0:0:0:0:
256,152,118784,5,4,0:0:0:0:
234,163,118861,1,0,0:0:0:0:
211,172,118938,1,0,0:0:0:0:
188,178,119015,1,0,0:0:0:0:
164,182,119092,1,4,0:0:0:0:
139,184,119169,1,0,0:0:0:0:
115,182,119246,1,0,0:0:0:0:
91,178,119323,1,2,0:0:0:0:
67,171,119399,1,6,0:0:0:0:
45,162,119476,1,2,0:0:0:0:
23,150,119553,6,0,B|-24:200|-8:248|-8:248|40:280|40:332,1,195.500003728867,4|0,0:0|0:0,0:0:0:0:
116,364,120015,2,8,P|212:348|308:364,1,195.500003728867,8|0,0:0|0:0,0:0:0:0:
392,340,120476,2,0,P|428:308|444:252,1,97.7500018644333
444,168,120784,2,0,P|348:184|252:168,1,195.500003728867,8|8,0:0|0:0,0:0:0:0:
192,104,121246,2,0,P|168:148|172:196,1,97.7500018644333,8|0,0:0|0:0,0:0:0:0:
268,88,121553,6,0,P|196:28|116:88,1,195.500003728867,8|0,0:0|0:0,0:0:0:0:
96,160,122015,2,0,B|132:196|128:248|128:248|76:280|84:344,1,195.500003728867,8|0,0:0|0:0,0:0:0:0:
160,320,122476,2,0,P|208:308|264:324,1,97.7500018644333,8|0,0:0|0:0,0:0:0:0:
260,224,122784,2,0,P|312:248|344:288,1,97.7500018644333,8|0,0:0|0:0,0:0:0:0:
332,364,123092,1,0,0:0:0:0:
419,376,123246,2,0,P|459:288|415:200,1,195.500003728867,8|0,0:0|0:0,0:0:0:0:
420,204,123707,2,0,P|372:215|317:201,1,97.7500018644333,8|0,0:0|0:0,0:0:0:0:
272,140,124015,2,0,P|260:92|276:44,1,97.7500018644333,8|0,0:0|0:0,0:0:0:0:
344,96,124323,1,0,0:0:0:0:
336,184,124476,22,4,P|248:212|196:132,1,195.500003728867,12|4,0:0|0:0,0:0:0:0:
108,128,124938,2,8,P|58:147|26:177,1,97.7500018644333,8|0,0:0|0:0,0:0:0:0:
156,60,125246,2,0,P|104:52|60:62,1,97.7500018644333,8|0,0:0|0:0,0:0:0:0:
40,264,125553,1,0,0:0:0:0:
102,212,125707,2,8,B|158:188|202:204|202:204|228:248|284:252,1,195.500003728867,8|0,0:0|0:0,0:0:0:0:
280,172,126169,2,0,P|264:128|263:77,1,97.7500018644333,8|0,0:0|0:0,0:0:0:0:
413,50,126476,2,0,P|370:76|340:112,1,97.7500018644333,8|0,0:0|0:0,0:0:0:0:
368,184,126784,1,0,0:0:0:0:
316,244,126938,1,4,0:0:0:0:
256,192,127015,12,0,128323,0:0:0:0:
256,340,129092,5,0,0:0:0:0:
256,340,129246,1,0,0:0:0:0:
257,340,129399,2,0,B|309:300|357:324|357:324|385:376|453:372,1,212.5,4|0,0:0|0:0,0:0:0:0:
431,189,129861,2,0,P|420:240|432:292,1,106.25,8|0,0:0|0:0,0:0:0:0:
394,114,130169,2,0,P|359:152|344:204,1,106.25,8|0,0:0|0:0,0:0:0:0:
400,35,130476,2,0,P|351:51|312:88,1,106.25,8|0,0:0|0:0,0:0:0:0:
256,152,130784,1,8,0:0:0:0:
256,236,130938,1,0,0:0:0:0:
200,296,131092,2,0,P|148:304|96:296,1,106.25,8|0,0:0|0:0,0:0:0:0:
24,252,131399,1,8,0:0:0:0:
24,68,131553,6,0,P|76:76|132:68,1,106.25,0|0,0:0|0:0,0:0:0:0:
212,48,131861,2,0,B|268:24|312:40|312:40|344:88|408:88,1,212.5,12|0,0:0|0:0,0:0:0:0:
464,28,132323,2,0,P|488:84|480:127,1,106.25,8|0,0:0|0:0,0:0:0:0:
412,180,132630,2,0,P|364:156|312:150,1,106.25,8|0,0:0|0:0,0:0:0:0:
336,228,132938,2,0,P|378:259|408:304,1,106.25,8|0,0:0|0:0,0:0:0:0:
256,180,133246,5,8,0:0:0:0:
324,316,133399,1,0,0:0:0:0:
332,140,133553,1,8,0:0:0:0:
256,264,133707,1,0,0:0:0:0:
412,180,133861,1,0,0:0:0:0:
79,142,134015,38,0,P|68:96|80:40,1,106.25,8|0,0:0|0:0,0:0:0:0:
148,92,134323,2,0,B|168:148|144:200|144:200|96:240|108:304,1,212.5,12|0,0:0|0:0,0:0:0:0:
184,376,134784,2,0,P|196:320|180:264,1,106.25,8|0,0:0|0:0,0:0:0:0:
256,116,135092,2,0,L|256:222,1,106.25,8|0,0:0|0:0,0:0:0:0:
328,376,135399,2,0,P|316:320|327:273,1,106.25,8|0,0:0|0:0,0:0:0:0:
456,164,135707,2,0,P|496:188|512:244,1,106.25,8|0,0:0|0:0,0:0:0:0:
389,325,136015,2,0,P|406:270|440:236,1,106.25,8|0,0:0|0:0,0:0:0:0:
372,184,136323,2,0,B|340:236|280:220|280:220|248:168|176:176,1,212.5
12,256,136784,2,0,P|112:292|212:252,1,212.5,4|0,0:0|0:0,0:0:0:0:
256,184,137246,5,2,0:0:0:0:
204,104,137399,1,0,0:0:0:0:
256,24,137553,1,2,0:0:0:0:
308,104,137707,1,0,0:0:0:0:
356,20,137861,1,2,0:0:0:0:
408,104,138015,2,0,B|464:140|456:200|456:200|416:232|416:296,1,212.5,4|0,0:0|0:0,0:0:0:0:
412,308,138399,1,0,0:0:0:0:
408,328,138476,2,0,P|356:344|300:328,1,106.25
268,264,138784,5,0,0:0:0:0:
256,240,138861,1,0,0:0:0:0:
244,216,138938,1,0,0:0:0:0:
232,192,139015,1,0,0:0:0:0:
220,168,139092,1,0,0:0:0:0:
208,144,139169,1,0,0:0:0:0:
196,120,139246,22,0,B|156:76|108:80|108:80|68:124|-4:112,1,212.5,4|0,0:0|0:0,0:0:0:0:
40,36,139707,2,0,P|88:8|152:12,1,106.25,8|0,0:0|0:0,0:0:0:0:
116,266,140015,2,0,P|112:216|128:164,1,106.25,8|0,0:0|0:0,0:0:0:0:
230,319,140323,2,0,P|201:278|188:224,1,106.25,8|0,0:0|0:0,0:0:0:0:
351,304,140630,2,0,P|306:284|268:244,1,106.25,8|0,0:0|0:0,0:0:0:0:
356,220,140938,2,0,P|412:212|472:224,1,106.25,8|0,0:0|0:0,0:0:0:0:
460,220,141246,1,8,0:0:0:0:
512,52,141399,6,0,P|464:60|408:52,1,106.25,0|0,0:0|0:0,0:0:0:0:
324,36,141707,2,0,B|268:12|224:28|224:28|192:76|128:76,1,212.5,12|0,0:0|0:0,0:0:0:0:
66,132,142169,2,0,P|48:88|56:32,1,106.25,8|0,0:0|0:0,0:0:0:0:
239,149,142476,2,0,P|188:152|140:176,1,106.25,8|0,0:0|0:0,0:0:0:0:
312,256,142784,2,0,P|265:232|212:229,1,106.25,8|0,0:0|0:0,0:0:0:0:
384,213,143092,21,8,0:0:0:0:
244,304,143246,1,0,0:0:0:0:
386,293,143399,1,8,0:0:0:0:
307,177,143553,1,0,0:0:0:0:
319,335,143707,1,0,0:0:0:0:
241,47,143861,54,0,P|288:36|344:48,1,106.25,8|0,0:0|0:0,0:0:0:0:
292,120,144169,2,0,B|232:140|184:108|184:108|136:96|80:120,1,212.5,12|0,0:0|0:0,0:0:0:0:
36,184,144630,2,0,P|92:196|138:184,1,106.25,8|0,0:0|0:0,0:0:0:0:
204,240,144938,2,0,P|160:264|104:276,1,106.25,8|0,0:0|0:0,0:0:0:0:
292,248,145246,2,0,P|265:290|224:328,1,106.25,8|0,0:0|0:0,0:0:0:0:
370,212,145553,2,0,P|368:262|352:316,1,106.25,8|0,0:0|0:0,0:0:0:0:
424,148,145861,2,0,P|448:191|459:246,1,106.25,8|0,0:0|0:0,0:0:0:0:
431,68,146169,2,0,P|474:94|512:136,2,106.25,8|0|0,0:0|0:0|0:0,0:0:0:0:
348,44,146630,2,0,P|252:60|268:160,1,212.5,4|0,0:0|0:0,0:0:0:0:
284,236,147092,38,0,P|252:284|208:304,1,106.25
204,220,147399,1,0,0:0:0:0:
184,200,147476,1,0,0:0:0:0:
164,180,147553,1,0,0:0:0:0:
144,160,147630,1,0,0:0:0:0:
124,140,147707,1,0,0:0:0:0:
104,120,147784,1,0,0:0:0:0:
84,100,147861,2,0,B|28:124|20:192|20:192|84:232|60:300,1,212.5,4|0,0:0|0:0,0:0:0:0:
60,296,148246,1,0,0:0:0:0:
52,320,148322,2,0,P|100:336|152:320,1,106.25
224,276,148630,5,0,0:0:0:0:
244,260,148707,1,0,0:0:0:0:
264,244,148784,2,0,P|320:232|376:248,1,106.25
440,284,149092,1,4,0:0:0:0:
180,284,168784,38,0,L|100:164,2,127.5,6|2|2,0:0|0:0|0:0,0:0:0:0:
332,284,170014,2,0,L|412:164,2,127.5,2|2|2,0:0|0:0|0:0,0:0:0:0:
195,159,171245,2,0,P|255:144|319:160,2,127.5,2|2|2,0:0|0:0|0:0,0:0:0:0:
256,216,172476,1,2,0:0:0:0:
256,292,172937,1,2,0:0:0:0:
256,368,173399,1,2,0:0:0:0:
428,296,173707,6,0,P|444:240|424:168,1,127.5,6|2,0:0|0:0,0:0:0:0:
152,148,174783,1,2,0:0:0:0:
84,88,174937,2,0,P|68:144|88:216,1,127.5,2|2,0:0|0:0,0:0:0:0:
248,368,176014,1,2,0:0:0:0:
248,368,176168,2,0,B|248:328|248:328|256:280|256:280|256:232,1,127.5,2|2,0:0|0:0,0:0:0:0:
256,152,177245,1,2,0:0:0:0:
316,92,177399,2,0,P|256:72|192:96,2,127.5,2|2|2,0:0|0:0|0:0,0:0:0:0:
432,280,178630,54,0,L|460:236,2,42.5,6|0|2,0:0|0:0|0:0,0:0:0:0:
384,340,179091,2,0,P|348:364|296:364,1,85,2|0,0:0|0:0,0:0:0:0:
256,308,179553,1,2,0:0:0:0:
80,280,179860,2,0,L|52:236,2,42.5,2|0|2,0:0|0:0|0:0,0:0:0:0:
128,340,180322,2,0,P|164:364|216:364,1,85,2|0,0:0|0:0,0:0:0:0:
256,308,180783,1,2,0:0:0:0:
324,192,181091,6,0,L|296:144,2,42.5,2|0|2,0:0|0:0|0:0,0:0:0:0:
372,252,181553,2,0,P|400:212|392:160,1,85,2|0,0:0|0:0,0:0:0:0:
364,104,182014,1,2,0:0:0:0:
188,192,182322,2,0,L|216:144,2,42.5,2|0|2,0:0|0:0|0:0,0:0:0:0:
140,252,182783,2,0,P|112:212|120:160,1,85,2|0,0:0|0:0,0:0:0:0:
148,104,183245,1,2,0:0:0:0:
296,40,183553,54,0,P|256:32|208:44,1,85,6|2,0:0|0:0,0:0:0:0:
256,108,184014,1,2,0:0:0:0:
256,216,184322,1,2,0:0:0:0:
256,216,184476,1,2,0:0:0:0:
352,376,184783,6,0,P|388:352|408:308,1,85,6|2,0:0|0:0,0:0:0:0:
332,304,185245,1,2,0:0:0:0:
256,216,185553,1,2,0:0:0:0:
256,216,185707,1,2,0:0:0:0:
160,376,186014,54,0,P|124:352|104:308,1,85,6|2,0:0|0:0,0:0:0:0:
180,304,186476,1,2,0:0:0:0:
256,216,186783,1,2,0:0:0:0:
256,216,186937,1,2,0:0:0:0:
256,48,187245,5,4,0:0:0:0:
252,260,188475,22,0,B|228:216|228:216|248:168|248:168|204:120|240:60,1,212.5,4|0,0:0|0:0,0:0:0:0:
300,112,188937,2,0,P|324:156|312:212,1,106.25,8|0,0:0|0:0,0:0:0:0:
176,276,189245,2,0,P|152:232|160:176,2,106.25,8|0|8,0:0|0:0|0:0,0:0:0:0:
384,232,189706,2,0,P|392:128|332:44,1,212.5,4|0,0:0|0:0,0:0:0:0:
80,200,190168,2,0,P|84:256|120:320,1,106.25,8|0,0:0|0:0,0:0:0:0:
180,360,190475,5,8,0:0:0:0:
256,300,190629,1,0,0:0:0:0:
332,360,190783,1,8,0:0:0:0:
344,264,190937,2,0,P|256:216|160:272,1,212.5,4|0,0:0|0:0,0:0:0:0:
80,200,191398,2,0,P|80:152|45:93,1,106.25,8|0,0:0|0:0,0:0:0:0:
140,20,191706,22,0,P|140:76|155:125,2,106.25,8|0|8,0:0|0:0|0:0,0:0:0:0:
228,60,192168,2,0,B|272:88|272:88|312:60|312:60|364:88|428:56,1,212.5,4|0,0:0|0:0,0:0:0:0:
464,152,192629,2,0,P|412:144|356:152,1,106.25,8|0,0:0|0:0,0:0:0:0:
224,224,192937,2,0,P|276:216|328:224,1,106.25,8|0,0:0|0:0,0:0:0:0:
412,272,193245,1,8,0:0:0:0:
460,356,193398,6,0,B|416:384|416:384|376:356|376:356|324:384|268:356,1,212.5,4|0,0:0|0:0,0:0:0:0:
188,308,193860,2,0,P|144:288|88:292,1,106.25,8|0,0:0|0:0,0:0:0:0:
132,204,194168,2,0,P|76:208|20:228,2,106.25,8|0|8,0:0|0:0|0:0,0:0:0:0:
224,224,194629,2,0,B|276:224|324:192|324:192|372:224|424:224,1,212.5,4|0,0:0|0:0,0:0:0:0:
456,148,195091,2,0,P|400:144|344:104,1,106.25,8|0,0:0|0:0,0:0:0:0:
328,40,195398,6,0,P|384:44|440:84,2,106.25,8|0|8,0:0|0:0|0:0,0:0:0:0:
248,68,195860,2,0,B|208:104|208:104|148:40|44:80,1,212.5,4|0,0:0|0:0,0:0:0:0:
76,152,196321,2,0,P|128:136|168:176,1,106.25,8|0,0:0|0:0,0:0:0:0:
152,252,196629,2,0,P|100:268|63:237,2,106.25,8|0|8,0:0|0:0|0:0,0:0:0:0:
228,216,197091,1,0,0:0:0:0:
296,164,197245,5,8,0:0:0:0:
311,150,197321,1,0,0:0:0:0:
326,137,197398,1,0,0:0:0:0:
424,152,197552,1,8,0:0:0:0:
408,168,197629,1,0,0:0:0:0:
392,184,197706,1,0,0:0:0:0:
416,280,197860,22,0,L|428:308,7,26.5625
388,300,198168,2,0,L|384:332,4,26.5625,0|0|0|0|4,0:0|0:0|0:0|0:0|0:0,0:0:0:0:
88,336,207859,21,0,0:0:0:0:
88,336,208013,1,0,0:0:0:0:
88,336,208167,2,0,B|164:320|164:320|216:348|216:348|296:348,1,212.5,4|0,0:0|0:0,0:0:0:0:
360,272,208628,2,0,L|248:272,1,106.25,8|0,0:0|0:0,0:0:0:0:
432,324,208936,2,0,P|444:276|432:220,1,106.25,8|0,0:0|0:0,0:0:0:0:
308,96,209244,2,0,P|296:144|308:200,1,106.25,8|0,0:0|0:0,0:0:0:0:
376,148,209551,1,8,0:0:0:0:
384,64,209705,1,0,0:0:0:0:
316,16,209859,2,0,P|260:24|208:16,1,106.25,8|0,0:0|0:0,0:0:0:0:
140,64,210167,1,0,0:0:0:0:
24,248,210321,6,0,P|76:236|136:252,1,106.25
278,311,210628,2,0,P|180:344|80:312,1,212.5,4|0,0:0|0:0,0:0:0:0:
336,236,211090,2,0,P|368:280|368:336,1,106.25,8|0,0:0|0:0,0:0:0:0:
248,220,211398,2,0,P|276:164|328:148,1,106.25,8|0,0:0|0:0,0:0:0:0:
280,312,211705,2,0,P|224:312|168:276,1,106.25,8|0,0:0|0:0,0:0:0:0:
32,152,212013,21,8,0:0:0:0:
168,204,212167,1,0,0:0:0:0:
8,232,212321,1,8,0:0:0:0:
116,136,212474,1,0,0:0:0:0:
68,292,212628,1,0,0:0:0:0:
353,102,212782,6,0,P|364:56|352:0,1,106.25,8|0,0:0|0:0,0:0:0:0:
284,52,213090,2,0,B|264:108|288:160|288:160|336:200|324:264,1,212.5,12|0,0:0|0:0,0:0:0:0:
248,336,213551,2,0,P|236:280|252:224,1,106.25,8|0,0:0|0:0,0:0:0:0:
168,52,213859,2,0,P|198:100|202:158,1,106.25,8|0,0:0|0:0,0:0:0:0:
180,376,214167,2,0,P|149:327|145:269,1,106.25,8|0,0:0|0:0,0:0:0:0:
100,92,214474,2,8,P|112:148|96:204,1,106.25,8|0,0:0|0:0,0:0:0:0:
64,272,214782,1,8,0:0:0:0:
64,272,214936,1,0,0:0:0:0:
308,195,215090,2,0,B|320:264|280:300|256:284|232:272|200:300|204:356,1,212.5,8|0,0:0|0:0,0:0:0:0:
308,351,215551,2,0,B|312:300|280:272|256:284|232:300|192:264|203:195,1,212.5,12|0,0:0|0:0,0:0:0:0:
160,124,216013,5,2,0:0:0:0:
352,124,216167,1,0,0:0:0:0:
161,140,216321,1,2,0:0:0:0:
350,107,216474,1,0,0:0:0:0:
164,156,216628,1,2,0:0:0:0:
348,92,216782,2,0,P|448:96|492:188,1,212.5,4|0,0:0|0:0,0:0:0:0:
480,212,217167,1,0,0:0:0:0:
472,236,217244,2,0,P|460:292|480:344,1,106.25
368,360,217551,5,0,0:0:0:0:
352,338,217628,1,0,0:0:0:0:
337,316,217705,1,0,0:0:0:0:
322,294,217782,1,0,0:0:0:0:
307,272,217859,1,0,0:0:0:0:
292,251,217936,1,0,0:0:0:0:
276,229,218013,22,0,L|196:304,2,106.25,4|0|0,0:0|0:0|0:0,0:0:0:0:
184,376,218474,2,0,P|140:348|124:296,1,106.25
132,272,218705,1,0,0:0:0:0:
140,248,218782,2,0,P|156:192|136:136,1,106.25,4|0,0:0|0:0,0:0:0:0:
80,92,219090,2,0,P|64:148|84:204,1,106.25
156,72,219398,2,0,P|80:16|0:84,1,212.5
120,164,219859,1,0,0:0:0:0:
256,68,220013,1,4,0:0:0:0:
204,136,220167,6,0,P|256:152|308:136,1,106.25
511,81,220474,2,0,P|432:16|356:72,1,212.5
435,192,220936,2,0,P|448:148|432:92,1,106.25
431,91,221167,1,0,0:0:0:0:
431,91,221244,1,4,0:0:0:0:
372,144,221398,2,0,P|359:188|375:244,1,106.25
375,244,221705,1,0,0:0:0:0:
424,316,221859,2,0,L|508:248,2,106.25
344,348,222321,2,0,P|292:336|232:352,1,106.25,0|4,0:0|0:0,0:0:0:0:
214,55,222628,6,0,P|168:44|112:56,1,106.25,8|0,0:0|0:0,0:0:0:0:
164,128,222936,2,0,B|224:148|272:116|272:116|320:104|376:128,1,212.5,12|0,0:0|0:0,0:0:0:0:
420,192,223398,2,0,P|364:204|308:188,1,106.25,8|0,0:0|0:0,0:0:0:0:
252,248,223705,2,0,P|296:272|352:284,1,106.25,8|0,0:0|0:0,0:0:0:0:
392,364,224013,2,0,P|340:368|276:356,1,106.25,8|0,0:0|0:0,0:0:0:0:
99,333,224321,2,0,P|152:324|204:332,1,106.25,8|0,0:0|0:0,0:0:0:0:
28,384,224628,2,0,P|16:328|36:268,1,106.25,8|0,0:0|0:0,0:0:0:0:
164,144,224936,2,0,P|176:200|156:260,1,106.25,8|0,0:0|0:0,0:0:0:0:
96,196,225244,1,0,0:0:0:0:
88,112,225398,2,0,P|176:68|248:144,1,212.5,8|0,0:0|0:0,0:0:0:0:
300,208,225859,6,0,L|352:232,2,53.125,4|0|0,0:0|0:0|0:0,0:0:0:0:
415,137,226167,2,0,L|364:152,2,53.125,4|0|0,0:0|0:0|0:0,0:0:0:0:
372,68,226474,2,0,L|412:24,2,53.125,4|0|0,0:0|0:0|0:0,0:0:0:0:
462,81,226782,2,0,P|488:128|477:178,1,106.25
416,240,227090,1,4,0:0:0:0:
395,243,227167,1,0,0:0:0:0:
374,248,227244,1,0,0:0:0:0:
354,255,227321,1,0,0:0:0:0:
335,264,227398,1,0,0:0:0:0:
316,275,227474,1,0,0:0:0:0:
299,287,227551,1,0,0:0:0:0:
283,302,227628,1,0,0:0:0:0:
269,317,227705,1,0,0:0:0:0:
256,334,227782,1,0,0:0:0:0:
248,348,227859,22,0,P|159:381|63:349,1,195.500003728867,4|0,0:0|0:0,0:0:0:0:
157,298,228321,2,0,P|168:256|156:204,1,97.7500018644333,4|0,0:0|0:0,0:0:0:0:
96,148,228628,2,0,P|71:195|24:220,1,97.7500018644333
16,132,228936,1,0,0:0:0:0:
80,72,229090,2,0,P|180:80|228:160,1,195.500003728867,12|0,0:0|0:0,0:0:0:0:
365,231,229551,2,0,P|320:244|272:232,1,97.7500018644333,4|0,0:0|0:0,0:0:0:0:
320,168,229859,5,0,0:0:0:0:
347,157,229936,1,0,0:0:0:0:
376,156,230013,1,0,0:0:0:0:
403,166,230090,1,0,0:0:0:0:
425,186,230167,1,0,0:0:0:0:
438,212,230244,1,0,0:0:0:0:
440,240,230321,6,0,P|372:304|292:248,1,195.500003728867,12|0,0:0|0:0,0:0:0:0:
240,192,230782,2,0,P|196:168|144:168,1,97.7500018644333,4|0,0:0|0:0,0:0:0:0:
74,141,231090,2,0,P|105:106|152:88,2,97.7500018644333
90,220,231551,2,0,P|4:172|16:88,1,195.500003728867,12|0,0:0|0:0,0:0:0:0:
76,140,232013,2,0,P|162:188|150:272,1,195.500003728867,4|0,0:0|0:0,0:0:0:0:
132,296,232398,1,0,0:0:0:0:
126,324,232474,1,0,0:0:0:0:
135,352,232551,1,0,0:0:0:0:
155,373,232628,1,0,0:0:0:0:
182,382,232705,1,0,0:0:0:0:
211,377,232782,6,0,B|252:320|252:320|228:264|244:184,1,195.500003728867,12|0,0:0|0:0,0:0:0:0:
318,192,233244,2,0,P|308:244|316:288,1,97.7500018644333,4|0,0:0|0:0,0:0:0:0:
393,191,233551,2,0,P|404:140|396:96,2,97.7500018644333
320,96,234013,2,0,P|380:24|468:68,1,195.500003728867,4|0,0:0|0:0,0:0:0:0:
396,96,234474,2,0,P|336:168|248:124,1,195.500003728867,4|0,0:0|0:0,0:0:0:0:
240,116,234859,1,0,0:0:0:0:
226,95,234936,1,0,0:0:0:0:
213,74,235013,1,0,0:0:0:0:
200,54,235090,1,0,0:0:0:0:
187,33,235167,1,0,0:0:0:0:
176,12,235244,22,0,B|150:66|150:66|106:85|79:143|104:194,1,195.500003728867,12|0,0:0|0:0,0:0:0:0:
152,244,235705,2,0,P|176:200|172:148,1,97.7500018644333,4|0,0:0|0:0,0:0:0:0:
256,312,236013,1,0,0:0:0:0:
360,244,236167,2,0,P|336:200|340:148,1,97.7500018644333
336,12,236474,2,0,B|361:66|361:66|405:85|432:143|407:194,1,195.500003728867,12|0,0:0|0:0,0:0:0:0:
448,256,236936,1,4,0:0:0:0:
448,256,237013,1,0,0:0:0:0:
448,256,237090,1,0,0:0:0:0:
364,360,237244,5,0,0:0:0:0:
256,312,237398,1,0,0:0:0:0:
148,360,237551,1,0,0:0:0:0:
256,312,237705,1,4,0:0:0:0:
256,192,237782,12,0,240321,0:0:0:0:
