osu file format v13

[General]
AudioFilename: ReplicA.mp3
AudioLeadIn: 1500
PreviewTime: 125633
Countdown: 0
SampleSet: Normal
StackLeniency: 0.7
Mode: 0
LetterboxInBreaks: 1
WidescreenStoryboard: 0

[Editor]
DistanceSpacing: 1
BeatDivisor: 4
GridSize: 4
TimelineZoom: 1

[Metadata]
Title:ReplicA
TitleUnicode:ReplicA
Artist:MuryokuP
ArtistUnicode:無力P
Creator:meiikyuu
Version:Existence
Source:
Tags:vocaloid megurine luka kite klaft existence
BeatmapID:421488
BeatmapSetID:174607

[Difficulty]
HPDrainRate:7
CircleSize:4
OverallDifficulty:7
ApproachRate:9
SliderMultiplier:1.8
SliderTickRate:1

[Events]
//Background and Video events
0,0,"replica.jpg",0,0
//Break Periods
2,79810,85828
2,131628,141737
//Storyboard Layer 0 (Background)
//Storyboard Layer 1 (Fail)
//Storyboard Layer 2 (Pass)
//Storyboard Layer 3 (Foreground)
//Storyboard Sound Samples
//Background Colour Transformations
3,100,255,128,128

[TimingPoints]
519.801857828111,340.909090909091,4,2,1,70,1,0
10576,-100,4,1,1,70,0,0
33247,-111.111111111111,4,2,1,60,0,0
55065,-100,4,1,1,70,0,1
76883,-100,4,2,1,50,0,0
86428,-100,4,1,1,60,0,0
87792,-100,4,1,1,70,0,0
126315,-100,4,2,1,70,0,0
128701,-100,4,1,1,70,0,0
142337,-100,4,2,1,35,0,0
146258,-133.333333333333,4,2,1,35,0,0
152565,-100,4,2,1,45,0,0
153247,-100,4,1,1,70,0,1
153332,-100,4,2,1,70,0,0
158019,-100,4,1,1,60,0,0
158701,-100,4,1,1,70,0,1
180519,400,4,1,1,70,1,0
186119,-100,4,2,1,70,0,0
186919,-100,4,1,1,70,0,0

[Colours]
Combo1 : 152,136,170
Combo2 : 249,111,141
Combo3 : 146,97,218
Combo4 : 121,230,203

[HitObjects]
256,288,519,5,4,1:0:0:0:
388,168,860,2,0,L|372:360,1,180,0|2,0:0|0:0,0:0:0:0:
124,168,1542,2,0,L|140:360,1,180,0|2,0:0|0:0,0:0:0:0:
256,200,2224,2,0,L|256:12,2,180,0|2|0,0:0|0:0|0:0,0:0:0:0:
112,336,3247,5,4,1:0:0:0:
256,204,3587,2,0,P|336:168|428:204,1,180,0|2,0:0|0:0,0:0:0:0:
256,204,4269,2,0,P|176:168|84:204,1,180,0|0,0:0|0:0,0:0:0:0:
256,296,4951,2,0,P|308:328|428:328,2,180,0|2|0,0:0|0:0|0:0,0:0:0:0:
256,80,5974,5,4,1:0:0:0:
404,184,6315,2,0,P|388:248|280:312,1,180,0|2,0:0|0:0,0:0:0:0:
108,184,6997,2,0,P|124:248|232:312,1,180,0|2,0:0|0:0,0:0:0:0:
404,184,7678,1,0,0:0:0:0:
256,284,8019,1,2,0:0:0:0:
108,184,8360,1,0,0:0:0:0:
116,332,8701,6,0,L|172:248,1,90,4|0,1:0|0:0,0:0:0:0:
256,194,9042,2,0,L|256:284,1,90
396,332,9383,2,0,L|340:248,1,90,2|0,0:0|0:0,0:0:0:0:
340,168,9724,1,0,0:0:0:0:
136,56,10065,2,0,L|152:152,1,90,0|0,1:0|0:0,0:0:0:0:
248,188,10406,1,0,1:0:0:0:
352,180,10576,5,0,0:0:0:0:
360,220,10661,1,0,0:0:0:0:
356,260,10747,2,0,L|344:316,3,45
316,336,11087,2,0,L|160:316,1,135,0|0,1:0|2:0,0:0:0:0:
128,260,11428,6,0,L|104:156,1,90,4|0,0:0|0:0,0:0:0:0:
144,80,11769,1,0,0:0:0:0:
240,112,11940,2,0,L|336:144,2,90
288,276,12451,2,0,P|336:240|352:208,1,90
302,50,12792,2,0,P|254:86|238:118,1,90,4|0,0:0|0:0,0:0:0:0:
288,276,13133,2,0,L|388:284,1,90
420,256,13389,1,0,0:0:0:0:
440,212,13474,2,0,L|480:72,2,135
316,152,14156,6,0,L|260:72,1,90,4|0,0:0|0:0,0:0:0:0:
164,180,14497,2,0,P|144:224|144:276,1,90
144,292,14752,1,0,0:0:0:0:
156,316,14837,1,0,0:0:0:0:
256,300,15008,2,0,B|296:264|296:264|352:240|432:272,1,180
488,196,15519,2,0,P|424:152|408:44,1,180,4|0,0:0|0:0,0:0:0:0:
320,112,16031,1,0,0:0:0:0:
320,112,16116,1,0,0:0:0:0:
320,112,16201,2,0,B|296:160|296:160|260:192|212:208,2,135
196,96,16883,6,0,L|104:84,1,90,4|0,0:0|0:0,0:0:0:0:
128,200,17224,2,0,L|20:216,1,90
204,296,17565,2,0,L|112:324,2,90
288,244,18076,1,0,0:0:0:0:
356,316,18247,2,0,P|400:340|452:344,1,90
472,224,18587,2,0,P|428:200|376:196,1,90
344,200,18843,1,0,0:0:0:0:
300,208,18928,2,0,P|264:172|268:76,2,135
212,252,19610,6,0,L|108:268,1,90,4|0,0:0|0:0,0:0:0:0:
52,168,19951,2,0,L|140:154,1,90,0|0,0:0|0:0,0:0:0:0:
196,36,20292,2,0,L|108:50,2,90
280,92,20803,1,0,0:0:0:0:
376,112,20974,2,0,P|428:100|464:80,1,90
408,208,21315,2,0,L|388:316,1,90
372,340,21570,1,0,0:0:0:0:
324,360,21656,2,0,L|184:368,2,135
272,256,22337,6,0,L|252:160,1,90,4|0,0:0|0:0,0:0:0:0:
360,96,22678,2,0,L|356:196,1,90
160,152,23019,2,0,L|196:64,1,90
256,184,23360,1,0,0:0:0:0:
180,248,23531,1,0,0:0:0:0:
84,220,23701,2,0,P|40:156|96:72,1,180,0|0,0:0|0:0,0:0:0:0:
184,56,24212,1,0,0:0:0:0:
216,76,24298,1,0,0:0:0:0:
252,80,24383,2,0,P|316:84|384:52,2,135
200,184,25065,6,0,P|204:236|220:280,1,90,4|0,0:0|0:0,0:0:0:0:
312,204,25406,2,0,P|336:248|368:272,1,90
408,140,25747,2,0,P|456:160|496:160,1,90
312,100,26087,2,0,P|268:72|212:60,1,90
120,76,26428,2,0,P|144:140|236:200,1,180,4|0,0:0|0:0,0:0:0:0:
340,180,26940,1,0,0:0:0:0:
360,168,27025,1,0,0:0:0:0:
384,160,27110,2,0,B|424:204|424:204|436:248|432:284,2,135
340,268,27792,6,0,P|276:284|168:212,1,180,4|0,0:0|0:0,0:0:0:0:
144,140,28303,1,0,0:0:0:0:
220,76,28474,2,0,L|316:52,1,90
380,160,28815,2,0,L|292:181,1,90
396,72,29156,2,0,P|456:116|376:256,1,270,4|0,0:0|0:0,0:0:0:0:
336,276,29752,1,0,0:0:0:0:
300,296,29837,2,0,B|248:308|248:308|224:324|224:324|168:336,2,135
136,252,30519,6,0,P|88:240|48:216,1,90,4|0,0:0|0:0,0:0:0:0:
128,112,30860,2,0,P|176:124|216:148,1,90,0|0,0:0|0:0,0:0:0:0:
375,252,31201,2,0,P|419:241|458:219,1,90,0|0,0:0|0:0,0:0:0:0:
384,111,31542,2,0,P|340:122|301:144,1,90,0|0,0:0|0:0,0:0:0:0:
256,232,31883,2,0,P|224:276|96:288,1,180,4|0,0:0|0:0,0:0:0:0:
56,208,32394,1,0,0:0:0:0:
56,208,32480,1,0,0:0:0:0:
56,208,32565,2,0,B|40:136|40:136|60:56,2,135
144,144,33247,5,0,0:0:0:0:
308,48,33587,1,0,0:0:0:0:
368,104,33758,1,0,0:0:0:0:
292,128,33928,2,0,P|300:176|320:204,1,80.9999975280763,2|0,0:0|0:0,0:0:0:0:
388,240,34269,1,0,0:0:0:0:
360,316,34440,2,0,B|308:344|244:316|172:348,1,161.999995056153
120,336,34951,2,0,P|96:284|104:168,1,161.999995056153,0|2,0:0|0:0,0:0:0:0:
148,116,35462,2,0,L|248:96,2,80.9999975280763
180,192,35974,5,2,0:0:0:0:
180,192,36144,1,0,0:0:0:0:
280,320,36485,1,0,0:0:0:0:
280,320,36656,2,0,B|328:292|328:292|384:300|436:280,1,161.999995056153
432,200,37167,2,0,B|383:181|327:189|327:189|279:161,1,161.999995056153
272,80,37678,2,0,P|316:72|352:72,1,80.9999975280763
204,128,38019,2,0,P|160:136|124:136,1,80.9999975280763,2|0,0:0|0:0,0:0:0:0:
64,192,38360,2,0,L|88:288,1,80.9999975280763
128,340,38701,6,0,P|188:356|248:272,1,161.999995056153,2|0,0:0|0:0,0:0:0:0:
260,208,39212,2,0,P|272:268|376:300,1,161.999995056153
428,268,39724,1,0,0:0:0:0:
456,192,39894,2,0,B|468:144|436:104|436:104|424:32,1,161.999995056153
344,36,40406,2,0,L|368:204,1,161.999995056153,0|2,0:0|0:0,0:0:0:0:
428,268,40917,1,0,0:0:0:0:
292,220,41087,1,0,0:0:0:0:
252,304,41258,1,0,0:0:0:0:
164,284,41428,6,0,B|112:288|112:288|96:224|40:196,1,161.999995056153,2|0,0:0|0:0,0:0:0:0:
100,136,41940,2,0,P|160:128|208:44,1,161.999995056153
304,84,42451,2,0,P|344:104|384:108,2,80.9999975280763
248,160,42962,1,0,0:0:0:0:
232,296,43133,1,0,0:0:0:0:
284,232,43303,1,0,0:0:0:0:
328,332,43474,2,0,P|396:296|480:336,1,161.999995056153,2|0,0:0|0:0,0:0:0:0:
392,148,44156,5,2,0:0:0:0:
244,304,44497,1,0,0:0:0:0:
164,312,44667,1,0,0:0:0:0:
100,260,44837,2,0,P|68:208|88:108,1,161.999995056153
156,76,45349,2,0,P|228:104|324:88,1,161.999995056153
312,176,45860,2,0,P|384:136|408:64,1,161.999995056153,0|2,0:0|0:0,0:0:0:0:
236,204,46372,2,0,P|268:244|304:260,1,80.9999975280763
240,128,46712,1,0,0:0:0:0:
160,224,46883,5,2,0:0:0:0:
236,348,47224,1,0,0:0:0:0:
236,348,47394,1,0,0:0:0:0:
236,348,47565,2,0,P|184:324|152:224,1,161.999995056153
196,164,48076,2,0,P|248:188|280:288,1,161.999995056153
236,348,48587,1,0,0:0:0:0:
156,356,48758,1,0,0:0:0:0:
80,328,48928,1,2,0:0:0:0:
60,144,49269,5,0,0:0:0:0:
60,144,49440,1,0,0:0:0:0:
60,144,49610,2,0,P|132:116|220:156,1,161.999995056153,2|0,0:0|0:0,0:0:0:0:
252,212,50122,2,0,P|326:240|400:212,1,161.999995056153
436,140,50633,1,0,0:0:0:0:
404,64,50803,1,0,0:0:0:0:
244,96,51144,1,0,0:0:0:0:
188,156,51315,2,0,B|152:184|152:184|96:208|32:180,1,161.999995056153,0|2,0:0|0:0,0:0:0:0:
20,104,51826,1,0,0:0:0:0:
76,48,51997,1,0,0:0:0:0:
148,84,52167,1,0,0:0:0:0:
188,156,52337,6,0,P|200:208|164:328,1,161.999995056153,2|0,0:0|0:0,0:0:0:0:
324,156,53019,2,0,P|312:208|348:328,1,161.999995056153
256,96,53701,1,0,1:0:0:0:
256,96,53872,1,0,1:0:0:0:
256,320,54212,1,0,0:0:0:0:
172,288,54383,2,0,L|120:248,3,40.4999987640381,0|0|0|0,1:0|0:0|0:0|0:0,0:0:0:0:
116,224,54724,2,0,L|96:176,3,40.4999987640381,0|0|0|0,1:0|0:0|0:0|0:0,0:0:0:0:
96,136,55065,6,0,P|160:76|248:96,1,180,4|0,0:0|0:0,0:0:0:0:
188,172,55576,1,0,0:0:0:0:
256,244,55747,2,0,P|280:196|284:156,1,90
160,264,56087,1,0,0:0:0:0:
160,264,56258,2,0,P|200:324|312:324,1,180,4|0,0:0|0:0,0:0:0:0:
364,252,56769,2,0,P|352:200|336:152,1,90
324,120,57025,1,0,0:0:0:0:
324,72,57110,2,0,P|404:36|484:88,1,180
452,184,57622,1,0,0:0:0:0:
364,252,57792,6,0,P|284:288|204:236,1,180,4|0,0:0|0:0,0:0:0:0:
260,120,58303,2,0,P|312:136|340:168,1,90
168,152,58644,2,0,L|180:56,2,90,0|0|4,0:0|0:0|0:0,0:0:0:0:
104,228,59156,1,0,0:0:0:0:
136,320,59326,1,0,0:0:0:0:
228,284,59497,1,0,0:0:0:0:
296,356,59667,1,0,0:0:0:0:
356,276,59837,2,0,P|400:256|448:252,1,90
308,188,60178,2,0,L|324:96,1,90
204,160,60519,6,0,P|164:232|52:244,1,180,4|0,0:0|0:0,0:0:0:0:
104,156,61031,1,0,0:0:0:0:
104,156,61116,1,0,0:0:0:0:
104,156,61201,2,0,L|208:312,1,180
304,296,61712,2,0,P|348:264|472:284,1,180,4|0,0:0|0:0,0:0:0:0:
460,180,62224,2,0,L|480:80,1,90
452,48,62480,1,0,0:0:0:0:
408,28,62565,2,0,P|360:20|296:28,2,90
356,124,63076,6,0,P|276:128|180:72,1,180,4|0,0:0|0:0,0:0:0:0:
96,48,63587,1,0,0:0:0:0:
88,148,63758,2,0,P|96:204|92:252,2,90
184,232,64269,1,0,0:0:0:0:
152,328,64440,2,0,B|192:356|192:356|260:372|328:328,1,180,4|0,0:0|0:0,0:0:0:0:
271,215,64951,2,0,P|226:216|184:232,1,90
368,256,65292,2,0,P|392:204|396:160,1,90
368,76,65633,1,0,0:0:0:0:
336,48,65718,1,0,0:0:0:0:
296,36,65803,1,0,0:0:0:0:
256,36,65889,1,0,0:0:0:0:
220,52,65974,6,0,P|160:88|52:96,1,180,4|0,0:0|0:0,0:0:0:0:
140,176,66485,1,0,0:0:0:0:
172,268,66656,2,0,P|212:228|332:200,1,180
384,108,67167,2,0,P|444:152|472:264,1,180,4|0,0:0|0:0,0:0:0:0:
420,332,67678,1,0,0:0:0:0:
336,236,67849,2,0,L|328:188,2,45
256,340,68190,1,0,0:0:0:0:
180,276,68360,1,0,0:0:0:0:
116,352,68531,1,0,0:0:0:0:
112,220,68701,6,0,P|192:188|264:248,1,180,4|0,0:0|0:0,0:0:0:0:
112,220,69212,2,0,P|92:172|96:128,1,90
200,60,69553,2,0,P|220:108|216:152,1,90
280,260,69894,2,0,P|340:240|396:128,1,180,4|0,0:0|0:0,0:0:0:0:
336,64,70406,1,0,0:0:0:0:
236,76,70576,1,0,0:0:0:0:
236,76,70661,1,0,0:0:0:0:
236,76,70747,2,0,L|144:92,1,90
160,188,71087,2,0,L|78:225,1,90
176,344,71428,6,0,L|224:256,1,90,4|0,0:0|0:0,0:0:0:0:
316,172,71769,2,0,L|328:288,1,90
432,204,72110,2,0,L|423:115,1,90
224,84,72451,2,0,L|233:173,1,90
336,88,72792,2,0,L|428:40,1,90,4|0,0:0|0:0,0:0:0:0:
224,84,73133,2,0,L|152:148,1,90,0|0,0:0|0:0,0:0:0:0:
192,252,73474,1,0,0:0:0:0:
296,296,73644,6,0,L|312:196,1,90
376,92,73985,1,0,0:0:0:0:
376,92,74070,1,0,0:0:0:0:
376,92,74156,2,0,P|392:148|388:188,1,90,4|0,0:0|0:0,0:0:0:0:
280,120,74497,2,0,P|272:68|280:28,1,90
184,208,74837,2,0,P|176:264|80:328,1,180
88,200,75349,2,0,L|-8:184,2,90
136,112,75860,5,0,0:0:0:0:
216,176,76031,1,0,0:0:0:0:
228,176,76116,1,0,0:0:0:0:
240,176,76201,2,0,L|352:164,1,90
328,264,76542,2,0,L|436:284,1,90
276,348,76883,1,0,0:0:0:0:
256,192,76968,12,0,79610,0:0:0:0:
152,104,86428,5,0,0:0:0:0:
152,104,86599,1,0,0:0:0:0:
240,232,86940,5,0,0:0:0:0:
240,232,87025,1,0,0:0:0:0:
240,232,87110,2,0,L|264:120,1,90
384,116,87451,2,0,P|400:168|376:256,1,135
372,268,87792,6,0,L|269:250,1,90,4|0,0:0|0:0,0:0:0:0:
244,156,88133,1,0,0:0:0:0:
172,224,88303,1,0,2:0:0:0:
92,164,88474,1,0,1:0:0:0:
64,260,88644,1,0,0:0:0:0:
64,260,88730,1,0,0:0:0:0:
64,260,88815,1,0,0:0:0:0:
144,320,88985,1,0,0:0:0:0:
240,312,89156,6,0,L|344:316,1,90,2|0,0:0|0:0,0:0:0:0:
416,240,89497,2,0,L|464:232,2,45
316,192,89837,1,0,0:0:0:0:
330,315,90008,2,0,L|338:363,2,45
316,192,90349,1,0,0:0:0:0:
232,268,90519,5,0,0:0:0:0:
232,268,90605,1,0,0:0:0:0:
232,268,90690,1,0,0:0:0:0:
148,192,90860,2,0,B|120:156|120:156|116:104,1,90
232,112,91201,1,0,0:0:0:0:
316,192,91372,1,0,0:0:0:0:
316,192,91457,1,0,0:0:0:0:
316,192,91542,2,0,B|352:164|352:164|372:120,1,90
232,112,91883,6,0,P|200:152|184:192,1,90,6|0,0:0|0:0,0:0:0:0:
252,308,92224,2,0,P|288:276|304:232,1,90
112,184,92565,2,0,P|112:240|128:280,1,90
212,228,92906,1,0,0:0:0:0:
276,152,93076,1,0,0:0:0:0:
352,216,93247,5,4,0:0:0:0:
416,140,93417,1,0,0:0:0:0:
416,140,93502,1,0,0:0:0:0:
416,140,93587,2,0,L|440:244,1,90
396,320,93928,1,2,2:0:0:0:
304,288,94099,1,0,0:0:0:0:
228,352,94269,1,0,0:0:0:0:
148,292,94440,1,0,0:0:0:0:
68,348,94610,6,0,B|44:304|44:304|48:256,1,90,2|0,0:0|0:0,0:0:0:0:
88,172,94951,2,0,L|80:120,2,45
180,208,95292,1,0,0:0:0:0:
256,144,95462,1,0,0:0:0:0:
256,144,95548,1,0,0:0:0:0:
256,144,95633,2,0,L|312:48,1,90
328,200,95974,2,0,L|420:156,1,90,4|0,0:0|0:0,0:0:0:0:
296,284,96315,2,0,L|396:312,1,90
452,72,96826,5,0,0:0:0:0:
452,72,96911,1,0,0:0:0:0:
452,72,96997,2,0,L|440:168,1,90
392,248,97337,2,0,P|344:208|220:192,1,180,2|0,0:0|0:0,0:0:0:0:
212,56,97849,1,0,0:0:0:0:
132,140,98019,1,0,0:0:0:0:
112,180,98105,1,0,0:0:0:0:
104,224,98190,1,0,0:0:0:0:
108,268,98275,1,0,0:0:0:0:
128,308,98360,2,0,L|168:352,3,45
200,356,98701,6,0,L|296:344,1,90,4|0,0:0|0:0,0:0:0:0:
348,264,99042,1,0,0:0:0:0:
392,176,99212,2,0,L|408:72,2,90
316,240,99724,1,0,0:0:0:0:
216,240,99894,2,0,L|100:228,2,90,0|2|0,0:0|0:0|0:0,0:0:0:0:
308,200,100406,1,0,0:0:0:0:
280,104,100576,2,0,L|264:8,2,90
216,240,101087,1,0,0:0:0:0:
120,268,101258,1,0,0:0:0:0:
56,192,101428,5,4,0:0:0:0:
56,192,101514,1,0,0:0:0:0:
56,192,101599,1,0,0:0:0:0:
160,136,101769,2,0,L|152:88,2,45
216,240,102110,1,0,0:0:0:0:
308,272,102281,1,0,0:0:0:0:
400,232,102451,1,0,0:0:0:0:
412,132,102622,1,0,0:0:0:0:
356,52,102792,6,0,P|272:36|168:76,1,180,6|0,0:0|0:0,0:0:0:0:
248,156,103303,1,0,0:0:0:0:
360,164,103474,2,0,L|368:220,3,45
376,252,103815,1,0,0:0:0:0:
368,296,103900,1,0,0:0:0:0:
348,336,103985,1,0,0:0:0:0:
308,356,104070,1,0,0:0:0:0:
264,356,104156,6,0,P|212:340|160:340,1,90,4|0,0:0|0:0,0:0:0:0:
96,240,104497,2,0,P|144:220|192:216,1,90
240,116,104837,2,0,P|192:92|152:84,1,90
61,158,105178,2,0,P|73:201|96:240,1,90
274,197,105519,2,0,P|262:154|240:116,1,90,2|0,0:0|0:0,0:0:0:0:
204,248,105860,2,0,P|228:296|256:328,1,90
400,248,106201,2,0,P|376:200|348:168,2,90
344,344,106712,1,0,0:0:0:0:
236,352,106883,6,0,P|184:340|136:340,1,90,4|0,0:0|0:0,0:0:0:0:
80,268,107224,2,0,L|36:264,2,45
144,192,107565,1,0,0:0:0:0:
228,244,107735,1,0,0:0:0:0:
304,180,107906,2,0,L|376:112,1,90
240,37,108247,2,0,P|232:110|313:182,1,180,6|0,0:0|0:0,0:0:0:0:
412,80,108758,1,0,0:0:0:0:
456,168,108928,5,0,0:0:0:0:
464,208,109014,1,0,0:0:0:0:
464,248,109099,1,0,0:0:0:0:
452,284,109184,1,0,0:0:0:0:
440,320,109269,2,0,L|408:364,3,45
372,364,109610,6,0,P|324:352|276:360,1,90,4|0,0:0|0:0,0:0:0:0:
228,276,109951,1,0,0:0:0:0:
140,324,110122,1,0,0:0:0:0:
68,256,110292,2,0,L|56:144,1,90
172,72,110633,2,0,L|164:184,1,90
268,272,110974,2,0,L|256:160,1,90,4|0,0:0|0:0,0:0:0:0:
372,104,111315,2,0,L|364:208,1,90
244,80,111656,2,0,L|328:32,1,90
312,168,111997,1,0,0:0:0:0:
272,268,112167,1,0,0:0:0:0:
176,240,112337,6,0,P|120:232|84:236,1,90,4|0,0:0|0:0,0:0:0:0:
192,108,112678,2,0,P|248:116|284:112,1,90,0|0,0:0|0:0,0:0:0:0:
176,240,113019,2,0,L|160:332,1,90
96,152,113360,2,0,L|92:48,1,90
248,160,113701,2,0,L|340:192,1,90,4|0,0:0|0:0,0:0:0:0:
252,324,114042,2,0,L|166:294,1,90,0|0,0:0|0:0,0:0:0:0:
248,160,114383,2,0,L|312:96,1,90
364,180,114724,1,0,0:0:0:0:
340,276,114894,1,0,0:0:0:0:
252,324,115065,6,0,L|144:328,1,90,4|0,0:0|0:0,0:0:0:0:
88,208,115406,2,0,L|177:204,1,90,0|0,0:0|0:0,0:0:0:0:
216,44,115747,2,0,P|212:96|232:136,1,90
296,272,116087,2,0,P|300:220|280:180,1,90
396,104,116428,6,0,L|307:108,1,90,4|0,0:0|0:0,0:0:0:0:
216,238,116769,2,0,P|251:266|296:272,1,90
296,116,117110,2,0,P|260:88|216:82,1,90
108,132,117451,1,0,0:0:0:0:
100,260,117622,1,0,0:0:0:0:
136,284,117707,1,0,0:0:0:0:
180,288,117792,6,0,P|240:272|272:252,1,90,4|0,0:0|0:0,0:0:0:0:
296,116,118133,1,0,0:0:0:0:
308,228,118303,1,0,0:0:0:0:
416,200,118474,2,0,P|472:188|508:192,2,90
332,252,118985,1,0,0:0:0:0:
263,175,119156,2,0,P|248:132|249:88,1,90
136,172,119497,2,0,P|96:216|60:232,1,90
76,340,119837,2,0,L|256:244,1,180
300,180,120349,1,0,0:0:0:0:
316,308,120519,6,0,P|400:280|444:200,1,180,4|0,0:0|0:0,0:0:0:0:
424,108,121031,1,0,0:0:0:0:
424,108,121116,1,0,0:0:0:0:
424,108,121201,2,0,L|348:44,1,90
256,60,121542,1,0,0:0:0:0:
256,160,121712,2,0,L|256:360,1,180,4|0,0:0|0:0,0:0:0:0:
168,296,122224,1,0,0:0:0:0:
76,332,122394,1,0,0:0:0:0:
40,304,122480,1,0,0:0:0:0:
24,264,122565,1,0,0:0:0:0:
100,140,122735,2,0,B|116:188|116:188|116:236,2,90
176,76,123247,6,0,P|256:111|336:76,1,180,4|0,0:0|0:0,0:0:0:0:
412,140,123758,2,0,B|396:188|396:188|396:236,1,90
456,316,124099,1,0,0:0:0:0:
368,372,124269,1,0,0:0:0:0:
296,296,124440,2,0,B|248:332|248:332|180:348|112:320,1,180,4|0,0:0|0:0,0:0:0:0:
52,264,124951,1,0,0:0:0:0:
84,144,125122,5,0,0:0:0:0:
84,144,125207,1,0,0:0:0:0:
84,144,125292,2,0,L|60:40,2,90
192,212,125803,1,0,0:0:0:0:
324,136,125974,6,0,L|300:232,1,90,0|0,0:0|2:0,0:0:0:0:
140,156,126315,2,0,L|161:68,1,90,0|0,3:0|0:0,0:0:0:0:
236,132,126656,2,0,L|228:224,1,90,0|0,3:0|0:0,0:0:0:0:
52,192,126997,2,0,L|59:102,1,90,0|0,3:0|0:0,0:0:0:0:
168,240,127337,6,0,P|128:272|104:312,1,90,2|0,0:0|0:0,0:0:0:0:
288,276,127678,2,0,P|328:244|352:204,1,90,0|0,3:0|0:0,0:0:0:0:
216,96,128019,2,0,P|228:148|244:188,1,90,0|0,3:0|1:0,0:0:0:0:
376,128,128360,2,0,P|364:76|348:36,1,90,0|0,0:0|1:0,0:0:0:0:
216,96,128701,6,0,P|160:132|120:240,1,180,4|0,0:0|0:0,0:0:0:0:
188,308,129212,1,0,0:0:0:0:
228,316,129298,1,0,0:0:0:0:
268,324,129383,2,0,L|364:340,1,90
384,224,129724,2,0,L|480:240,1,90
368,116,130065,6,0,L|279:101,1,90,4|0,0:0|0:0,0:0:0:0:
236,116,130320,1,0,0:0:0:0:
200,144,130406,2,0,P|180:192|180:236,1,90
296,280,130747,2,0,L|312:184,1,90
440,168,131087,2,0,L|425:256,1,90
380,372,131428,5,0,2:0:0:0:
352,252,142337,5,2,0:0:0:0:
452,308,142678,1,0,0:0:0:0:
452,192,143019,1,0,0:0:0:0:
452,308,143360,1,0,0:0:0:0:
352,252,143701,21,2,0:0:0:0:
260,336,144042,1,0,0:0:0:0:
184,236,144383,1,0,0:0:0:0:
76,304,144724,1,0,0:0:0:0:
72,176,145065,21,2,0:0:0:0:
184,236,145406,1,0,0:0:0:0:
256,132,145747,1,0,0:0:0:0:
328,236,146087,1,0,0:0:0:0:
372,176,146258,2,0,P|412:156|456:272,1,202.500007724762
376,352,147110,1,2,0:0:0:0:
256,292,147451,21,0,0:0:0:0:
256,292,147622,1,0,0:0:0:0:
256,292,147792,2,0,P|208:320|128:284,1,135.000005149842,2|0,0:0|0:0,0:0:0:0:
96,232,148303,2,0,P|116:168|80:92,1,135.000005149842
228,44,148985,2,0,L|256:188,1,135.000005149842,2|0,0:0|0:0,0:0:0:0:
316,220,149497,1,0,0:0:0:0:
456,268,149837,2,0,P|432:328|368:364,1,135.000005149842
308,324,150349,21,0,0:0:0:0:
240,352,150519,2,0,P|188:320|168:224,1,135.000005149842,2|0,0:0|0:0,0:0:0:0:
16,232,151201,2,0,P|44:152|108:124,1,135.000005149842
220,188,151883,1,0,0:0:0:0:
444,312,152565,5,0,0:0:0:0:
452,284,152650,1,0,0:0:0:0:
456,256,152735,1,0,0:0:0:0:
456,228,152820,1,0,0:0:0:0:
452,200,152906,1,0,0:0:0:0:
444,176,152991,1,0,0:0:0:0:
428,152,153076,1,0,0:0:0:0:
408,136,153161,1,0,0:0:0:0:
384,124,153247,6,0,P|292:92|196:112,1,180,4|0,1:0|0:0,0:0:0:0:
96,276,153928,2,0,P|188:308|284:288,1,180,0|0,0:0|0:0,0:0:0:0:
264,196,154440,1,0,0:0:0:0:
164,188,154610,2,0,P|144:136|144:88,1,90,4|0,1:0|0:0,0:0:0:0:
288,40,154951,2,0,P|305:81|309:125,1,90,0|0,0:0|0:0,0:0:0:0:
296,244,155292,2,0,P|344:232|396:232,1,90
264,364,155633,2,0,P|216:352|180:328,1,90
88,280,155974,6,0,P|88:192|168:104,1,180,4|0,1:0|0:0,0:0:0:0:
224,172,156485,1,0,0:0:0:0:
324,164,156656,2,0,L|340:68,1,90,4|0,1:0|0:0,0:0:0:0:
184,244,156997,2,0,L|168:340,1,90,0|0,0:0|1:0,0:0:0:0:
280,312,157337,6,0,P|340:284|448:308,1,180,4|0,1:0|0:0,0:0:0:0:
472,212,157849,1,0,0:0:0:0:
384,168,158019,1,0,0:0:0:0:
352,172,158105,1,0,0:0:0:0:
320,168,158190,1,0,0:0:0:0:
292,156,158275,1,0,0:0:0:0:
268,136,158360,1,0,0:0:0:0:
252,108,158445,1,0,0:0:0:0:
244,80,158531,1,0,0:0:0:0:
248,48,158616,1,0,0:0:0:0:
264,20,158701,6,0,P|336:4|428:68,1,180,4|0,0:0|0:0,0:0:0:0:
384,168,159212,1,0,0:0:0:0:
416,264,159383,2,0,P|468:252|512:252,2,90
332,316,159894,2,0,P|280:344|228:352,1,90,4|0,0:0|0:0,0:0:0:0:
164,204,160235,2,0,P|216:240|240:272,1,90
128,320,160576,1,0,0:0:0:0:
128,320,160661,1,0,0:0:0:0:
128,320,160747,2,0,L|68:240,1,90
80,148,161087,1,0,0:0:0:0:
192,188,161258,5,0,0:0:0:0:
292,128,161428,2,0,P|352:104|464:148,1,180,4|0,0:0|0:0,0:0:0:0:
308,216,161940,2,0,L|292:128,1,90
408,240,162281,2,0,L|376:336,1,90
192,188,162622,6,0,P|192:248|280:340,1,180,4|0,0:0|0:0,0:0:0:0:
192,188,163133,2,0,P|144:212|104:220,1,90
152,96,163474,2,0,P|100:92|60:72,1,90
236,60,163815,1,0,0:0:0:0:
252,92,163900,1,0,0:0:0:0:
276,120,163985,1,0,0:0:0:0:
308,136,164070,1,0,0:0:0:0:
344,144,164156,6,0,P|420:140|488:68,1,180,4|0,0:0|0:0,0:0:0:0:
344,144,164667,2,0,L|328:240,1,90
312,332,165008,1,0,0:0:0:0:
200,292,165178,2,0,L|184:388,2,90,0|4|0,0:0|0:0|0:0,0:0:0:0:
204,192,165690,1,0,0:0:0:0:
108,220,165860,2,0,L|16:260,1,90
44,96,166201,2,0,L|124:140,1,90
204,192,166542,2,0,P|264:156|344:160,1,135
348,176,166883,6,0,P|400:156|440:124,1,90,4|0,0:0|0:0,0:0:0:0:
356,36,167224,2,0,P|304:56|264:88,2,90,0|0|0,0:0|0:0|0:0,0:0:0:0:
264,160,167735,1,0,0:0:0:0:
164,156,167906,1,0,0:0:0:0:
128,64,168076,2,0,P|76:112|84:216,1,180,4|0,0:0|0:0,0:0:0:0:
152,284,168587,2,0,P|204:280|248:296,1,90
284,316,168843,1,0,0:0:0:0:
332,328,168928,2,0,L|372:240,1,90
472,220,169269,2,0,L|434:301,1,90
304,200,169610,6,0,L|341:118,1,90,4|0,0:0|0:0,0:0:0:0:
208,188,169951,2,0,P|164:216|120:220,1,90
80,108,170292,2,0,P|124:80|168:76,1,90
208,188,170633,2,0,P|212:240|232:280,1,90
316,316,170974,1,0,0:0:0:0:
412,300,171144,1,0,0:0:0:0:
452,208,171315,1,0,0:0:0:0:
404,120,171485,1,0,0:0:0:0:
304,124,171656,2,0,L|208:144,1,90
156,220,171997,5,0,0:0:0:0:
128,256,172082,1,0,0:0:0:0:
124,300,172167,1,0,0:0:0:0:
144,336,172252,1,0,0:0:0:0:
184,352,172337,2,0,L|288:340,1,90,4|0,0:0|0:0,0:0:0:0:
404,120,172849,2,0,L|324:176,1,90,0|0,0:0|0:0,0:0:0:0:
340,256,173190,1,0,0:0:0:0:
256,144,173360,1,0,0:0:0:0:
148,208,173531,6,0,B|128:256|128:256|120:324|208:352,1,180,4|0,0:0|0:0,0:0:0:0:
256,268,174042,1,0,0:0:0:0:
364,208,174212,1,0,0:0:0:0:
364,208,174298,1,0,0:0:0:0:
364,208,174383,2,0,B|384:256|384:256|392:324|304:352,1,180,0|0,0:0|0:0,0:0:0:0:
256,268,174894,1,0,0:0:0:0:
256,168,175065,5,4,0:0:0:0:
340,100,175235,1,0,0:0:0:0:
364,208,175406,2,0,L|336:304,1,90
264,92,175747,5,0,0:0:0:0:
364,208,175917,1,0,0:0:0:0:
220,236,176087,2,0,L|136:288,1,90
312,156,176428,5,0,0:0:0:0:
220,236,176599,1,0,0:0:0:0:
204,120,176769,2,0,L|176:32,2,90
220,236,177281,2,0,P|132:212|40:260,1,180,4|0,0:0|0:0,0:0:0:0:
181,317,177792,6,0,L|220:236,1,90,4|0,0:0|0:0,0:0:0:0:
308,176,178133,1,0,0:0:0:0:
348,276,178303,2,0,L|376:368,1,90
420,188,178644,2,0,L|436:92,1,90
308,176,178985,5,0,0:0:0:0:
160,169,179156,2,0,L|196:261,1,90,4|0,0:0|0:0,0:0:0:0:
308,176,179497,2,0,L|248:109,1,90,4|0,0:0|0:0,0:0:0:0:
312,21,179837,2,0,L|404:61,1,90,4|0,0:0|0:0,0:0:0:0:
412,172,180178,1,0,0:0:0:0:
432,212,180264,1,0,0:0:0:0:
440,256,180349,1,0,0:0:0:0:
440,292,180434,1,0,0:0:0:0:
432,328,180519,38,0,L|400:376,2,45,4|0|0,0:0|0:0|0:0,0:0:0:0:
256,296,180919,2,0,L|256:232,2,45
80,328,181319,2,0,L|112:376,2,45,0|0|0,0:0|0:0|0:0,0:0:0:0:
108,192,181719,21,0,0:0:0:0:
108,192,181819,1,0,0:0:0:0:
108,192,181919,2,0,B|152:160|152:160|192:172|192:172|232:156|284:184,1,180
292,188,182419,1,0,0:0:0:0:
312,200,182519,1,0,0:0:0:0:
432,160,182719,1,0,0:0:0:0:
432,160,182819,1,0,0:0:0:0:
432,160,182919,2,0,P|448:80|420:20,2,135
400,268,183719,21,4,0:0:0:0:
392,292,183819,1,0,0:0:0:0:
384,316,183919,1,0,0:0:0:0:
256,352,184119,1,0,0:0:0:0:
264,328,184219,1,0,0:0:0:0:
272,304,184319,1,0,0:0:0:0:
204,164,184519,21,0,0:0:0:0:
448,244,184919,1,0,0:0:0:0:
448,244,185019,1,0,0:0:0:0:
448,244,185119,1,0,0:0:0:0:
256,44,185519,21,0,0:0:0:0:
256,44,185619,1,0,0:0:0:0:
256,44,185719,1,0,0:0:0:0:
256,172,185919,1,0,0:0:0:0:
308,256,186119,2,0,P|344:212|352:168,1,90,0|0,0:0|0:0,0:0:0:0:
204,88,186519,2,0,P|168:132|160:176,1,90,0|0,0:0|1:0,0:0:0:0:
212,284,186919,22,0,L|312:300,1,90,4|0,0:0|0:0,0:0:0:0:
352,180,187319,2,0,L|452:196,1,90,0|0,0:0|0:0,0:0:0:0:
304,52,187719,2,0,L|492:80,1,180,0|0,0:0|0:0,0:0:0:0:
482,78,188219,1,0,0:0:0:0:
482,78,188319,1,0,0:0:0:0:
408,280,188719,1,0,0:0:0:0:
408,280,188819,1,0,0:0:0:0:
408,280,188919,1,0,0:0:0:0:
292,216,189119,21,0,0:0:0:0:
292,216,189219,1,0,0:0:0:0:
292,216,189319,2,0,P|252:244|200:260,1,90
152,220,189619,2,0,P|108:236|16:228,1,135
128,116,190119,22,0,L|184:136,2,45,4|0|0,0:0|0:0|0:0,0:0:0:0:
256,224,190519,2,0,L|312:244,2,45
376,332,190919,2,0,L|440:256,1,90
404,148,191319,1,0,0:0:0:0:
404,148,191419,1,0,0:0:0:0:
404,148,191519,1,0,0:0:0:0:
324,220,191719,21,2,2:0:0:0:
304,116,191919,1,0,0:0:0:0:
404,148,192119,2,0,L|472:148,2,45
324,220,192519,6,0,L|312:276,3,45
260,316,192919,22,0,L|248:344,9,22.5,0|0|0|0|0|0|0|0|0|4,0:0|0:0|0:0|0:0|0:0|0:0|0:0|0:0|0:0|0:0,0:0:0:0:
