osu file format v14

[General]
AudioFilename: MuryokuP - ReplicA.mp3
AudioLeadIn: 0
PreviewTime: 54650
Countdown: 0
SampleSet: Normal
StackLeniency: 0.7
Mode: 1
LetterboxInBreaks: 0
WidescreenStoryboard: 0

[Editor]
DistanceSpacing: 1.1
BeatDivisor: 2
GridSize: 4
TimelineZoom: 1

[Metadata]
Title:ReplicA
TitleUnicode:ReplicA
Artist:MuryokuP
ArtistUnicode:無力P
Creator:game rock
Version:Kantan
Source:
Tags:巡音ルカ Megurine Luka Vocaloid in Existence Destruction Regeneration -Sh1n1- tasuke912
BeatmapID:714776
BeatmapSetID:321290

[Difficulty]
HPDrainRate:6
CircleSize:2
OverallDifficulty:3
ApproachRate:2
SliderMultiplier:1.4
SliderTickRate:1

[Events]
//Background and Video events
0,0,"BG.jpg",0,118
//Break Periods
//Storyboard Layer 0 (Background)
//Storyboard Layer 1 (Fail)
//Storyboard Layer 2 (Pass)
//Storyboard Layer 3 (Foreground)
//Storyboard Sound Samples

[TimingPoints]
105,340.909090909091,4,1,0,80,1,0
54650,-100,4,1,0,80,0,1
76468,-100,4,1,0,80,0,0

[HitObjects]
256,192,105,5,12,0:0:0:0:
256,192,2832,1,12,0:0:0:0:
256,192,5559,1,12,0:0:0:0:
256,192,8286,1,12,0:0:0:0:
256,192,9650,1,12,0:0:0:0:
256,192,11014,1,4,0:0:0:0:
256,192,11695,1,8,0:0:0:0:
256,192,12377,1,0,0:0:0:0:
256,192,13059,1,8,0:0:0:0:
256,192,13400,1,0,0:0:0:0:
256,192,13741,1,0,0:0:0:0:
256,192,14423,1,8,0:0:0:0:
256,192,15105,1,0,0:0:0:0:
256,192,16468,1,0,0:0:0:0:
256,192,17150,1,8,0:0:0:0:
256,192,17832,1,0,0:0:0:0:
256,192,18514,1,8,0:0:0:0:
256,192,18855,1,8,0:0:0:0:
256,192,19195,1,0,0:0:0:0:
256,192,19877,1,8,0:0:0:0:
256,192,20559,1,0,0:0:0:0:
256,192,21923,1,4,0:0:0:0:
256,192,22605,1,8,0:0:0:0:
256,192,23286,1,0,0:0:0:0:
256,192,23968,1,8,0:0:0:0:
256,192,24309,1,0,0:0:0:0:
256,192,24650,1,0,0:0:0:0:
256,192,25332,1,8,0:0:0:0:
256,192,26014,1,0,0:0:0:0:
256,192,27377,1,0,0:0:0:0:
256,192,28059,1,8,0:0:0:0:
256,192,28741,1,0,0:0:0:0:
256,192,29423,1,8,0:0:0:0:
256,192,29764,1,8,0:0:0:0:
256,192,30105,1,0,0:0:0:0:
256,192,30786,1,8,0:0:0:0:
256,192,31468,1,0,0:0:0:0:
256,192,32150,1,8,0:0:0:0:
256,192,32832,1,4,0:0:0:0:
256,192,34195,1,8,0:0:0:0:
256,192,35559,1,8,0:0:0:0:
256,192,36923,1,8,0:0:0:0:
256,192,37605,1,0,0:0:0:0:
256,192,38286,1,8,0:0:0:0:
256,192,39650,1,8,0:0:0:0:
256,192,41014,1,8,0:0:0:0:
256,192,42377,1,8,0:0:0:0:
256,192,43059,1,0,0:0:0:0:
256,192,43741,1,8,0:0:0:0:
256,192,45105,1,8,0:0:0:0:
256,192,46468,1,8,0:0:0:0:
256,192,47832,1,8,0:0:0:0:
256,192,48514,1,0,0:0:0:0:
256,192,49195,1,8,0:0:0:0:
256,192,50559,1,8,0:0:0:0:
256,192,51923,1,8,0:0:0:0:
256,192,52605,1,0,0:0:0:0:
256,192,53286,1,8,0:0:0:0:
256,192,54650,1,12,0:0:0:0:
256,192,56014,1,8,0:0:0:0:
256,192,56695,1,0,0:0:0:0:
256,192,57036,1,8,0:0:0:0:
256,192,57377,1,0,0:0:0:0:
256,192,58059,1,8,0:0:0:0:
256,192,58741,1,0,0:0:0:0:
256,192,59423,1,8,0:0:0:0:
256,192,59764,1,0,0:0:0:0:
256,192,60105,1,0,0:0:0:0:
256,192,61468,1,0,0:0:0:0:
256,192,62150,1,8,0:0:0:0:
256,192,62491,1,0,0:0:0:0:
256,192,62832,1,0,0:0:0:0:
256,192,63514,1,8,0:0:0:0:
256,192,64195,1,0,0:0:0:0:
256,192,64536,1,8,0:0:0:0:
256,192,64877,1,8,0:0:0:0:
256,192,65559,1,12,0:0:0:0:
256,192,66923,1,8,0:0:0:0:
256,192,67605,1,8,0:0:0:0:
256,192,67945,1,0,0:0:0:0:
256,192,68286,1,0,0:0:0:0:
256,192,68968,1,8,0:0:0:0:
256,192,69650,1,0,0:0:0:0:
256,192,70332,1,8,0:0:0:0:
256,192,70673,1,8,0:0:0:0:
256,192,71014,1,0,0:0:0:0:
256,192,71695,1,8,0:0:0:0:
256,192,72377,1,0,0:0:0:0:
256,192,72718,1,0,0:0:0:0:
256,192,73059,1,0,0:0:0:0:
256,192,73741,1,8,0:0:0:0:
256,192,75105,1,8,0:0:0:0:
256,192,75786,1,8,0:0:0:0:
256,192,76468,1,12,0:0:0:0:
