osu file format v14

[General]
AudioFilename: MuryokuP - ReplicA.mp3
AudioLeadIn: 0
PreviewTime: 54650
Countdown: 0
SampleSet: Normal
StackLeniency: 0.7
Mode: 1
LetterboxInBreaks: 0
WidescreenStoryboard: 0

[Editor]
Bookmarks: 11014,13059
DistanceSpacing: 1.1
BeatDivisor: 2
GridSize: 4
TimelineZoom: 1

[Metadata]
Title:ReplicA
TitleUnicode:ReplicA
Artist:MuryokuP
ArtistUnicode:無力P
Creator:game rock
Version:Futsuu
Source:
Tags:巡音ルカ Megurine Luka Vocaloid in Existence Destruction Regeneration -Sh1n1- tasuke912
BeatmapID:714790
BeatmapSetID:321290

[Difficulty]
HPDrainRate:5
CircleSize:3
OverallDifficulty:4
ApproachRate:3
SliderMultiplier:1.4
SliderTickRate:1

[Events]
//Background and Video events
0,0,"BG.jpg",0,118
//Break Periods
//Storyboard Layer 0 (Background)
//Storyboard Layer 1 (Fail)
//Storyboard Layer 2 (Pass)
//Storyboard Layer 3 (Foreground)
//Storyboard Sound Samples

[TimingPoints]
105,340.909090909091,4,1,0,80,1,0
54650,-100,4,1,0,80,0,1
76468,-100,4,1,0,80,0,0

[HitObjects]
256,193,105,5,12,0:0:0:0:
256,193,1468,1,0,0:0:0:0:
256,193,2150,1,0,0:0:0:0:
256,193,2832,1,12,0:0:0:0:
256,193,4195,1,8,0:0:0:0:
256,193,4877,1,0,0:0:0:0:
256,193,5559,1,12,0:0:0:0:
256,193,6923,1,0,0:0:0:0:
256,193,7605,1,0,0:0:0:0:
256,193,8286,1,12,0:0:0:0:
256,193,9650,1,12,0:0:0:0:
256,193,9991,1,0,0:0:0:0:
256,193,10332,1,8,0:0:0:0:
256,193,10502,1,8,0:0:0:0:
256,193,10673,1,0,0:0:0:0:
256,193,11014,1,12,0:0:0:0:
256,193,11695,1,8,0:0:0:0:
256,193,12036,1,0,0:0:0:0:
256,193,12377,1,0,0:0:0:0:
256,193,13059,1,8,0:0:0:0:
256,193,13230,1,0,0:0:0:0:
256,193,13400,1,8,0:0:0:0:
256,193,13741,1,0,0:0:0:0:
256,193,14423,1,8,0:0:0:0:
256,193,14764,1,0,0:0:0:0:
256,193,15105,1,0,0:0:0:0:
256,193,15786,1,8,0:0:0:0:
256,193,15957,1,8,0:0:0:0:
256,193,16127,1,8,0:0:0:0:
256,193,16468,1,0,0:0:0:0:
256,193,17150,1,8,0:0:0:0:
256,193,17491,1,0,0:0:0:0:
256,193,17832,1,0,0:0:0:0:
256,193,18173,1,8,0:0:0:0:
256,193,18514,1,0,0:0:0:0:
256,193,18684,1,8,0:0:0:0:
256,193,19025,1,8,0:0:0:0:
256,193,19195,1,0,0:0:0:0:
256,193,19877,1,8,0:0:0:0:
256,193,20218,1,0,0:0:0:0:
256,193,20559,1,0,0:0:0:0:
256,193,21923,1,4,0:0:0:0:
256,193,22605,1,8,0:0:0:0:
256,193,22945,1,0,0:0:0:0:
256,193,23286,1,0,0:0:0:0:
256,193,23968,1,8,0:0:0:0:
256,193,24139,1,0,0:0:0:0:
256,193,24309,1,8,0:0:0:0:
256,193,24650,1,0,0:0:0:0:
256,193,25332,1,8,0:0:0:0:
256,193,25673,1,0,0:0:0:0:
256,193,26014,1,0,0:0:0:0:
256,193,26695,1,8,0:0:0:0:
256,193,26866,1,8,0:0:0:0:
256,193,27036,1,8,0:0:0:0:
256,193,27377,1,0,0:0:0:0:
256,193,28059,1,8,0:0:0:0:
256,193,28400,1,0,0:0:0:0:
256,193,28741,1,0,0:0:0:0:
256,193,29082,1,8,0:0:0:0:
256,193,29423,1,0,0:0:0:0:
256,193,29593,1,8,0:0:0:0:
256,193,29934,1,8,0:0:0:0:
256,193,30105,1,0,0:0:0:0:
256,193,30786,1,8,0:0:0:0:
256,193,31127,1,0,0:0:0:0:
256,193,31468,1,0,0:0:0:0:
256,193,32150,1,8,0:0:0:0:
256,193,32832,1,4,0:0:0:0:
256,193,34195,1,8,0:0:0:0:
256,193,35048,1,0,0:0:0:0:
256,193,35559,1,8,0:0:0:0:
256,193,36923,1,8,0:0:0:0:
256,193,37775,1,0,0:0:0:0:
256,193,38286,1,8,0:0:0:0:
256,193,39650,1,8,0:0:0:0:
256,193,40502,1,0,0:0:0:0:
256,193,41014,1,8,0:0:0:0:
256,193,42377,1,8,0:0:0:0:
256,193,43059,1,8,0:0:0:0:
256,193,43741,1,8,0:0:0:0:
256,193,45105,1,8,0:0:0:0:
256,193,45957,1,0,0:0:0:0:
256,193,46468,1,8,0:0:0:0:
256,193,47832,1,8,0:0:0:0:
256,193,48684,1,0,0:0:0:0:
256,193,49195,1,8,0:0:0:0:
256,193,50559,1,8,0:0:0:0:
256,193,51241,1,0,0:0:0:0:
256,193,51923,1,8,0:0:0:0:
256,193,52605,1,8,0:0:0:0:
256,193,53286,1,8,0:0:0:0:
256,193,53798,1,0,0:0:0:0:
256,193,54309,1,8,0:0:0:0:
256,193,54650,1,12,0:0:0:0:
256,193,55332,1,8,0:0:0:0:
256,193,55673,1,0,0:0:0:0:
256,193,55843,1,8,0:0:0:0:
256,193,56184,1,8,0:0:0:0:
256,193,56355,1,0,0:0:0:0:
256,193,56695,1,8,0:0:0:0:
256,193,57377,1,0,0:0:0:0:
256,193,58059,1,8,0:0:0:0:
256,193,58400,1,0,0:0:0:0:
256,193,58570,1,8,0:0:0:0:
256,193,58741,1,8,0:0:0:0:
256,193,59082,1,0,0:0:0:0:
256,193,59423,1,8,0:0:0:0:
256,193,59764,1,8,0:0:0:0:
256,193,59934,1,8,0:0:0:0:
256,193,60105,1,0,0:0:0:0:
256,193,60786,1,8,0:0:0:0:
256,193,61127,1,0,0:0:0:0:
256,193,61298,1,8,0:0:0:0:
256,193,61468,1,8,0:0:0:0:
256,193,61809,1,8,0:0:0:0:
256,193,61980,1,0,0:0:0:0:
256,193,62150,1,8,0:0:0:0:
256,193,62491,1,0,0:0:0:0:
256,193,62832,1,8,0:0:0:0:
256,193,63514,1,8,0:0:0:0:
256,193,64195,1,8,0:0:0:0:
256,193,64536,1,0,0:0:0:0:
256,193,64877,1,8,0:0:0:0:
256,193,65048,1,8,0:0:0:0:
256,193,65218,1,8,0:0:0:0:
256,193,65559,1,4,0:0:0:0:
256,193,66241,1,8,0:0:0:0:
256,193,66582,1,0,0:0:0:0:
256,193,66752,1,8,0:0:0:0:
256,193,67093,1,8,0:0:0:0:
256,193,67264,1,0,0:0:0:0:
256,193,67605,1,8,0:0:0:0:
256,193,68286,1,4,0:0:0:0:
256,193,68968,1,8,0:0:0:0:
256,193,69139,1,0,0:0:0:0:
256,193,69480,1,8,0:0:0:0:
256,193,69820,1,0,0:0:0:0:
256,193,69991,1,8,0:0:0:0:
256,193,70332,1,8,0:0:0:0:
256,193,70502,1,0,0:0:0:0:
256,193,70673,1,8,0:0:0:0:
256,193,71014,1,12,0:0:0:0:
256,193,71695,1,0,0:0:0:0:
256,193,72036,1,8,0:0:0:0:
256,193,72207,1,8,0:0:0:0:
256,193,72377,1,0,0:0:0:0:
256,193,72718,1,0,0:0:0:0:
256,193,73059,1,8,0:0:0:0:
256,193,73400,1,0,0:0:0:0:
256,193,73570,1,8,0:0:0:0:
256,193,73741,1,0,0:0:0:0:
256,193,74423,1,8,0:0:0:0:
256,193,74764,1,8,0:0:0:0:
256,193,74934,1,8,0:0:0:0:
256,193,75445,1,0,0:0:0:0:
256,193,75786,1,8,0:0:0:0:
256,193,76127,1,8,0:0:0:0:
256,193,76468,1,12,0:0:0:0:
