osu file format v12

[General]
AudioFilename: Overture.mp3
AudioLeadIn: 0
PreviewTime: 42541
Countdown: 0
SampleSet: Normal
StackLeniency: 0.7
Mode: 1
LetterboxInBreaks: 0
WidescreenStoryboard: 0

[Editor]
DistanceSpacing: 1
BeatDivisor: 4
GridSize: 4
TimelineZoom: 2.1

[Metadata]
Title:Overture
TitleUnicode:Overture
Artist:MuryokuP
ArtistUnicode:MuryokuP
Creator:senkai
Version:The Overture
Source:
Tags:your pianist megurine luka vocaloid
BeatmapID:413013
BeatmapSetID:170631

[Difficulty]
HPDrainRate:6
CircleSize:4
OverallDifficulty:5
ApproachRate:5
SliderMultiplier:1.4
SliderTickRate:1

[Events]
//Background and Video events
0,0,"Konachan.com - 125896 chevasis city instrument kamui_gakupo piano sky sunset vocaloid.jpg",0,0
//Break Periods
//Storyboard Layer 0 (Background)
//Storyboard Layer 1 (Fail)
//Storyboard Layer 2 (Pass)
//Storyboard Layer 3 (Foreground)
//Storyboard Sound Samples
//Background Colour Transformations
3,100,128,255,255

[TimingPoints]
38,625,4,2,1,30,1,0
36288,-83.3333333333333,4,2,1,35,0,0
36913,-100,4,2,1,30,0,0
38163,-100,4,2,1,35,0,0
39413,-100,4,2,1,30,0,0
40663,-100,4,2,1,5,0,0
42538,312.5,4,1,1,45,1,0
62538,-83.3333333333333,4,2,1,70,0,0
82538,-66.6666666666667,4,1,1,70,0,0
87538,-55.5555555555556,4,1,1,70,0,0
92381,-100,4,1,1,70,0,0

[Colours]
Combo1 : 230,83,113
Combo2 : 128,255,128
Combo3 : 0,128,255

[HitObjects]
256,196,16288,5,0,0:0:0:0:
256,196,16600,1,0,0:0:0:0:
256,196,16913,1,8,0:0:0:0:
256,196,17225,1,0,0:0:0:0:
256,196,17538,1,0,0:0:0:0:
256,196,17850,1,8,0:0:0:0:
256,196,18163,1,0,0:0:0:0:
256,196,18475,1,8,0:0:0:0:
256,196,21288,1,0,0:0:0:0:
256,196,21600,1,0,0:0:0:0:
256,196,21913,1,8,0:0:0:0:
256,196,22225,1,0,0:0:0:0:
256,196,22538,1,0,0:0:0:0:
256,196,22850,1,8,0:0:0:0:
256,196,23163,1,0,0:0:0:0:
256,196,23475,1,8,0:0:0:0:
256,196,26288,1,0,0:0:0:0:
256,196,26600,1,0,0:0:0:0:
256,196,26913,1,8,0:0:0:0:
256,196,27225,1,0,0:0:0:0:
256,196,27538,1,0,0:0:0:0:
256,196,27850,1,8,0:0:0:0:
256,196,28163,1,0,0:0:0:0:
256,196,28475,1,8,0:0:0:0:
256,196,28788,1,8,0:0:0:0:
256,196,29725,1,8,0:0:0:0:
256,196,30663,1,8,0:0:0:0:
256,196,31288,1,8,0:0:0:0:
256,196,31600,1,0,0:0:0:0:
256,196,31912,1,0,0:0:0:0:
256,196,32225,1,8,0:0:0:0:
256,196,32537,1,0,0:0:0:0:
256,196,32850,1,0,0:0:0:0:
256,196,33162,1,8,0:0:0:0:
256,196,33475,1,0,0:0:0:0:
256,192,35038,12,0,36288,0:0:0:0:
256,192,36913,12,0,41131,0:0:0:0:
256,192,42538,5,4,0:0:0:0:
256,192,42694,1,0,0:0:0:0:
256,192,42850,1,8,0:0:0:0:
256,192,43006,1,0,0:0:0:0:
256,192,43163,1,8,0:0:0:0:
256,192,43241,1,8,0:0:0:0:
256,192,43319,1,0,0:0:0:0:
256,192,43475,1,0,0:0:0:0:
256,192,43631,1,8,0:0:0:0:
256,192,43788,1,0,0:0:0:0:
256,192,43944,1,8,0:0:0:0:
256,192,44100,1,0,0:0:0:0:
256,192,44256,1,0,0:0:0:0:
256,192,44413,1,0,0:0:0:0:
256,192,44491,1,0,0:0:0:0:
256,192,44569,1,0,0:0:0:0:
256,192,44725,1,8,0:0:0:0:
256,192,44881,5,0,0:0:0:0:
256,192,45038,1,0,0:0:0:0:
256,192,45116,1,0,0:0:0:0:
256,192,45194,1,0,0:0:0:0:
256,192,45350,1,0,0:0:0:0:
256,192,45506,1,0,0:0:0:0:
256,192,45663,1,8,0:0:0:0:
256,192,45819,1,0,0:0:0:0:
256,192,45975,1,0,0:0:0:0:
256,192,46131,1,8,0:0:0:0:
256,192,46288,1,0,0:0:0:0:
256,192,46444,1,0,0:0:0:0:
256,192,46600,1,8,0:0:0:0:
256,192,46756,1,0,0:0:0:0:
256,192,46912,1,0,0:0:0:0:
256,192,47069,1,0,0:0:0:0:
256,192,47147,1,0,0:0:0:0:
256,192,47225,1,0,0:0:0:0:
256,192,47538,1,0,0:0:0:0:
256,192,47616,1,0,0:0:0:0:
256,192,47694,1,0,0:0:0:0:
256,192,47850,1,8,0:0:0:0:
256,192,48006,1,0,0:0:0:0:
256,192,48163,1,8,0:0:0:0:
256,192,48241,1,0,0:0:0:0:
256,192,48319,1,0,0:0:0:0:
256,192,48475,1,0,0:0:0:0:
256,192,48631,1,8,0:0:0:0:
256,192,48788,1,0,0:0:0:0:
256,192,48866,1,0,0:0:0:0:
256,192,48944,1,0,0:0:0:0:
256,192,49100,1,8,0:0:0:0:
256,192,49256,1,0,0:0:0:0:
256,192,49412,1,0,0:0:0:0:
256,192,49491,1,0,0:0:0:0:
256,192,49569,1,8,0:0:0:0:
256,192,49725,1,0,0:0:0:0:
256,192,50038,1,0,0:0:0:0:
256,192,50116,1,0,0:0:0:0:
256,192,50194,1,0,0:0:0:0:
256,192,50350,1,0,0:0:0:0:
256,192,50506,1,0,0:0:0:0:
256,192,50663,1,8,0:0:0:0:
256,192,50741,1,0,0:0:0:0:
256,192,50819,1,0,0:0:0:0:
256,192,50975,1,0,0:0:0:0:
256,192,51131,1,8,0:0:0:0:
256,192,51288,1,0,0:0:0:0:
256,192,51366,1,0,0:0:0:0:
256,192,51444,1,0,0:0:0:0:
256,192,51600,1,8,0:0:0:0:
256,192,51756,1,0,0:0:0:0:
256,192,51912,1,0,0:0:0:0:
256,192,51991,1,0,0:0:0:0:
256,192,52069,1,8,0:0:0:0:
256,192,52225,1,0,0:0:0:0:
256,192,52538,1,8,0:0:0:0:
256,192,52616,1,8,0:0:0:0:
256,192,52694,1,8,0:0:0:0:
256,192,52772,1,8,0:0:0:0:
256,192,52850,1,0,0:0:0:0:
256,192,52928,1,0,0:0:0:0:
256,192,53006,1,0,0:0:0:0:
256,192,53084,1,0,0:0:0:0:
220,140,53163,1,8,0:0:0:0:
220,140,53241,1,0,0:0:0:0:
220,140,53319,1,0,0:0:0:0:
220,140,53397,1,0,0:0:0:0:
220,140,53475,1,8,0:0:0:0:
220,140,53553,1,8,0:0:0:0:
220,140,53631,1,8,0:0:0:0:
220,140,53709,1,8,0:0:0:0:
220,140,53788,1,0,0:0:0:0:
220,140,53866,1,0,0:0:0:0:
220,140,53944,1,8,0:0:0:0:
220,140,54022,1,0,0:0:0:0:
220,140,54100,1,0,0:0:0:0:
220,140,54178,1,8,0:0:0:0:
220,140,54256,1,8,0:0:0:0:
220,140,54334,1,0,0:0:0:0:
232,164,54413,1,8,0:0:0:0:
232,164,54491,1,0,0:0:0:0:
220,140,54569,1,8,0:0:0:0:
220,140,54647,1,0,0:0:0:0:
256,192,54725,1,8,0:0:0:0:
256,192,55038,1,0,0:0:0:0:
256,192,55116,1,0,0:0:0:0:
256,192,55194,1,0,0:0:0:0:
220,140,55272,1,0,0:0:0:0:
232,164,55350,1,8,0:0:0:0:
232,164,55428,1,8,0:0:0:0:
256,192,55506,1,8,0:0:0:0:
184,164,55584,1,8,0:0:0:0:
232,164,55663,1,0,0:0:0:0:
220,140,55741,1,8,0:0:0:0:
220,140,55819,1,0,0:0:0:0:
220,140,55897,1,0,0:0:0:0:
232,164,55975,1,8,0:0:0:0:
232,164,56053,1,0,0:0:0:0:
220,140,56131,1,8,0:0:0:0:
220,140,56209,1,8,0:0:0:0:
220,140,56288,1,8,0:0:0:0:
232,164,56366,1,0,0:0:0:0:
232,164,56444,1,0,0:0:0:0:
232,164,56522,1,0,0:0:0:0:
232,164,56600,1,0,0:0:0:0:
220,140,56678,1,0,0:0:0:0:
220,140,56756,1,0,0:0:0:0:
220,140,56834,1,0,0:0:0:0:
232,164,56913,1,8,0:0:0:0:
232,164,56991,1,8,0:0:0:0:
232,164,57069,1,8,0:0:0:0:
232,164,57147,1,8,0:0:0:0:
256,192,57225,1,8,0:0:0:0:
256,192,57538,1,8,0:0:0:0:
256,192,57616,1,8,0:0:0:0:
256,192,57694,1,8,0:0:0:0:
256,192,57772,1,8,0:0:0:0:
256,192,57850,1,8,0:0:0:0:
256,192,57928,1,8,0:0:0:0:
256,192,58006,1,8,0:0:0:0:
256,192,58084,1,0,0:0:0:0:
256,192,58163,1,8,0:0:0:0:
232,164,58241,1,8,0:0:0:0:
232,164,58319,1,8,0:0:0:0:
232,164,58397,1,8,0:0:0:0:
232,164,58475,1,0,0:0:0:0:
232,164,58553,1,0,0:0:0:0:
256,192,58631,1,8,0:0:0:0:
232,164,58709,1,0,0:0:0:0:
232,164,58788,1,0,0:0:0:0:
232,164,58866,1,0,0:0:0:0:
232,164,58944,1,8,0:0:0:0:
256,192,59022,1,8,0:0:0:0:
232,164,59100,1,0,0:0:0:0:
232,164,59178,1,0,0:0:0:0:
232,164,59256,1,0,0:0:0:0:
232,164,59334,1,0,0:0:0:0:
232,164,59412,1,8,0:0:0:0:
232,164,59490,1,0,0:0:0:0:
232,164,59568,1,8,0:0:0:0:
232,164,59647,1,8,0:0:0:0:
232,164,59725,1,0,0:0:0:0:
256,192,60038,1,0,0:0:0:0:
256,192,60116,1,0,0:0:0:0:
256,192,60194,1,0,0:0:0:0:
232,164,60272,1,0,0:0:0:0:
256,192,60350,1,0,0:0:0:0:
256,192,60428,1,0,0:0:0:0:
256,192,60506,1,0,0:0:0:0:
256,192,60584,1,0,0:0:0:0:
256,192,60663,1,8,0:0:0:0:
256,192,60741,1,0,0:0:0:0:
256,192,60819,1,0,0:0:0:0:
256,192,60897,1,0,0:0:0:0:
256,192,60975,1,0,0:0:0:0:
232,164,61053,1,0,0:0:0:0:
232,164,61131,5,8,0:0:0:0:
232,164,61209,1,0,0:0:0:0:
232,164,61288,1,0,0:0:0:0:
232,164,61366,1,0,0:0:0:0:
232,164,61444,1,0,0:0:0:0:
256,192,61522,1,0,0:0:0:0:
256,192,61600,1,0,0:0:0:0:
256,192,61678,1,0,0:0:0:0:
232,164,61756,1,0,0:0:0:0:
232,164,61834,1,0,0:0:0:0:
232,164,61913,1,8,0:0:0:0:
232,164,61991,1,0,0:0:0:0:
232,164,62069,1,8,0:0:0:0:
232,164,62147,1,0,0:0:0:0:
256,192,62225,1,8,0:0:0:0:
256,192,62538,1,8,0:0:0:0:
256,192,62616,1,8,0:0:0:0:
256,192,62694,1,8,0:0:0:0:
256,192,62850,1,8,0:0:0:0:
256,192,63006,1,0,0:0:0:0:
256,192,63163,1,8,0:0:0:0:
256,192,63319,1,8,0:0:0:0:
256,192,63475,1,8,0:0:0:0:
256,192,63631,1,0,0:0:0:0:
256,192,63788,1,8,0:0:0:0:
256,192,63944,1,8,0:0:0:0:
256,192,64100,1,8,0:0:0:0:
256,192,64256,1,0,0:0:0:0:
256,192,64413,1,8,0:0:0:0:
256,192,64569,1,8,0:0:0:0:
256,192,64725,1,8,0:0:0:0:
256,192,65038,1,0,0:0:0:0:
256,192,65116,1,0,0:0:0:0:
256,192,65194,1,0,0:0:0:0:
256,192,65350,1,0,0:0:0:0:
256,192,65506,1,0,0:0:0:0:
256,192,65663,1,8,0:0:0:0:
256,192,65819,1,0,0:0:0:0:
256,192,65975,1,0,0:0:0:0:
256,192,66131,1,8,0:0:0:0:
256,192,66288,1,0,0:0:0:0:
256,192,66444,1,0,0:0:0:0:
256,192,66600,1,8,0:0:0:0:
256,192,66756,1,0,0:0:0:0:
256,192,66912,1,0,0:0:0:0:
256,192,67069,1,8,0:0:0:0:
256,192,67225,1,0,0:0:0:0:
256,192,67538,1,8,0:0:0:0:
256,192,67616,1,8,0:0:0:0:
256,192,67694,1,8,0:0:0:0:
256,192,67850,1,8,0:0:0:0:
256,192,68006,1,0,0:0:0:0:
256,192,68163,1,8,0:0:0:0:
256,192,68319,1,8,0:0:0:0:
256,192,68475,1,8,0:0:0:0:
256,192,68631,1,0,0:0:0:0:
256,192,68788,1,8,0:0:0:0:
256,192,68944,1,8,0:0:0:0:
256,192,69100,1,8,0:0:0:0:
256,192,69256,1,0,0:0:0:0:
256,192,69413,1,8,0:0:0:0:
256,192,69569,1,8,0:0:0:0:
256,192,69725,1,8,0:0:0:0:
256,192,70038,1,0,0:0:0:0:
256,192,70116,1,0,0:0:0:0:
256,192,70194,1,0,0:0:0:0:
256,192,70350,1,0,0:0:0:0:
256,192,70506,1,0,0:0:0:0:
256,192,70663,1,8,0:0:0:0:
256,192,70819,1,0,0:0:0:0:
256,192,70975,1,0,0:0:0:0:
256,192,71131,1,8,0:0:0:0:
256,192,71288,1,0,0:0:0:0:
256,192,71444,1,0,0:0:0:0:
256,192,71600,1,8,0:0:0:0:
256,192,71756,1,0,0:0:0:0:
256,192,71912,1,0,0:0:0:0:
256,192,72069,1,8,0:0:0:0:
256,192,72225,1,0,0:0:0:0:
256,192,72538,1,8,0:0:0:0:
256,192,72616,1,8,0:0:0:0:
256,192,72694,1,8,0:0:0:0:
256,192,72850,1,8,0:0:0:0:
256,192,73006,1,0,0:0:0:0:
256,192,73163,1,8,0:0:0:0:
256,192,73319,1,8,0:0:0:0:
256,192,73475,1,8,0:0:0:0:
256,192,73631,1,0,0:0:0:0:
256,192,73788,1,8,0:0:0:0:
256,192,73944,1,8,0:0:0:0:
256,192,74100,1,8,0:0:0:0:
256,192,74256,1,0,0:0:0:0:
256,192,74413,1,8,0:0:0:0:
256,192,74569,1,8,0:0:0:0:
256,192,74725,1,8,0:0:0:0:
256,192,75038,1,0,0:0:0:0:
256,192,75116,1,0,0:0:0:0:
256,192,75194,1,0,0:0:0:0:
256,192,75350,1,0,0:0:0:0:
256,192,75506,1,0,0:0:0:0:
256,192,75663,1,8,0:0:0:0:
256,192,75819,1,0,0:0:0:0:
256,192,75975,1,0,0:0:0:0:
256,192,76131,1,8,0:0:0:0:
256,192,76288,1,0,0:0:0:0:
256,192,76444,1,0,0:0:0:0:
256,192,76600,1,8,0:0:0:0:
256,192,76756,1,0,0:0:0:0:
256,192,76912,1,0,0:0:0:0:
256,192,77069,1,8,0:0:0:0:
256,192,77225,1,0,0:0:0:0:
256,192,77538,1,8,0:0:0:0:
256,192,77616,1,8,0:0:0:0:
256,192,77694,1,8,0:0:0:0:
256,192,77850,1,8,0:0:0:0:
256,192,78006,1,0,0:0:0:0:
256,192,78163,1,8,0:0:0:0:
256,192,78319,1,8,0:0:0:0:
256,192,78475,1,8,0:0:0:0:
256,192,78631,1,0,0:0:0:0:
256,192,78788,1,8,0:0:0:0:
256,192,78944,1,8,0:0:0:0:
256,192,79100,1,8,0:0:0:0:
256,192,79256,1,0,0:0:0:0:
256,192,79413,1,8,0:0:0:0:
256,192,79569,1,8,0:0:0:0:
256,192,79725,1,8,0:0:0:0:
256,192,80038,1,0,0:0:0:0:
256,192,80116,1,0,0:0:0:0:
256,192,80194,1,0,0:0:0:0:
256,192,80350,1,0,0:0:0:0:
256,192,80506,1,0,0:0:0:0:
256,192,80663,1,8,0:0:0:0:
256,192,80819,1,0,0:0:0:0:
256,192,80975,1,0,0:0:0:0:
256,192,81131,1,8,0:0:0:0:
256,192,81288,1,0,0:0:0:0:
256,192,81444,1,0,0:0:0:0:
256,192,81600,1,8,0:0:0:0:
256,192,81756,1,0,0:0:0:0:
256,192,81912,1,0,0:0:0:0:
256,192,82069,1,8,0:0:0:0:
256,192,82225,1,0,0:0:0:0:
256,192,82538,1,8,0:0:0:0:
256,192,82616,1,8,0:0:0:0:
256,192,82694,1,8,0:0:0:0:
256,192,82772,1,8,0:0:0:0:
256,192,82850,1,0,0:0:0:0:
256,192,82928,1,0,0:0:0:0:
256,192,83006,1,0,0:0:0:0:
256,192,83084,1,0,0:0:0:0:
256,192,83163,1,8,0:0:0:0:
256,192,83241,1,0,0:0:0:0:
256,192,83319,1,0,0:0:0:0:
256,192,83397,1,0,0:0:0:0:
256,192,83475,1,0,0:0:0:0:
256,192,83553,1,0,0:0:0:0:
256,192,83631,1,8,0:0:0:0:
256,192,83709,1,0,0:0:0:0:
256,192,83788,1,0,0:0:0:0:
256,192,83866,1,0,0:0:0:0:
256,192,83944,1,8,0:0:0:0:
256,192,84022,1,0,0:0:0:0:
256,192,84100,1,0,0:0:0:0:
256,192,84178,1,0,0:0:0:0:
256,192,84256,1,0,0:0:0:0:
256,192,84334,1,0,0:0:0:0:
256,192,84413,1,8,0:0:0:0:
256,192,84491,1,8,0:0:0:0:
256,192,84569,1,8,0:0:0:0:
256,192,84647,1,8,0:0:0:0:
256,192,84725,1,8,0:0:0:0:
256,192,85038,1,8,0:0:0:0:
256,192,85116,1,8,0:0:0:0:
256,192,85194,1,8,0:0:0:0:
256,192,85272,1,8,0:0:0:0:
256,192,85350,1,0,0:0:0:0:
256,192,85428,1,0,0:0:0:0:
256,192,85506,1,0,0:0:0:0:
256,192,85584,1,0,0:0:0:0:
256,192,85663,1,8,0:0:0:0:
256,192,85741,1,0,0:0:0:0:
256,192,85819,1,0,0:0:0:0:
256,192,85897,1,0,0:0:0:0:
256,192,85975,1,0,0:0:0:0:
256,192,86053,1,0,0:0:0:0:
256,192,86131,1,0,0:0:0:0:
256,192,86209,1,0,0:0:0:0:
256,192,86288,1,8,0:0:0:0:
256,192,86366,1,0,0:0:0:0:
256,192,86444,1,0,0:0:0:0:
256,192,86522,1,0,0:0:0:0:
256,192,86600,1,0,0:0:0:0:
256,192,86678,1,0,0:0:0:0:
256,192,86756,1,8,0:0:0:0:
256,192,86834,1,0,0:0:0:0:
256,192,86913,1,0,0:0:0:0:
256,192,86991,1,0,0:0:0:0:
256,192,87069,1,8,0:0:0:0:
256,192,87147,1,8,0:0:0:0:
256,192,87225,1,0,0:0:0:0:
256,192,87538,1,8,0:0:0:0:
256,192,87616,1,8,0:0:0:0:
256,192,87694,1,8,0:0:0:0:
256,192,87772,1,8,0:0:0:0:
256,192,87850,1,0,0:0:0:0:
256,192,87928,1,0,0:0:0:0:
256,192,88006,1,0,0:0:0:0:
256,192,88084,1,0,0:0:0:0:
256,192,88163,1,8,0:0:0:0:
256,192,88241,1,0,0:0:0:0:
256,192,88319,1,0,0:0:0:0:
256,192,88397,1,0,0:0:0:0:
256,192,88475,1,0,0:0:0:0:
256,192,88553,1,0,0:0:0:0:
256,192,88631,1,8,0:0:0:0:
256,192,88709,1,0,0:0:0:0:
256,192,88788,1,0,0:0:0:0:
256,192,88866,1,0,0:0:0:0:
256,192,88944,1,8,0:0:0:0:
256,192,89022,1,0,0:0:0:0:
256,192,89100,1,0,0:0:0:0:
256,192,89178,1,0,0:0:0:0:
256,192,89256,1,0,0:0:0:0:
256,192,89334,1,0,0:0:0:0:
256,192,89413,1,8,0:0:0:0:
256,192,89491,1,8,0:0:0:0:
256,192,89569,1,8,0:0:0:0:
256,192,89647,1,8,0:0:0:0:
256,192,89725,1,8,0:0:0:0:
256,192,90038,1,8,0:0:0:0:
256,192,90116,1,8,0:0:0:0:
256,192,90194,1,8,0:0:0:0:
256,192,90272,1,8,0:0:0:0:
256,192,90350,1,0,0:0:0:0:
256,192,90428,1,0,0:0:0:0:
256,192,90506,1,0,0:0:0:0:
256,192,90584,1,0,0:0:0:0:
256,192,90663,1,8,0:0:0:0:
256,192,90819,1,4,0:0:0:0:
256,192,90975,1,12,0:0:0:0:
256,192,91131,1,4,0:0:0:0:
256,192,91288,1,4,0:0:0:0:
256,192,91444,1,12,0:0:0:0:
256,192,91600,1,4,0:0:0:0:
256,192,91756,1,0,0:0:0:0:
256,192,91834,1,0,0:0:0:0:
256,192,91913,1,8,0:0:0:0:
256,192,92069,1,4,0:0:0:0:
256,192,92225,1,12,0:0:0:0:
