osu file format v12

[General]
AudioFilename: Overture.mp3
AudioLeadIn: 0
PreviewTime: 62459
Countdown: 0
SampleSet: Normal
StackLeniency: 0.7
Mode: 0
LetterboxInBreaks: 0
WidescreenStoryboard: 0

[Editor]
Bookmarks: 16288,17069,87538
DistanceSpacing: 1
BeatDivisor: 4
GridSize: 4

[Metadata]
Title:Overture
TitleUnicode:Overture
Artist:MuryokuP
ArtistUnicode:無力P
Creator:Sephibro
Version:Normal
Source:
Tags:your pianist piano instrumental megurine luka vocaloid pagno galvenize nemis
BeatmapID:314248
BeatmapSetID:122520

[Difficulty]
HPDrainRate:3
CircleSize:3
OverallDifficulty:4
ApproachRate:5
SliderMultiplier:0.999999999999999
SliderTickRate:1

[Events]
//Background and Video events
0,0,"luka-megurine-playing-piano.jpg",0,0
//Break Periods
//Storyboard Layer 0 (Background)
//Storyboard Layer 1 (Fail)
//Storyboard Layer 2 (Pass)
//Storyboard Layer 3 (Foreground)
//Storyboard Sound Samples
//Background Colour Transformations
3,100,128,255,255

[TimingPoints]
11288,625,4,2,1,15,1,0
16288,-83.3333333333333,4,2,1,15,0,0
33788,-83.3333333333333,4,2,1,15,0,0
35038,-83.3333333333333,4,2,1,10,0,0
35663,-83.3333333333333,4,2,1,5,0,0
36288,-100,4,2,2,5,0,0
36913,-100,4,2,1,20,0,0
38163,-100,4,2,1,15,0,0
39413,-100,4,2,1,10,0,0
40663,-100,4,2,1,5,0,0
41288,-100,4,2,2,5,0,0
42538,312.5,4,1,1,60,1,1
42557,-100,4,1,1,60,0,0
82538,-100,4,1,1,60,0,1
92459,-100,4,1,2,60,0,0

[Colours]
Combo1 : 184,102,238
Combo2 : 128,255,128
Combo3 : 21,138,255

[HitObjects]
163,241,16288,2,0,P|221:232|272:200,1,119.999996337891,2|0,0:0|0:0,0:0:0:0:
307,86,17538,2,0,P|376:140|389:227,1,179.999994506836,2|0,0:0|0:0,0:0:0:0:
444,76,21288,5,2,0:0:0:0:
411,179,21913,1,0,0:0:0:0:
320,241,22538,2,0,P|235:263|149:240,1,179.999994506836,2|0,0:0|0:0,0:0:0:0:
83,290,26288,5,2,0:0:0:0:
194,245,26913,1,0,0:0:0:0:
310,275,27538,1,2,0:0:0:0:
397,192,28163,1,0,0:0:0:0:
367,75,28788,6,0,B|313:36|206:104|177:50,2,180.000006866455,2|2|2,0:0|0:0|0:0,0:0:0:0:
459,151,31288,5,2,0:0:0:0:
425,266,31913,1,0,0:0:0:0:
312,306,32538,2,0,P|223:285|139:305,1,179.999994506836,2|0,0:0|0:0,0:0:0:0:
256,192,33788,12,0,36288,1:0:0:0:
256,192,36913,12,0,41288,1:0:0:0:
160,112,42538,6,0,P|259:112|352:76,1,200,4|8,0:0|0:0,0:0:0:0:
444,36,43475,1,0,0:0:0:0:
432,136,43788,2,0,P|432:184|456:244,1,99.9999999999999
348,228,44413,2,0,P|360:280|348:340,1,99.9999999999999,8|0,0:0|0:0,0:0:0:0:
263,283,45038,6,0,P|216:199|121:179,1,200,4|8,0:0|0:0,0:0:0:0:
156,276,45975,2,0,P|110:283|58:262,2,99.9999999999999
120,179,46913,2,0,P|82:135|82:83,1,99.9999999999999,8|0,0:0|0:0,0:0:0:0:
164,36,47538,5,4,0:0:0:0:
242,100,47850,1,0,0:0:0:0:
284,192,48163,1,8,0:0:0:0:
373,242,48475,1,0,0:0:0:0:
472,216,48788,2,0,P|488:160|476:112,1,99.9999999999999
380,132,49413,2,0,P|368:88|320:48,1,99.9999999999999,8|0,0:0|0:0,0:0:0:0:
279,140,50038,6,0,P|181:146|107:80,1,200,4|8,0:0|0:0,0:0:0:0:
19,36,50975,1,0,0:0:0:0:
19,36,51288,2,0,P|15:96|-9:152,1,99.9999999999999
68,208,51913,2,0,P|63:267|79:326,1,99.9999999999999,8|0,0:0|0:0,0:0:0:0:
172,300,52538,6,0,P|263:339|361:332,1,200,4|8,0:0|0:0,0:0:0:0:
452,292,53475,1,0,0:0:0:0:
408,200,53788,1,0,0:0:0:0:
452,110,54100,1,0,0:0:0:0:
382,40,54413,1,8,0:0:0:0:
292,84,54725,1,0,0:0:0:0:
308,184,55038,6,0,B|236:248|236:248|136:284,1,200,4|8,0:0|0:0,0:0:0:0:
44,312,55975,1,0,0:0:0:0:
60,212,56288,2,0,B|72:164|72:164|56:112,1,99.9999999999999
130,47,56913,2,0,B|146:99|146:99|192:128,1,99.9999999999999,8|0,0:0|0:0,0:0:0:0:
263,188,57538,6,0,P|285:281|376:310,1,200,4|8,0:0|0:0,0:0:0:0:
360,212,58475,1,0,0:0:0:0:
455,236,58788,2,0,P|455:177|431:140,1,99.9999999999999
360,212,59413,2,0,P|336:168|338:119,1,99.9999999999999,8|0,0:0|0:0,0:0:0:0:
380,28,60038,5,4,0:0:0:0:
280,36,60350,2,0,P|232:48|200:84,2,99.9999999999999,0|8|0,0:0|0:0|0:0,0:0:0:0:
340,116,61288,2,0,P|404:164|456:160,1,99.9999999999999
443,264,61913,2,0,P|406:295|357:307,1,99.9999999999999,8|0,0:0|0:0,0:0:0:0:
256,307,62538,6,0,P|240:215|148:200,1,200,4|8,0:0|0:0,0:0:0:0:
80,274,63475,1,0,0:0:0:0:
180,276,63788,2,8,P|260:212|308:128,1,200,0|8,0:0|0:0,0:0:0:0:
360,44,64725,1,0,0:0:0:0:
428,116,65038,6,0,P|468:152|516:172,2,99.9999999999999,4|0|8,0:0|0:0|0:0,0:0:0:0:
360,44,65975,1,0,0:0:0:0:
306,128,66288,1,0,0:0:0:0:
337,223,66601,1,0,0:0:0:0:
256,282,66913,1,8,0:0:0:0:
175,223,67226,1,0,0:0:0:0:
206,128,67538,6,0,B|150:40|94:124|34:20,2,200,4|8|0,0:0|0:0|0:0,0:0:0:0:
306,256,69413,2,0,B|362:344|418:260|478:364,2,200,0|4|8,0:0|0:0|0:0,0:0:0:0:
336,160,70975,1,0,0:0:0:0:
256,100,71288,1,0,0:0:0:0:
176,160,71600,1,0,0:0:0:0:
206,256,71913,2,0,P|170:292|118:304,1,99.9999999999999,8|0,0:0|0:0,0:0:0:0:
96,207,72538,6,0,P|159:139|114:57,1,200,4|8,0:0|0:0,0:0:0:0:
14,49,73475,1,0,0:0:0:0:
76,128,73788,2,0,P|174:136|264:95,1,200,0|8,0:0|0:0,0:0:0:0:
344,36,74725,1,0,0:0:0:0:
404,116,75038,6,0,L|472:212,1,99.9999999999999,4|0,0:0|0:0,0:0:0:0:
364,220,75663,2,0,L|388:332,1,99.9999999999999,8|0,0:0|0:0,0:0:0:0:
287,296,76288,2,0,B|208:362|98:340,1,200,0|8,0:0|0:0,0:0:0:0:
10,295,77225,1,0,0:0:0:0:
100,252,77538,6,0,P|198:249|280:168,1,200,4|8,0:0|0:0,0:0:0:0:
368,161,78475,2,0,P|404:125|464:113,1,99.9999999999999
253,91,79413,2,0,P|209:119|153:119,1,99.9999999999999,8|0,0:0|0:0,0:0:0:0:
92,52,80038,6,0,P|120:148|88:260,1,200,4|8,0:0|0:0,0:0:0:0:
64,340,80975,1,0,0:0:0:0:
164,320,81288,2,0,P|260:292|372:324,1,200,0|8,0:0|0:0,0:0:0:0:
452,340,82225,1,0,0:0:0:0:
440,240,82538,6,0,P|433:171|448:140,2,99.9999999999999,4|0|8,0:0|0:0|0:0,0:0:0:0:
452,340,83475,1,0,0:0:0:0:
360,300,83788,1,0,0:0:0:0:
264,332,84100,1,0,0:0:0:0:
168,300,84413,1,8,0:0:0:0:
76,340,84725,1,0,0:0:0:0:
60,240,85038,6,0,P|44:176|64:128,1,99.9999999999999,4|0,0:0|0:0,0:0:0:0:
152,148,85663,2,0,P|172:96|212:64,1,99.9999999999999,8|0,0:0|0:0,0:0:0:0:
307,67,86288,2,0,P|343:101|360:148,1,99.9999999999999,0|0,0:0|0:0,0:0:0:0:
458,144,86913,2,0,P|468:193|452:240,1,99.9999999999999,8|0,0:0|0:0,0:0:0:0:
375,304,87538,6,0,P|285:266|256:173,1,200,4|8,0:0|0:0,0:0:0:0:
256,74,88475,1,0,0:0:0:0:
256,174,88788,2,0,P|226:265|134:312,1,200,4|8,0:0|0:0,0:0:0:0:
40,321,89725,1,0,0:0:0:0:
70,225,90038,6,0,P|105:113|91:31,1,200,4|8,0:0|0:0,0:0:0:0:
188,61,90975,1,0,0:0:0:0:
210,158,91288,2,0,P|226:202|278:245,1,99.9999999999999,4|0,0:0|0:0,0:0:0:0:
358,269,91913,2,0,B|401:233|388:148|428:112,1,175,12|0,0:0|0:0,0:0:0:0:
