osu file format v12

[General]
AudioFilename: Overture.mp3
AudioLeadIn: 0
PreviewTime: 62459
Countdown: 0
SampleSet: Normal
StackLeniency: 0.5
Mode: 0
LetterboxInBreaks: 0
WidescreenStoryboard: 0

[Editor]
Bookmarks: 16288
DistanceSpacing: 0.8
BeatDivisor: 4
GridSize: 4

[Metadata]
Title:Overture
TitleUnicode:Overture
Artist:MuryokuP
ArtistUnicode:無力P
Creator:Sephibro
Version:Insane
Source:
Tags:your pianist piano instrumental megurine luka vocaloid pagno galvenize nemis
BeatmapID:315816
BeatmapSetID:122520

[Difficulty]
HPDrainRate:7
CircleSize:4
OverallDifficulty:7
ApproachRate:9
SliderMultiplier:1.7
SliderTickRate:2

[Events]
//Background and Video events
0,0,"luka-megurine-playing-piano.jpg",0,0
//Break Periods
//Storyboard Layer 0 (Background)
//Storyboard Layer 1 (Fail)
//Storyboard Layer 2 (Pass)
//Storyboard Layer 3 (Foreground)
//Storyboard Sound Samples
//Background Colour Transformations
3,100,128,255,255

[TimingPoints]
11288,625,4,2,1,15,1,0
16288,-125,4,2,1,15,0,0
18475,-200,4,2,7,100,0,0
18788,-200,4,2,1,5,0,0
21288,-125,4,2,5,95,0,0
21600,-125,4,2,6,95,0,0
23475,-200,4,2,12,100,0,0
23788,-200,4,2,1,5,0,0
26288,-125,4,2,4,80,0,0
26600,-125,4,2,6,90,0,0
27538,-125,4,2,8,100,0,0
27850,-125,4,2,9,100,0,0
31288,-125,4,2,10,90,0,0
31600,-125,4,2,6,90,0,0
32538,-125,4,2,8,100,0,0
32850,-125,4,2,9,100,0,0
33475,-200,4,2,11,100,0,0
33788,-200,4,2,1,5,0,0
36288,-100,4,2,2,15,0,0
36913,-100,4,2,1,20,0,0
38163,-100,4,2,1,15,0,0
39413,-100,4,2,1,10,0,0
40663,-100,4,2,1,5,0,0
41288,-100,4,2,2,5,0,0
42538,312.5,4,1,1,60,1,1
42557,-100,4,1,1,60,0,0
82538,-100,4,1,1,55,0,1
92225,-125,4,1,1,55,0,1
92381,-125,4,1,1,15,0,1
92459,-100,4,1,2,5,0,0

[Colours]
Combo1 : 184,102,238
Combo2 : 128,255,128
Combo3 : 21,138,255

[HitObjects]
168,232,16288,5,0,0:0:0:80:F#3OGG.ogg
52,178,16600,1,0,0:0:0:80:C#4OGG.ogg
105,61,16913,1,0,0:0:0:80:G#4OGG.ogg
220,116,17225,1,0,0:0:0:80:A4OGG.ogg
300,224,17538,5,0,0:0:0:80:E5OGG.ogg
359,358,17850,1,0,0:0:0:80:B4OGG.ogg
493,296,18163,1,0,0:0:0:80:C#5OGG.ogg
432,160,18475,2,0,P|366:48|268:134,1,297.5,0|0,0:0|0:0,0:0:0:0:
76,286,21288,6,0,L|164:254,1,68
260,242,21913,1,0,0:0:0:80:G#4OGG.ogg
196,142,22226,1,0,0:0:0:80:A4OGG.ogg
376,226,22538,1,0,0:0:0:80:E5OGG.ogg
408,114,22850,1,0,0:0:0:80:B4OGG.ogg
328,318,23163,1,0,0:0:0:80:C#5OGG.ogg
296,74,23475,2,0,B|285:99|291:136|291:136|286:214|220:244|145:231|119:165,1,297.5
112,72,26209,5,0,0:0:0:60:F#6OGG.ogg
120,84,26288,2,0,L|192:124,1,68
224,212,26913,1,0,0:0:0:80:G#4OGG.ogg
340,156,27225,1,0,0:0:0:80:A4OGG.ogg
440,236,27538,2,0,L|364:284,1,68
336,368,28163,1,0,0:0:0:80:C#5OGG.ogg
208,336,28475,1,0,0:0:0:80:G#5OGG.ogg
96,80,28788,5,0,0:0:0:85:E8OGG.ogg
256,316,29725,1,0,0:0:0:85:B7OGG.ogg
416,80,30663,1,0,0:0:0:85:F#7OGG.ogg
416,80,31209,5,0,0:0:0:60:F#6OGG.ogg
420,100,31288,2,0,L|388:172,1,68
320,296,31913,1,0,0:0:0:80:G#4OGG.ogg
264,108,32225,1,0,0:0:0:80:A4OGG.ogg
88,164,32538,2,0,L|120:224,1,68
216,336,33163,1,0,0:0:0:80:C#5OGG.ogg
368,124,33475,6,0,B|319:92|254:117|228:183|257:234,1,212.5
256,192,35194,12,0,36288,1:0:0:0:
256,192,36913,12,0,41288,1:0:0:0:
160,212,42538,6,0,P|184:252|228:272,1,85,4|0,0:0|0:0,0:0:0:0:
324,96,42850,2,0,P|296:60|248:44,1,85
160,211,43163,2,0,P|165:252|190:287,1,85,8|0,0:0|0:0,0:0:0:0:
400,260,43475,2,0,P|393:218|368:180,1,85
156,56,43788,5,0,0:0:0:0:
324,192,43944,1,0,0:0:0:0:
188,192,44100,1,0,0:0:0:0:
356,56,44256,1,0,0:0:0:0:
188,192,44413,1,8,0:0:0:0:
324,192,44569,1,0,0:0:0:0:
156,328,44725,1,0,0:0:0:0:
356,328,44881,1,0,0:0:0:0:
356,327,45038,6,0,P|389:302|404:260,1,85,4|0,0:0|0:0,0:0:0:0:
420,160,45350,1,0,0:0:0:0:
368,64,45506,1,0,0:0:0:0:
180,348,45663,2,0,P|158:311|151:269,1,85,8|0,0:0|0:0,0:0:0:0:
148,164,45975,1,0,0:0:0:0:
216,84,46131,1,0,0:0:0:0:
216,84,46209,1,0,0:0:0:0:
216,84,46288,6,0,P|251:55|292:43,1,85
388,204,46600,2,0,P|348:252|308:260,1,85
216,84,46913,2,0,P|264:68|308:68,1,85,8|0,0:0|0:0,0:0:0:0:
289,304,47225,2,0,P|249:319|207:316,1,85
215,84,47538,6,0,P|258:79|300:96,1,85,4|0,0:0|0:0,0:0:0:0:
396,152,47850,1,0,0:0:0:0:
464,256,48006,1,0,0:0:0:0:
384,340,48163,2,0,P|332:332|296:296,2,85,8|0|0,0:0|0:0|0:0,0:0:0:0:
376,240,48631,1,0,0:0:0:0:
416,68,48788,6,0,L|364:135,1,85
248,352,49100,2,0,L|299:284,1,85
288,44,49413,2,0,L|236:111,1,85,8|0,0:0|0:0,0:0:0:0:
60,244,49725,2,0,L|111:176,1,85
192,52,50038,5,4,0:0:0:0:
287,95,50194,2,0,P|329:104|370:96,1,85
480,56,50506,1,0,0:0:0:0:
440,156,50663,1,8,0:0:0:0:
488,252,50819,1,0,0:0:0:0:
409,320,50975,1,0,0:0:0:0:
304,317,51131,1,0,0:0:0:0:
297,315,51209,1,0,0:0:0:0:
292,312,51288,6,0,P|253:294|226:261,1,85,0|0,0:0|0:0,0:0:0:0:
191,51,51600,2,0,P|230:68|258:100,1,85
96,276,51913,2,0,P|84:228|92:184,1,85,8|0,0:0|0:0,0:0:0:0:
411,71,52225,2,0,P|431:109|436:151,1,85
440,264,52538,5,4,0:0:0:0:
348,352,52694,1,0,0:0:0:0:
256,260,52850,1,0,0:0:0:0:
164,352,53006,1,0,0:0:0:0:
72,264,53163,1,8,0:0:0:0:
84,112,53319,2,0,L|168:101,1,85
343,38,53631,1,0,0:0:0:0:
427,174,53788,6,0,L|342:163,1,85
168,101,54100,1,0,0:0:0:0:
83,237,54256,2,0,L|167:226,1,85,0|8,0:0|0:0,0:0:0:0:
342,163,54569,1,0,0:0:0:0:
426,299,54725,2,0,L|341:288,1,85
167,226,55038,5,4,0:0:0:0:
256,104,55194,2,0,B|284:67|334:61,2,85
167,226,55663,1,8,0:0:0:0:
288,312,55819,1,0,0:0:0:0:
428,260,55975,1,0,0:0:0:0:
440,140,56131,1,0,0:0:0:0:
424,124,56209,1,0,0:0:0:0:
407,107,56288,6,0,L|343:40,1,85
136,48,56600,2,0,L|200:115,1,85
340,336,56913,2,0,L|276:269,1,85,8|0,0:0|0:0,0:0:0:0:
52,240,57225,2,0,L|116:307,1,85
292,318,57538,6,0,P|298:276|286:237,1,85,4|0,0:0|0:0,0:0:0:0:
220,66,57850,2,0,P|213:107|226:147,1,85,0|0,0:0|0:0,0:0:0:0:
356,144,58163,2,0,P|395:126|424:97,1,85,8|0,0:0|0:0,0:0:0:0:
155,239,58475,2,0,P|115:256|86:285,1,85,0|0,0:0|0:0,0:0:0:0:
241,246,58788,5,0,0:0:0:0:
270,137,58944,1,0,0:0:0:0:
292,318,59100,1,0,0:0:0:0:
220,66,59256,1,0,0:0:0:0:
368,259,59413,1,8,0:0:0:0:
144,125,59569,1,0,0:0:0:0:
312,192,59726,1,0,0:0:0:0:
200,192,59882,1,0,0:0:0:0:
340,88,60038,6,0,L|428:80,1,85,4|0,0:0|0:0,0:0:0:0:
166,158,60350,2,0,L|78:150,1,85
352,228,60663,2,0,L|440:220,1,85,8|0,0:0|0:0,0:0:0:0:
154,298,60975,2,0,L|66:290,1,85
248,344,61288,5,0,0:0:0:0:
304,256,61444,1,0,0:0:0:0:
200,252,61600,1,0,0:0:0:0:
343,327,61756,2,0,P|374:300|386:260,1,85,0|8,0:0|0:0,0:0:0:0:
223,173,62069,2,0,P|202:209|199:251,1,85
304,256,62381,1,0,0:0:0:0:
173,88,62538,6,0,P|170:172|200:252,1,170,4|0,0:0|0:0,0:0:0:0:
284,336,63006,1,0,0:0:0:0:
128,332,63163,1,8,0:0:0:0:
64,192,63319,1,0,0:0:0:0:
153,65,63475,2,0,B|188:88|196:136,1,85
152,192,63788,6,0,B|196:227|248:204|276:176|276:100,1,170,0|0,0:0|0:0,0:0:0:0:
288,24,64256,1,0,0:0:0:0:
376,120,64413,2,0,P|424:92|464:96,1,85,8|0,0:0|0:0,0:0:0:0:
356,217,64725,2,0,L|344:258,1,42.5
395,364,64881,2,0,L|365:335,1,42.5
289,315,65038,6,0,P|205:328|123:307,1,170,4|0,0:0|0:0,0:0:0:0:
71,136,65506,2,0,P|117:123|184:138,1,85,0|8,0:0|0:0,0:0:0:0:
205,328,65819,2,0,P|162:322|123:307,1,85
234,162,66131,1,0,0:0:0:0:
352,52,66288,6,0,P|420:104|444:196,1,170
424,320,66756,1,0,0:0:0:0:
260,316,66913,2,0,P|224:297|205:259,1,85,8|0,0:0|0:0,0:0:0:0:
82,161,67225,1,0,0:0:0:0:
114,148,67303,1,0,0:0:0:0:
137,124,67381,1,0,0:0:0:0:
148,92,67459,1,0,0:0:0:0:
152,58,67538,6,0,P|236:63|316:38,1,170,4|0,0:0|0:0,0:0:0:0:
432,8,68006,1,0,0:0:0:0:
312,132,68163,2,0,P|390:100|474:99,1,170,8|0,0:0|0:0,0:0:0:0:
81,157,68788,6,0,L|81:245,1,85
177,373,69100,2,0,L|161:289,1,85
235,228,69413,2,0,P|318:213|386:165,1,170,8|0,0:0|0:0,0:0:0:0:
388,24,69881,1,0,0:0:0:0:
296,131,70038,6,0,P|312:220|368:275,1,170,4|0,0:0|0:0,0:0:0:0:
248,324,70506,1,0,0:0:0:0:
368,136,70663,2,0,P|360:96|324:64,1,85,8|0,0:0|0:0,0:0:0:0:
128,196,70975,2,0,P|136:236|172:268,1,85,0|0,0:0|0:0,0:0:0:0:
56,184,71288,6,0,B|68:124|136:100|188:148,1,170
292,272,71756,1,0,0:0:0:0:
292,120,71913,2,0,P|332:132|373:124,1,85,8|0,0:0|0:0,0:0:0:0:
193,46,72225,1,0,0:0:0:0:
159,44,72303,1,0,0:0:0:0:
128,57,72381,1,0,0:0:0:0:
103,80,72459,1,0,0:0:0:0:
90,111,72538,6,0,P|132:182|121:265,1,170,4|0,0:0|0:0,0:0:0:0:
56,360,73006,1,0,0:0:0:0:
151,228,73163,2,0,P|180:196|218:178,1,85,8|0,0:0|0:0,0:0:0:0:
296,284,73475,2,0,P|335:268|362:236,1,85
488,295,73788,6,0,P|513:216|490:135,1,170
312,28,74256,1,0,0:0:0:0:
423,167,74413,2,0,P|440:216|424:256,1,85,8|0,0:0|0:0,0:0:0:0:
308,328,74725,1,0,0:0:0:0:
280,307,74803,1,0,0:0:0:0:
263,277,74881,1,0,0:0:0:0:
256,243,74959,1,0,0:0:0:0:
253,208,75038,6,0,P|169:208|122:273,1,170,4|0,0:0|0:0,0:0:0:0:
212,288,75506,1,0,0:0:0:0:
156,100,75663,1,8,0:0:0:0:
232,36,75819,1,0,0:0:0:0:
300,108,75975,1,0,0:0:0:0:
376,44,76131,1,0,0:0:0:0:
318,269,76288,6,0,P|288:191|300:108,1,170
420,192,76756,1,0,0:0:0:0:
304,284,76913,2,0,P|260:280|220:260,1,85,8|0,0:0|0:0,0:0:0:0:
284,44,77225,2,0,L|236:8,1,42.5
200,64,77381,2,0,L|148:52,1,42.5
141,120,77538,6,0,P|98:212|128:290,1,170,4|0,0:0|0:0,0:0:0:0:
256,336,78006,1,0,0:0:0:0:
256,335,78163,2,0,P|296:260|280:176,1,170,8|0,0:0|0:0,0:0:0:0:
504,203,78788,6,0,L|472:285,1,85
337,370,79100,2,0,L|382:297,1,85
328,217,79413,2,0,P|256:174|209:104,1,170,8|0,0:0|0:0,0:0:0:0:
319,32,79881,1,0,0:0:0:0:
376,152,80038,6,0,P|356:248|288:312,1,170,4|0,0:0|0:0,0:0:0:0:
128,296,80506,1,0,0:0:0:0:
199,132,80663,2,0,P|229:101|266:81,1,85,8|0,0:0|0:0,0:0:0:0:
328,252,80975,2,0,P|300:284|244:308,1,85
224,79,81288,6,0,P|304:40|384:44,1,170
401,260,81756,2,0,P|391:301|360:329,1,85,0|8,0:0|0:0,0:0:0:0:
111,260,82069,2,0,P|121:301|152:329,1,85
328,108,82538,6,0,L|340:44,2,56.6666666666667,4|0|0,0:0|0:0|0:0,0:0:0:0:
401,260,82851,2,0,L|476:240,2,56.6666666666667
358,275,83163,1,8,0:0:0:0:
314,261,83268,1,0,0:0:0:0:
299,218,83372,1,0,0:0:0:0:
278,177,83476,1,0,0:0:0:0:
239,153,83580,1,0,0:0:0:0:
193,156,83684,1,0,0:0:0:0:
152,175,83788,6,0,L|96:207,2,56.6666666666667
192,296,84100,2,0,L|162:364,2,56.6666666666667
297,281,84413,5,8,0:0:0:0:
452,112,84621,1,0,0:0:0:0:
249,9,84829,1,0,0:0:0:0:
327,240,85038,6,0,L|394:260,2,56.6666666666667,4|0|0,0:0|0:0|0:0,0:0:0:0:
192,296,85350,2,0,L|145:348,2,56.6666666666667
259,105,85663,2,0,L|274:50,2,56.6666666666667,8|0|0,0:0|0:0|0:0,0:0:0:0:
109,217,85975,2,0,L|48:223,2,56.6666666666667
153,208,86288,5,0,0:0:0:0:
190,182,86392,1,0,0:0:0:0:
200,137,86496,1,0,0:0:0:0:
188,93,86600,1,0,0:0:0:0:
231,80,86704,1,0,0:0:0:0:
274,93,86808,1,0,0:0:0:0:
296,132,86913,1,8,0:0:0:0:
303,176,87017,1,0,0:0:0:0:
338,203,87121,1,0,0:0:0:0:
382,210,87225,1,0,0:0:0:0:
426,200,87329,1,0,0:0:0:0:
460,170,87433,1,0,0:0:0:0:
477,127,87538,6,0,L|491:69,2,56.6666666666667,4|0|0,0:0|0:0|0:0,0:0:0:0:
368,254,87850,2,0,L|356:325,2,56.6666666666667
252,137,88163,2,0,L|239:74,2,56.6666666666667,8|0|0,0:0|0:0|0:0,0:0:0:0:
112,266,88475,2,0,L|122:336,2,56.6666666666667
102,221,88788,5,0,0:0:0:0:
89,177,88892,1,0,0:0:0:0:
63,139,88996,1,0,0:0:0:0:
25,116,89100,1,0,0:0:0:0:
63,92,89204,1,0,0:0:0:0:
99,65,89308,1,0,0:0:0:0:
129,31,89413,1,8,0:0:0:0:
172,18,89517,1,0,0:0:0:0:
215,30,89621,1,0,0:0:0:0:
251,56,89725,1,0,0:0:0:0:
273,95,89829,1,0,0:0:0:0:
315,110,89933,1,0,0:0:0:0:
352,84,90038,5,4,0:0:0:0:
373,44,90142,1,0,0:0:0:0:
409,17,90246,1,0,0:0:0:0:
459,18,90350,1,0,0:0:0:0:
492,48,90454,1,0,0:0:0:0:
501,92,90558,1,0,0:0:0:0:
470,125,90663,1,8,0:0:0:0:
443,161,90767,1,0,0:0:0:0:
433,205,90871,1,0,0:0:0:0:
436,250,90975,1,0,0:0:0:0:
444,294,91079,1,0,0:0:0:0:
458,336,91183,1,0,0:0:0:0:
413,325,91288,5,4,0:0:0:0:
368,317,91392,1,0,0:0:0:0:
323,323,91496,1,0,0:0:0:0:
282,343,91600,1,0,0:0:0:0:
237,348,91704,1,0,0:0:0:0:
196,328,91808,1,0,0:0:0:0:
177,286,91913,1,12,0:0:0:0:
193,243,92017,1,0,0:0:0:0:
231,218,92121,1,0,0:0:0:0:
272,199,92225,2,0,B|307:199|336:156|372:156,1,102,0|0,0:0|0:0,0:0:0:0:
