osu file format v12

[General]
AudioFilename: last bell.mp3
AudioLeadIn: 1000
PreviewTime: 107508
Countdown: 0
SampleSet: Normal
StackLeniency: 0.7
Mode: 0
LetterboxInBreaks: 1
WidescreenStoryboard: 0

[Editor]
DistanceSpacing: 1.2
BeatDivisor: 4
GridSize: 4

[Metadata]
Title:Last Bell
TitleUnicode:Last Bell
Artist:MuryokuP
ArtistUnicode:無力P
Creator:meiikyuu
Version:Finale
Source:
Tags:doujin barrage am ring 2
BeatmapID:286538
BeatmapSetID:109857

[Difficulty]
HPDrainRate:7
CircleSize:4
OverallDifficulty:7
ApproachRate:9
SliderMultiplier:1.7
SliderTickRate:1

[Events]
//Background and Video events
0,0,"lastbell.jpg",0,0
//Break Periods
//Storyboard Layer 0 (Background)
//Storyboard Layer 1 (Fail)
//Storyboard Layer 2 (Pass)
//Storyboard Layer 3 (Foreground)
//Storyboard Sound Samples
//Background Colour Transformations
3,100,163,162,255

[TimingPoints]
2190,300,4,2,0,60,1,0
4290,-100,4,2,0,40,0,0
4590,-100,4,2,0,60,0,0
6990,-100,4,2,0,50,0,0
7065,-100,4,2,0,60,0,0
11490,-100,4,1,0,50,0,0
11790,-100,4,1,0,60,0,0
33390,-111.111111111111,4,1,0,60,0,0
35790,-100,4,1,0,60,0,0
40590,-111.111111111111,4,1,0,60,0,1
40665,-111.111111111111,4,1,0,60,0,0
45390,-100,4,1,0,60,0,0
71790,-111.111111111111,4,1,0,60,0,0
74190,-100,4,1,0,60,0,0
78990,-111.111111111111,4,1,0,60,0,1
79065,-111.111111111111,4,1,0,60,0,0
83790,-100,4,1,0,60,0,0
107790,-100,4,1,0,60,0,1
129390,-100,4,2,0,40,0,0
132990,-100,4,2,0,30,0,0

[Colours]
Combo1 : 255,79,79
Combo2 : 173,90,138
Combo3 : 77,73,201

[HitObjects]
256,192,2190,2,0,L|256:88,2,85,4|0|0,0:0|0:0|0:0,0:0:0:0:
312,256,2640,2,0,P|372:196|356:96,1,170
196,48,3090,2,0,P|168:81|128:105,2,85,4|0|0,0:0|0:0|0:0,0:0:0:0:
300,40,3540,2,0,P|360:60|424:168,1,170
412,236,3990,1,0,0:0:0:0:
356,308,4140,1,0,0:0:0:0:
356,308,4290,1,4,0:0:0:0:
356,308,4590,6,0,L|264:324,1,85,4|0,0:0|0:0,0:0:0:0:
180,336,4890,1,0,0:0:0:0:
96,296,5040,2,0,B|84:220|84:220|104:116,1,170
184,48,5490,2,0,L|288:48,2,85,4|0|0,0:0|0:0|0:0,0:0:0:0:
212,144,5940,2,0,B|244:184|312:176|312:176|348:232,1,170
212,144,6390,2,0,L|124:144,1,85
55,248,6690,2,0,L|140:248,1,85,0|0,0:0|1:0,0:0:0:0:
156,260,6915,1,0,0:0:0:0:
172,272,6990,6,0,P|208:316|220:348,1,85,4|0,1:0|0:0,0:0:0:0:
329,293,7290,2,0,P|340:268|376:224,1,85,0|0,0:0|0:0,0:0:0:0:
316,120,7590,2,0,P|280:76|268:44,1,85,0|0,0:0|0:0,0:0:0:0:
158,99,7890,2,0,P|147:124|111:168,1,85,0|0,0:0|0:0,0:0:0:0:
192,256,8190,6,0,P|240:285|262:312,1,85,0|0,0:0|0:0,0:0:0:0:
348,225,8490,2,0,P|349:197|369:143,1,85,0|0,0:0|0:0,0:0:0:0:
278,65,8790,2,0,P|229:35|207:8,1,85,0|0,0:0|0:0,0:0:0:0:
122,96,9090,2,0,P|120:123|100:177,1,85,0|0,0:0|0:0,0:0:0:0:
192,256,9390,6,0,L|248:320,1,85,0|0,0:0|1:0,0:0:0:0:
328,96,9840,2,0,L|416:104,1,85,0|0,0:0|1:0,0:0:0:0:
122,96,10290,2,0,L|26:112,1,85,0|0,0:0|1:0,0:0:0:0:
24,192,10590,2,0,P|52:224|76:272,1,85
68,352,10890,5,0,1:0:0:0:
180,368,11040,1,0,1:0:0:0:
260,292,11190,1,0,0:0:0:0:
268,272,11265,1,0,0:0:0:0:
276,252,11340,1,0,0:0:0:0:
284,232,11415,1,0,0:0:0:0:
292,212,11490,1,0,0:0:0:0:
300,192,11565,1,0,0:0:0:0:
308,172,11640,1,0,0:0:0:0:
316,152,11715,1,0,0:0:0:0:
324,128,11790,6,0,B|320:64|320:64|288:20|212:20,1,170,4|0,0:0|0:0,0:0:0:0:
88,48,12240,2,0,P|100:88|84:224,1,170
204,132,12690,2,0,L|296:120,1,85
376,216,12990,1,0,0:0:0:0:
420,128,13140,2,0,L|448:96,2,42.5
460,252,13440,2,0,P|392:304|308:276,1,170
338,107,13890,2,0,P|376:112|420:128,1,85
264,168,14190,6,0,P|237:116|280:20,1,170,0|0,0:0|0:0,0:0:0:0:
338,108,14640,1,0,0:0:0:0:
338,108,14715,1,0,0:0:0:0:
338,108,14790,2,0,L|364:196,1,85
160,185,15090,2,0,L|136:104,1,85
260,236,15390,2,0,L|236:324,1,85
112,240,15690,2,0,L|28:208,1,85
216,128,15990,2,0,L|156:60,1,85
316,52,16290,1,0,0:0:0:0:
316,52,16365,1,0,0:0:0:0:
316,52,16440,1,0,0:0:0:0:
316,52,16515,1,0,0:0:0:0:
316,52,16590,6,0,B|384:76|408:124|408:124|420:192,1,170,4|0,0:0|0:0,0:0:0:0:
376,272,17040,1,0,0:0:0:0:
284,324,17190,1,0,0:0:0:0:
180,320,17340,1,0,0:0:0:0:
96,260,17490,2,0,B|100:184|140:164|140:164|196:124,1,170
189,129,17940,2,0,P|219:169|255:189,1,85
344,80,18240,2,0,P|314:40|278:20,1,85
328,184,18540,2,0,L|360:280,2,85
189,130,18990,6,0,P|146:203|146:303,1,170,4|0,0:0|0:0,0:0:0:0:
264,312,19440,2,0,P|256:256|240:216,1,85,0|0,0:0|0:0,0:0:0:0:
128,320,19740,2,0,P|88:336|32:332,1,85
44,164,20040,2,0,B|108:172|156:220|216:220,1,170,4|0,0:0|0:0,0:0:0:0:
300,192,20490,1,0,0:0:0:0:
324,92,20640,2,0,P|288:64|248:52,2,85
300,192,21090,1,0,0:0:0:0:
296,228,21165,1,0,0:0:0:0:
296,268,21240,1,0,0:0:0:0:
304,304,21315,1,0,0:0:0:0:
320,340,21390,6,0,P|376:360|480:316,1,170,4|0,0:0|0:0,0:0:0:0:
372,168,21840,2,0,P|273:129|217:149,1,170,0|0,0:0|0:0,0:0:0:0:
372,168,22290,2,0,L|420:88,1,85
232,236,22590,2,0,L|188:308,2,85
284,148,23040,1,0,0:0:0:0:
356,76,23190,2,0,P|428:80|500:156,1,170
416,212,23640,1,0,0:0:0:0:
284,148,23790,6,0,L|148:40,1,170,0|0,0:0|0:0,0:0:0:0:
76,152,24240,2,0,L|64:240,1,85
168,292,24540,2,0,L|180:208,2,85
272,256,24990,2,0,B|320:240|320:240|376:244|432:304,1,170
324,328,25440,1,0,0:0:0:0:
280,156,25590,2,0,P|296:104|316:72,1,85
420,40,25890,1,0,0:0:0:0:
464,148,26040,1,0,0:0:0:0:
464,148,26115,1,0,0:0:0:0:
464,148,26190,6,0,P|448:208|368:280,1,170,4|0,0:0|0:0,0:0:0:0:
256,228,26640,2,0,L|256:132,2,85
141,278,27090,1,0,0:0:0:0:
141,278,27240,2,0,P|64:208|48:148,1,170,0|0,0:0|0:0,0:0:0:0:
100,56,27690,1,0,0:0:0:0:
204,60,27840,2,0,B|288:88|288:88|352:152,1,170
256,240,28290,2,0,P|220:208|204:168,1,85
256,192,28590,12,0,30840,0:0:0:0:
384,96,31140,5,0,0:0:0:0:
384,96,31290,2,0,B|372:192|372:192|336:264,1,170
248,304,31740,1,0,0:0:0:0:
152,272,31890,1,0,0:0:0:0:
116,176,32040,2,0,P|144:124|256:88,1,170,4|0,0:0|0:0,0:0:0:0:
216,208,32490,1,0,0:0:0:0:
216,208,32640,2,0,P|172:172|52:208,1,170
52,292,33090,1,0,0:0:0:0:
160,284,33240,1,0,0:0:0:0:
160,284,33315,1,0,0:0:0:0:
160,284,33390,6,0,P|228:304|292:360,1,152.999995330811,4|0,0:0|0:0,0:0:0:0:
372,332,33840,1,0,0:0:0:0:
408,256,33990,1,0,0:0:0:0:
408,172,34140,1,0,0:0:0:0:
360,104,34290,1,0,0:0:0:0:
312,200,34440,2,0,P|264:224|160:236,2,152.999995330811
252,132,35190,2,0,P|204:124|168:108,1,76.4999976654053
92,60,35490,1,0,0:0:0:0:
92,60,35565,1,0,0:0:0:0:
92,60,35640,1,0,0:0:0:0:
92,60,35715,1,0,0:0:0:0:
92,60,35790,6,0,P|68:120|52:240,1,170,4|0,0:0|0:0,0:0:0:0:
96,316,36240,1,0,0:0:0:0:
192,284,36390,2,0,P|240:280|280:288,1,85
368,328,36690,1,0,0:0:0:0:
456,276,36840,2,0,P|464:192|440:108,1,170,4|0,0:0|0:0,0:0:0:0:
360,172,37290,1,0,0:0:0:0:
360,172,37440,2,0,P|272:192|176:172,1,170
104,228,37890,2,0,P|136:264|172:280,1,85
256,328,38190,6,0,P|332:296|424:312,1,170,4|0,0:0|0:0,0:0:0:0:
468,240,38640,1,0,0:0:0:0:
440,160,38790,2,0,P|416:72|464:12,1,170
340,80,39240,2,0,P|280:136|184:144,1,170,4|0,0:0|0:0,0:0:0:0:
112,120,39690,2,0,P|76:88|60:48,1,85
208,56,39990,1,0,0:0:0:0:
228,88,40065,1,0,0:0:0:0:
236,124,40140,1,0,0:0:0:0:
240,160,40215,1,0,0:0:0:0:
240,200,40290,2,0,L|228:252,3,42.5
212,272,40590,6,0,P|280:288|360:340,1,152.999995330811,4|0,0:0|0:0,0:0:0:0:
444,328,41040,1,0,0:0:0:0:
460,236,41190,2,0,B|460:164|460:164|472:132|472:132|472:72,1,152.999995330811
372,136,41640,2,0,B|372:208|372:208|360:240|292:268,1,152.999995330811,4|0,0:0|0:0,0:0:0:0:
164,148,42240,1,0,0:0:0:0:
164,148,42390,2,0,P|120:128|92:124,1,76.4999976654053
16,172,42690,2,0,P|28:216|28:256,1,76.4999976654053
72,328,42990,6,0,P|120:324|228:284,1,152.999995330811,4|0,0:0|0:0,0:0:0:0:
292,232,43440,1,0,0:0:0:0:
292,232,43515,1,0,0:0:0:0:
292,232,43590,2,0,P|348:276|452:288,1,152.999995330811
184,80,44190,2,0,L|160:236,2,152.999995330811
392,124,45090,2,0,L|376:216,1,76.4999976654053
312,96,45390,6,0,P|372:40|456:72,1,170,4|0,0:0|0:0,0:0:0:0:
480,160,45840,1,0,0:0:0:0:
420,244,45990,2,0,L|352:304,1,85
272,240,46290,1,0,0:0:0:0:
272,240,46440,2,0,P|208:280|100:276,1,170
56,196,46890,2,0,L|48:148,3,42.5
60,104,47190,2,0,L|68:60,3,42.5
108,32,47490,2,0,P|144:56|240:60,1,127.5
228,48,47790,6,0,P|260:104|381:136,1,170,4|0,0:0|0:0,0:0:0:0:
404,52,48240,1,0,0:0:0:0:
464,168,48390,2,0,B|452:248|452:248|464:296|432:348,1,170
256,216,48990,2,0,L|256:36,1,170
76,176,49590,1,0,0:0:0:0:
80,196,49665,1,0,0:0:0:0:
84,216,49740,1,0,0:0:0:0:
88,236,49815,1,0,0:0:0:0:
92,256,49890,1,0,0:0:0:0:
96,276,49965,1,0,0:0:0:0:
100,296,50040,1,0,0:0:0:0:
104,316,50115,1,0,0:0:0:0:
108,336,50190,6,0,P|160:356|280:340,1,170,4|0,0:0|0:0,0:0:0:0:
360,292,50640,2,0,B|368:232|328:184|328:184|344:124,1,170
462,65,51090,2,0,L|444:148,1,85
260,144,51390,2,0,P|306:58|370:50,1,170
260,144,51840,2,0,P|208:160|168:164,1,85
72,204,52140,1,0,0:0:0:0:
72,204,52215,1,0,0:0:0:0:
72,204,52290,2,0,P|88:252|96:296,1,85
204,236,52590,6,0,B|280:200|280:200|372:192,1,170
452,244,53040,1,0,0:0:0:0:
388,320,53190,2,0,L|296:364,1,85
204,236,53490,2,0,L|112:216,1,85
272,148,53790,2,0,P|328:100|424:120,2,170
360,192,54540,1,0,0:0:0:0:
208,92,54690,2,0,P|192:136|192:176,1,85
196,204,54915,1,0,0:0:0:0:
200,232,54990,6,0,P|216:276|316:344,1,170,4|0,0:0|0:0,0:0:0:0:
400,296,55440,1,0,0:0:0:0:
440,204,55590,2,0,P|424:156|400:120,1,85
288,60,55890,2,0,P|269:88|253:136,1,85
256,264,56190,1,0,0:0:0:0:
352,296,56340,2,0,B|376:248|376:248|392:196|340:132,1,170
165,140,56790,2,0,B|120:196|136:248|136:248|160:296,1,170
256,264,57240,1,0,0:0:0:0:
256,232,57315,1,0,0:0:0:0:
256,200,57390,6,0,L|256:104,1,85,4|0,0:0|0:0,0:0:0:0:
165,140,57690,2,0,P|129:168|89:192,1,85
52,292,57990,2,0,P|90:322|111:357,2,85
176,264,58440,2,0,P|240:296|356:280,1,170,0|0,0:0|0:0,0:0:0:0:
408,212,58890,1,0,0:0:0:0:
388,108,59040,2,0,P|348:84|304:80,1,85
208,192,59340,2,0,P|248:216|292:220,1,85
320,216,59565,1,0,0:0:0:0:
348,200,59640,1,0,0:0:0:0:
372,176,59715,1,0,0:0:0:0:
384,144,59790,6,0,P|384:60|300:12,1,170,4|0,0:0|0:0,0:0:0:0:
216,96,60240,2,0,L|216:192,1,85
108,236,60540,2,0,L|76:152,2,85
224,284,60990,2,0,P|264:312|284:344,1,85
340,224,61290,2,0,P|356:184|388:152,1,85
256,104,61590,2,0,L|76:104,1,170
48,200,62040,1,0,0:0:0:0:
48,200,62115,1,0,0:0:0:0:
48,200,62190,6,0,P|56:252|76:288,1,85
148,196,62490,1,0,0:0:0:0:
148,196,62640,2,0,P|164:136|272:76,1,170
288,192,63090,2,0,B|304:240|304:240|340:284|420:296,1,170
444,200,63540,1,0,0:0:0:0:
288,192,63690,2,0,L|200:224,1,85
164,120,63990,2,0,L|72:124,1,85
48,220,64290,1,0,0:0:0:0:
68,252,64365,1,0,0:0:0:0:
80,288,64440,1,0,0:0:0:0:
84,328,64515,1,0,0:0:0:0:
84,368,64590,6,0,P|176:356|252:368,1,170,4|0,0:0|0:0,0:0:0:0:
324,284,65040,1,0,0:0:0:0:
280,184,65190,2,0,P|232:168|196:140,2,85
204,48,65640,2,0,P|128:76|108:160,1,170,4|0,0:0|0:0,0:0:0:0:
88,264,66090,1,0,0:0:0:0:
172,332,66240,2,0,B|208:364|208:364|264:348|336:356,1,170
408,280,66690,2,0,L|432:188,1,85
316,148,66990,6,0,L|224:192,1,85,4|0,0:0|0:0,0:0:0:0:
184,92,67290,1,0,0:0:0:0:
316,148,67440,2,0,P|320:224|268:320,1,170
148,251,67890,2,0,P|144:175|184:92,1,170,4|0,0:0|0:0,0:0:0:0:
256,240,68340,2,0,P|296:264|324:296,1,85
424,296,68640,1,0,0:0:0:0:
452,196,68790,2,0,L|436:108,1,85
356,52,69090,1,0,0:0:0:0:
356,52,69165,1,0,0:0:0:0:
356,52,69240,6,0,B|308:88|308:88|256:100|188:80,1,170
104,120,69690,2,0,P|132:156|256:196,1,170
360,252,70140,2,0,P|324:276|280:288,1,85
160,308,70440,2,0,P|220:356|320:376,2,170,4|0|0,0:0|0:0|0:0,0:0:0:0:
208,80,71340,2,0,B|260:104|260:104|248:164|268:224,1,170
336,128,71790,6,0,P|340:88|356:52,1,76.4999976654053,4|0,0:0|0:0,0:0:0:0:
180,168,72090,2,0,P|176:208|160:244,1,76.4999976654053,0|0,0:0|0:0,0:0:0:0:
228,324,72390,2,0,P|280:332|316:352,2,76.4999976654053
340,256,72840,2,0,P|412:232|468:160,2,152.999995330811
244,200,73590,2,0,L|160:200,1,76.4999976654053
96,136,73890,1,0,0:0:0:0:
96,136,73965,1,0,0:0:0:0:
96,136,74040,1,0,0:0:0:0:
96,136,74115,1,0,0:0:0:0:
96,136,74190,6,0,P|116:76|212:44,1,170,4|0,0:0|0:0,0:0:0:0:
292,104,74640,1,0,0:0:0:0:
392,108,74790,2,0,P|440:88|472:64,1,85
380,196,75090,1,0,0:0:0:0:
380,196,75240,2,0,B|408:252|408:252|412:300|372:364,1,170,4|0,0:0|0:0,0:0:0:0:
296,236,75690,1,0,0:0:0:0:
232,316,75840,2,0,P|168:332|52:304,1,170
62,163,76290,2,0,P|92:184|120:224,1,85
120,224,76515,1,0,0:0:0:0:
120,224,76590,5,0,0:0:0:0:
212,176,76740,1,0,0:0:0:0:
296,236,76890,1,0,0:0:0:0:
376,168,77040,1,0,0:0:0:0:
432,252,77190,2,0,P|412:316|328:380,1,170
296,236,77640,2,0,L|312:64,1,170,4|0,0:0|0:0,0:0:0:0:
212,88,78090,2,0,L|204:180,1,85
120,260,78390,5,0,0:0:0:0:
104,232,78465,1,0,0:0:0:0:
92,200,78540,1,0,0:0:0:0:
88,168,78615,1,0,0:0:0:0:
92,136,78690,1,0,0:0:0:0:
100,104,78765,1,0,0:0:0:0:
116,76,78840,1,0,0:0:0:0:
144,56,78915,1,0,0:0:0:0:
172,48,78990,6,0,B|244:36|312:88|416:80,1,229.499992996216,4|0,0:0|0:0,0:0:0:0:
408,172,79590,2,0,B|408:236|356:268|372:336,1,152.999995330811
408,172,80040,2,0,P|348:184|312:184,1,76.4999976654053
232,124,80340,2,0,P|248:172|248:216,1,76.4999976654053
240,288,80640,1,0,0:0:0:0:
160,332,80790,2,0,P|92:336|36:264,1,152.999995330811
72,148,81240,1,0,0:0:0:0:
72,148,81315,1,0,0:0:0:0:
72,148,81390,6,0,B|144:132|144:132|188:140|204:184,1,152.999995330811,4|0,0:0|0:0,0:0:0:0:
276,244,81840,1,0,0:0:0:0:
368,276,81990,2,0,P|416:256|452:236,1,76.4999976654053
392,128,82290,2,0,P|440:108|472:100,1,76.4999976654053
276,244,82590,2,0,P|216:276|128:296,2,152.999995330811
208,92,83490,1,0,0:0:0:0:
208,92,83565,1,0,0:0:0:0:
208,92,83640,1,0,0:0:0:0:
208,92,83715,1,0,0:0:0:0:
208,92,83790,6,0,P|168:148|156:260,1,170
240,304,84240,1,0,0:0:0:0:
324,248,84390,2,0,L|308:152,2,85
424,204,84840,2,0,P|416:120|368:44,1,170
292,124,85290,2,0,P|248:148|200:164,1,85
132,220,85590,1,0,0:0:0:0:
136,252,85665,1,0,0:0:0:0:
144,284,85740,1,0,0:0:0:0:
156,316,85815,1,0,0:0:0:0:
172,344,85890,2,0,L|204:376,3,42.5
220,384,86190,6,0,P|288:352|396:352,1,170,4|0,0:0|0:0,0:0:0:0:
412,252,86640,1,0,0:0:0:0:
360,168,86790,2,0,P|336:124|328:80,1,85
212,168,87090,2,0,P|188:212|180:256,1,85
84,104,87390,1,0,0:0:0:0:
48,192,87540,2,0,P|48:280|100:360,1,170,0|0,0:0|0:0,0:0:0:0:
200,320,87990,5,0,0:0:0:0:
224,296,88065,1,0,0:0:0:0:
244,268,88140,1,0,0:0:0:0:
256,236,88215,1,0,0:0:0:0:
260,204,88290,1,0,0:0:0:0:
260,172,88365,1,0,0:0:0:0:
252,140,88440,1,0,0:0:0:0:
240,108,88515,1,0,0:0:0:0:
220,80,88590,6,0,B|160:56|160:56|92:52|44:88,1,170,4|0,0:0|0:0,0:0:0:0:
44,180,89040,1,0,0:0:0:0:
60,280,89190,2,0,L|148:324,1,85
224,268,89490,1,0,0:0:0:0:
320,164,89640,2,0,P|340:248|292:332,1,170
320,164,90090,2,0,L|412:136,1,85
440,240,90390,2,0,P|428:288|432:328,1,85
305,321,90690,2,0,P|261:297|221:293,1,85
104,320,90990,6,0,P|128:256|108:140,1,170,0|0,0:0|0:0,0:0:0:0:
136,56,91440,1,0,0:0:0:0:
216,120,91590,2,0,P|256:136|300:140,1,85
408,60,91890,2,0,P|388:104|388:152,1,85
416,264,92190,2,0,P|372:244|324:244,1,85
216,120,92490,2,0,P|196:168|192:216,1,85
296,344,92790,2,0,P|316:296|320:248,1,85
176,216,93090,2,0,P|132:240|84:244,1,85
64,68,93390,6,0,P|108:88|140:124,1,85,0|0,0:0|0:0,0:0:0:0:
176,216,93690,1,0,0:0:0:0:
276,240,93840,1,0,0:0:0:0:
360,184,93990,1,0,0:0:0:0:
356,84,94140,1,0,0:0:0:0:
260,56,94290,1,0,0:0:0:0:
168,120,94440,6,0,P|120:120|80:108,1,85
112,284,94740,2,0,P|147:273|195:273,1,85
288,320,95040,1,0,0:0:0:0:
288,320,95115,1,0,0:0:0:0:
288,320,95190,2,0,P|340:304|372:288,1,85
316,172,95490,2,0,P|316:104|312:80,1,85
224,176,95790,6,0,L|52:216,1,170,4|0,0:0|0:0,0:0:0:0:
184,296,96240,2,0,L|349:257,1,170,4|0,0:0|0:0,0:0:0:0:
224,176,96690,1,0,0:0:0:0:
224,176,96840,2,0,P|208:124|208:84,1,85
336,48,97140,2,0,P|356:108|344:228,1,170
276,284,97590,2,0,P|228:300|192:320,1,85
96,268,97890,1,0,0:0:0:0:
84,236,97965,1,0,0:0:0:0:
80,204,98040,1,0,0:0:0:0:
80,168,98115,1,0,0:0:0:0:
88,136,98190,6,0,L|140:64,1,85,4|0,0:0|0:0,0:0:0:0:
240,156,98490,2,0,L|328:188,1,85
248,288,98790,2,0,L|196:360,1,85,0|0,0:0|0:0,0:0:0:0:
96,268,99090,2,0,L|8:236,1,85
127,70,99390,6,0,L|204:26,1,85,0|0,0:0|0:0,0:0:0:0:
256,152,99690,2,0,L|322:218,1,85
208,275,99990,2,0,L|130:318,1,85,0|0,0:0|0:0,0:0:0:0:
78,193,100290,2,0,L|12:127,1,85
172,44,100590,6,0,P|256:44|332:92,1,170,4|0,0:0|0:0,0:0:0:0:
328,248,101040,2,0,P|244:248|168:200,1,170,0|0,0:0|0:0,0:0:0:0:
244,132,101490,1,0,0:0:0:0:
340,160,101640,2,0,P|348:112|336:72,1,85
160,108,101940,2,0,P|152:156|164:196,1,85
340,160,102240,2,0,P|328:72|240:28,1,170
160,108,102690,2,0,L|72:156,1,85
68,184,102915,1,0,0:0:0:0:
60,220,102990,6,0,P|64:292|160:340,1,170,4|0,0:0|0:0,0:0:0:0:
224,280,103440,2,0,P|264:256|312:248,2,85
296,336,103890,1,0,0:0:0:0:
395,221,104040,2,0,P|336:176|244:180,1,170,4|0,0:0|0:0,0:0:0:0:
152,228,104490,1,0,0:0:0:0:
84,152,104640,2,0,L|60:44,1,85
196,32,104940,2,0,L|196:128,1,85
284,168,105240,1,0,0:0:0:0:
284,168,105315,1,0,0:0:0:0:
284,168,105390,6,0,P|352:132|456:176,1,170,4|0,0:0|0:0,0:0:0:0:
372,236,105840,2,0,L|340:56,1,170
244,40,106290,1,0,0:0:0:0:
220,140,106440,2,0,P|156:172|120:36,1,255,4|0,0:0|0:0,0:0:0:0:
216,20,107040,1,0,0:0:0:0:
328,28,107190,6,0,L|360:68,3,42.5
368,92,107490,1,0,0:0:0:0:
376,124,107565,1,0,0:0:0:0:
380,156,107640,1,0,0:0:0:0:
376,192,107715,1,0,0:0:0:0:
368,220,107790,6,0,P|256:272|144:220,1,255,4|0,0:0|0:0,0:0:0:0:
256,96,108390,2,0,L|256:181,1,85
376,136,108690,2,0,L|350:55,1,85
161,55,108990,2,0,L|136:136,1,85
44,212,109290,2,0,B|56:296|120:308|120:308|164:296,1,170
256,260,109740,1,0,0:0:0:0:
340,319,109890,2,0,P|388:304|416:272,1,85
339,125,110190,6,0,P|264:199|256:259,1,170,4|0,0:0|0:0,0:0:0:0:
397,184,110640,1,0,0:0:0:0:
397,184,110715,1,0,0:0:0:0:
397,184,110790,2,0,P|380:156|339:125,1,85
232,84,111090,1,0,0:0:0:0:
164,176,111240,2,0,P|108:224|4:252,1,170,0|0,0:0|0:0,0:0:0:0:
164,176,111690,2,0,P|192:224|220:256,1,85
320,180,111990,2,0,P|356:204|400:220,1,85
440,96,112290,1,0,0:0:0:0:
440,96,112365,1,0,0:0:0:0:
440,96,112440,1,0,0:0:0:0:
440,96,112515,1,0,0:0:0:0:
440,96,112590,6,0,P|396:176|388:256,1,170,4|0,0:0|0:0,0:0:0:0:
256,168,113040,2,0,L|256:80,1,85
128,176,113340,2,0,P|144:216|152:264,1,85
76,72,113640,2,0,B|132:48|196:68|196:68|244:116,1,170
352,200,114090,2,0,P|368:152|372:104,1,85
224,248,114390,2,0,P|208:296|204:344,1,85
304,360,114690,1,0,0:0:0:0:
224,92,114990,6,0,P|136:104|60:152,1,170,4|0,0:0|0:0,0:0:0:0:
208,176,115440,2,0,P|296:188|372:236,1,170,4|0,0:0|0:0,0:0:0:0:
224,260,115890,1,0,0:0:0:0:
224,260,116040,2,0,L|52:284,1,170,4|0,0:0|0:0,0:0:0:0:
104,136,116490,2,0,L|204:124,1,85
264,232,116790,2,0,P|316:228|360:216,1,85
428,124,117090,1,0,0:0:0:0:
428,124,117165,1,0,0:0:0:0:
428,124,117240,1,0,0:0:0:0:
428,124,117315,1,0,0:0:0:0:
428,124,117390,6,0,L|252:52,1,170,4|0,0:0|0:0,0:0:0:0:
168,136,117840,1,0,0:0:0:0:
116,256,117990,2,0,P|168:240|204:216,1,85
100,72,118290,2,0,P|48:88|12:112,1,85
36,232,118590,2,0,P|88:248|156:340,1,170
248,296,119040,1,0,0:0:0:0:
344,336,119190,1,0,0:0:0:0:
440,288,119340,1,0,0:0:0:0:
436,180,119490,1,0,0:0:0:0:
424,148,119565,1,0,0:0:0:0:
408,120,119640,1,0,0:0:0:0:
388,96,119715,1,0,0:0:0:0:
364,72,119790,6,0,B|316:96|316:96|272:108|192:92,1,170,4|0,0:0|0:0,0:0:0:0:
104,160,120240,1,0,0:0:0:0:
104,160,120315,1,0,0:0:0:0:
104,160,120390,2,0,P|84:200|52:232,1,85
188,252,120690,2,0,L|276:252,1,85
192,96,120990,2,0,P|152:44|52:48,2,170
240,196,121740,1,0,0:0:0:0:
340,248,121890,1,0,0:0:0:0:
340,248,121965,1,0,0:0:0:0:
340,248,122040,1,0,0:0:0:0:
340,248,122115,1,0,0:0:0:0:
340,248,122190,6,0,P|376:208|376:84,1,170,4|0,0:0|0:0,0:0:0:0:
284,44,122640,1,0,0:0:0:0:
216,136,122790,2,0,P|232:180|264:216,1,85
136,176,123090,1,0,0:0:0:0:
136,176,123240,2,0,P|92:100|20:56,1,170
148,40,123690,2,0,L|248:60,1,85
308,112,123990,1,0,0:0:0:0:
320,204,124140,1,0,0:0:0:0:
300,296,124290,1,0,0:0:0:0:
88,160,124590,6,0,P|152:216|160:316,1,170
256,232,125040,2,0,L|256:140,1,85
424,160,125340,2,0,P|360:216|346:296,1,170
424,160,125790,2,0,L|372:80,1,85
256,232,126090,2,0,P|220:264|180:280,1,85
136,88,126390,2,0,P|184:108|208:132,1,85
256,232,126690,1,0,0:0:0:0:
256,232,126765,1,0,0:0:0:0:
256,232,126840,1,0,0:0:0:0:
256,232,126915,1,0,0:0:0:0:
256,232,126990,6,0,P|332:220|380:64,1,255,4|0,0:0|0:0,0:0:0:0:
264,76,127590,2,0,P|220:88|176:92,1,85
120,216,127890,2,0,P|148:252|168:292,1,85
228,172,128190,2,0,B|280:152|280:152|332:144|392:200,1,170,4|0,0:0|0:0,0:0:0:0:
400,288,128640,1,0,0:0:0:0:
320,340,128790,2,0,L|220:356,1,85
176,224,129090,5,0,0:0:0:0:
172,212,129165,1,0,0:0:0:0:
168,200,129240,1,0,0:0:0:0:
164,188,129315,1,0,0:0:0:0:
160,176,129390,1,2,0:0:0:0:
256,192,129540,12,0,132990,0:0:0:0:
